Subcategories

Italian Baroque: The Instrumental Edition: Albinoni, Barsanti, Bassani [2016]

Posted By: Vilboa
Italian Baroque: The Instrumental Edition: Albinoni, Barsanti, Bassani [2016]

Italian Baroque: The Instrumental Edition: Albinoni, Barsanti, Bassani [2016]
Classical | Brilliant Classics 95430 | TT: 56.02+64.27+45.11+47.13+42.23+38.25 | EAC (FLAC, cue, log) | Covers | 1.51 Gb

A celebration of instrumental Baroque splendour! This set present an anthology of Italian Baroque composers, featuring their instrumental output. Obviously the famous composers have their fair share: Vivaldi, Albinoni, Locatelli, Corelli, but also lesser known composers are featured: Barsanti, Bassani, Veracini, Nardini, Stradella, Vitali, Mancini, Platti, Legrenze and many more, over 30 composers! Performances by leading ensembles specialized in the Historically Informed Performance Practice: L'Arte dell'Arco/Federico Guglielmo, Ensemble Cordia/Stefano Veggetti, Violini Capricciosi/Igor Ruhadze, MusicaAmphion/Pieter Jan Belder and many more. A treasure trove of solo concertos, concerti grossi, sinfonias, overtures, trio sonatas and solo sonatas from the Golden Era of the Italian Baroque, era of joy, passion and brilliance!

CD1: Tomaso Albinoni (1671-1751): Trattenimenti Armonici Op.6 [56.02]
Track List & Cast:
01-04. Sonata in G minor, Op. 6 No. 2
05-08. Sonata in G major, Op. 6 No. 9
09-12. Sonata in D minor, Op. 6 No. 4
13-16. Sonata in F major, Op. 6 No. 5
17-20. Sonata in E minor, Op. 6 No. 8
21-24. Sonata in B flat major, Op. 6 No. 3

Zero Emission Baroque Orchestra

Exact Audio Copy V1.0 beta 3 from 29. August 2011

EAC extraction logfile from 7. July 2017, 14:18

Zero Emission Baroque Orchestra / Albinoni - Trattenimenti Armonici, Op. 6

Used drive : PIONEER BD-RW BDR-207M Adapter: 0 ID: 0

Read mode : Secure
Utilize accurate stream : Yes
Defeat audio cache : Yes
Make use of C2 pointers : No

Read offset correction : 667
Overread into Lead-In and Lead-Out : No
Fill up missing offset samples with silence : Yes
Delete leading and trailing silent blocks : No
Null samples used in CRC calculations : Yes
Used interface : Native Win32 interface for Win NT & 2000

Used output format : User Defined Encoder
Selected bitrate : 128 kBit/s
Quality : High
Add ID3 tag : No
Command line compressor : C:\Program Files\Exact Audio Copy\Flac\flac.exe
Additional command line options : -V -8 -T "Date=%year%" -T "Genre=%genre%" %source%


TOC of the extracted CD

Track | Start | Length | Start sector | End sector
––––––––––––––––––––––––––––-
1 | 0:00.00 | 2:31.32 | 0 | 11356
2 | 2:31.32 | 2:32.24 | 11357 | 22780
3 | 5:03.56 | 2:21.70 | 22781 | 33425
4 | 7:25.51 | 2:15.61 | 33426 | 43611
5 | 9:41.37 | 2:32.60 | 43612 | 55071
6 | 12:14.22 | 2:53.11 | 55072 | 68057
7 | 15:07.33 | 1:52.15 | 68058 | 76472
8 | 16:59.48 | 2:49.06 | 76473 | 89153
9 | 19:48.54 | 2:34.15 | 89154 | 100718
10 | 22:22.69 | 3:07.36 | 100719 | 114779
11 | 25:30.30 | 2:20.62 | 114780 | 125341
12 | 27:51.17 | 2:03.40 | 125342 | 134606
13 | 29:54.57 | 2:44.05 | 134607 | 146911
14 | 32:38.62 | 2:10.01 | 146912 | 156662
15 | 34:48.63 | 2:25.46 | 156663 | 167583
16 | 37:14.34 | 1:15.30 | 167584 | 173238
17 | 38:29.64 | 2:14.32 | 173239 | 183320
18 | 40:44.21 | 2:17.52 | 183321 | 193647
19 | 43:01.73 | 1:50.02 | 193648 | 201899
20 | 44:52.00 | 2:08.06 | 201900 | 211505
21 | 47:00.06 | 2:30.32 | 211506 | 222787
22 | 49:30.38 | 3:01.51 | 222788 | 236413
23 | 52:32.14 | 1:48.05 | 236414 | 244518
24 | 54:20.19 | 1:40.46 | 244519 | 252064


Range status and errors

Selected range

Filename C:\Albinoni - Trattenimenti Armonici, Op. 6.wav

Peak level 97.2 %
Extraction speed 4.3 X
Range quality 99.9 %
Test CRC ED3C5021
Copy CRC ED3C5021
Copy OK

No errors occurred

End of status report

==== Log checksum BB3D609BF98C560569E73304763B644489460C60B0975FEB6FC5EDE5D7673C5B ====

CD2: Tomaso Albinoni: Concertos for solo oboe, oboes and strings [64.27]
Track List & Cast:
01-03. Concerto a cinque for Solo Oboe and Strings in D minor, Op. 9/2
04-06. Concerto for 2 Oboes and Strings in C major, Op. 7/2
07-09. Concerto for Oboe Solo and Strings in D major, Op. 7/6
10-12. Concerto a cinque for 2 Oboes and Strings in C major, Op. 9/9
13-15. Concerto for 2 Oboes and Strings in D major, Op. 7/8
16-18. Concerto a cinque for Oboe and Strings in C major, Op. 9/5
19-21. Concerto for Oboe Solo and Strings in B-flat major, Op. 7/3
22-24. Concerto for 2 Oboes and Strings in F major, Op. 9/3

Stefan Schilli, oboe I
Giovanni Deangeli, oboe II
Stuttgart Kammerorchester
Nicol Matt, conductor


Exact Audio Copy V1.0 beta 3 from 29. August 2011

EAC extraction logfile from 7. July 2017, 14:56

Stefan Schilli, Giovanni Deangelli, Nicol Matt / Albinoni - Concerto for solo oboe, oboes and string

Used drive : PIONEER BD-RW BDR-207M Adapter: 0 ID: 0

Read mode : Secure
Utilize accurate stream : Yes
Defeat audio cache : Yes
Make use of C2 pointers : No

Read offset correction : 667
Overread into Lead-In and Lead-Out : No
Fill up missing offset samples with silence : Yes
Delete leading and trailing silent blocks : No
Null samples used in CRC calculations : Yes
Used interface : Native Win32 interface for Win NT & 2000

Used output format : User Defined Encoder
Selected bitrate : 128 kBit/s
Quality : High
Add ID3 tag : No
Command line compressor : C:\Program Files\Exact Audio Copy\Flac\flac.exe
Additional command line options : -V -8 -T "Date=%year%" -T "Genre=%genre%" %source%


TOC of the extracted CD

Track | Start | Length | Start sector | End sector
––––––––––––––––––––––––––––-
1 | 0:00.00 | 3:43.30 | 0 | 16754
2 | 3:43.30 | 4:13.42 | 16755 | 35771
3 | 7:56.72 | 2:51.17 | 35772 | 48613
4 | 10:48.14 | 2:01.49 | 48614 | 57737
5 | 12:49.63 | 1:00.06 | 57738 | 62243
6 | 13:49.69 | 1:50.59 | 62244 | 70552
7 | 15:40.53 | 2:40.38 | 70553 | 82590
8 | 18:21.16 | 1:39.64 | 82591 | 90079
9 | 20:01.05 | 2:14.26 | 90080 | 100155
10 | 22:15.31 | 4:00.42 | 100156 | 118197
11 | 26:15.73 | 2:29.50 | 118198 | 129422
12 | 28:45.48 | 3:28.47 | 129423 | 145069
13 | 32:14.20 | 2:18.03 | 145070 | 155422
14 | 34:32.23 | 1:58.38 | 155423 | 164310
15 | 36:30.61 | 1:45.68 | 164311 | 172253
16 | 38:16.54 | 3:20.14 | 172254 | 187267
17 | 41:36.68 | 1:56.26 | 187268 | 195993
18 | 43:33.19 | 3:09.57 | 195994 | 210225
19 | 46:43.01 | 2:47.14 | 210226 | 222764
20 | 49:30.15 | 2:02.07 | 222765 | 231921
21 | 51:32.22 | 2:13.62 | 231922 | 241958
22 | 53:46.09 | 4:30.08 | 241959 | 262216
23 | 58:16.17 | 2:13.54 | 262217 | 272245
24 | 60:29.71 | 3:55.51 | 272246 | 289921


Range status and errors

Selected range

Filename C:\Albinoni - Concerto for solo oboe, oboes and string.wav

Peak level 94.6 %
Extraction speed 4.4 X
Range quality 100.0 %
Test CRC 840CFC12
Copy CRC 840CFC12
Copy OK

No errors occurred

End of status report

==== Log checksum D32B2BD7F6703D4E9DFAABA0BAB82A3F42E757307858FB34C513C551CF9CB6DD ====

CD3: Tomaso Albinoni: Trio Sonatas Op.1 [45.11]
Track List & Cast:
01-04. Sonata in D minor TalM I No.1
05-08. Sonata in F major TalM I No.2
09-12. Sonata in A major TalM I No.3
13-16. Sonata in G minor TalM I No.4
17-20. Sonata in C major TalM I No.5
21-24. Sonata in A minor TalM I No.6

L'Arte dell'Arco
Federico Guglielmo, violin


Exact Audio Copy V1.0 beta 3 from 29. August 2011

EAC extraction logfile from 7. July 2017, 15:16

Federio Guglielmo, L'Arte dell'Arco / Albinoni - Trio Sonatas Op.1

Used drive : PIONEER BD-RW BDR-207M Adapter: 0 ID: 0

Read mode : Secure
Utilize accurate stream : Yes
Defeat audio cache : Yes
Make use of C2 pointers : No

Read offset correction : 667
Overread into Lead-In and Lead-Out : No
Fill up missing offset samples with silence : Yes
Delete leading and trailing silent blocks : No
Null samples used in CRC calculations : Yes
Used interface : Native Win32 interface for Win NT & 2000

Used output format : User Defined Encoder
Selected bitrate : 128 kBit/s
Quality : High
Add ID3 tag : No
Command line compressor : C:\Program Files\Exact Audio Copy\Flac\flac.exe
Additional command line options : -V -8 -T "Date=%year%" -T "Genre=%genre%" %source%


TOC of the extracted CD

Track | Start | Length | Start sector | End sector
––––––––––––––––––––––––––––-
1 | 0:00.00 | 2:10.09 | 0 | 9758
2 | 2:10.09 | 2:14.37 | 9759 | 19845
3 | 4:24.46 | 2:00.57 | 19846 | 28902
4 | 6:25.28 | 1:42.04 | 28903 | 36556
5 | 8:07.32 | 1:54.18 | 36557 | 45124
6 | 10:01.50 | 1:53.43 | 45125 | 53642
7 | 11:55.18 | 2:01.55 | 53643 | 62772
8 | 13:56.73 | 3:15.35 | 62773 | 77432
9 | 17:12.33 | 1:44.04 | 77433 | 85236
10 | 18:56.37 | 1:46.51 | 85237 | 93237
11 | 20:43.13 | 1:56.04 | 93238 | 101941
12 | 22:39.17 | 1:43.43 | 101942 | 109709
13 | 24:22.60 | 2:19.74 | 109710 | 120208
14 | 26:42.59 | 1:41.37 | 120209 | 127820
15 | 28:24.21 | 1:46.17 | 127821 | 135787
16 | 30:10.38 | 1:18.70 | 135788 | 141707
17 | 31:29.33 | 1:54.06 | 141708 | 150263
18 | 33:23.39 | 1:32.72 | 150264 | 157235
19 | 34:56.36 | 1:37.37 | 157236 | 164547
20 | 36:33.73 | 1:29.24 | 164548 | 171246
21 | 38:03.22 | 1:49.71 | 171247 | 179492
22 | 39:53.18 | 2:14.67 | 179493 | 189609
23 | 42:08.10 | 0:43.11 | 189610 | 192845
24 | 42:51.21 | 2:20.04 | 192846 | 203349


Range status and errors

Selected range

Filename C:\Albinoni - Trio Sonatas Op.1.wav

Peak level 95.9 %
Extraction speed 6.7 X
Range quality 100.0 %
Test CRC 63B9180F
Copy CRC 63B9180F
Copy OK

No errors occurred

End of status report

==== Log checksum 95E1BFE616F0831F37163CCD1E0E7A4DEE557F78FAC096437EBBFC5592F80C57 ====

CD4: Francesco Barsanti (1690-1772): Concerti Grossi Op.3 [44.13]
Track List & Cast:
01-04. Concerto No.6
05-07. Concerto No.4
08-11. Concerto No.7
12-15. Concerto No.1
16-21. Concerto No.10

Auser Musici
Carlo Ipata, Attilio Motzo, directors


Exact Audio Copy V1.0 beta 3 from 29. August 2011

EAC extraction logfile from 7. July 2017, 15:48

Carlo Ipata, Attilio Motzo / Barsanti - Concerti Grossi Op.3

Used drive : PIONEER BD-RW BDR-207M Adapter: 0 ID: 0

Read mode : Secure
Utilize accurate stream : Yes
Defeat audio cache : Yes
Make use of C2 pointers : No

Read offset correction : 667
Overread into Lead-In and Lead-Out : No
Fill up missing offset samples with silence : Yes
Delete leading and trailing silent blocks : No
Null samples used in CRC calculations : Yes
Used interface : Native Win32 interface for Win NT & 2000

Used output format : User Defined Encoder
Selected bitrate : 128 kBit/s
Quality : High
Add ID3 tag : No
Command line compressor : C:\Program Files\Exact Audio Copy\Flac\flac.exe
Additional command line options : -V -8 -T "Date=%year%" -T "Genre=%genre%" %source%


TOC of the extracted CD

Track | Start | Length | Start sector | End sector
––––––––––––––––––––––––––––-
1 | 0:00.00 | 2:09.27 | 0 | 9701
2 | 2:09.27 | 2:51.40 | 9702 | 22566
3 | 5:00.67 | 1:25.12 | 22567 | 28953
4 | 6:26.04 | 1:51.09 | 28954 | 37287
5 | 8:17.13 | 3:35.56 | 37288 | 53468
6 | 11:52.69 | 1:18.50 | 53469 | 59368
7 | 13:11.44 | 3:33.62 | 59369 | 75405
8 | 16:45.31 | 2:21.26 | 75406 | 86006
9 | 19:06.57 | 1:46.11 | 86007 | 93967
10 | 20:52.68 | 2:41.41 | 93968 | 106083
11 | 23:34.34 | 3:34.45 | 106084 | 122178
12 | 27:09.04 | 2:22.55 | 122179 | 132883
13 | 29:31.59 | 1:48.68 | 132884 | 141051
14 | 31:20.52 | 2:10.44 | 141052 | 150845
15 | 33:31.21 | 4:17.12 | 150846 | 170132
16 | 37:48.33 | 1:24.57 | 170133 | 176489
17 | 39:13.15 | 3:43.05 | 176490 | 193219
18 | 42:56.20 | 2:07.73 | 193220 | 202817
19 | 45:04.18 | 0:29.54 | 202818 | 205046
20 | 45:33.72 | 1:09.69 | 205047 | 210290
21 | 46:43.66 | 0:27.33 | 210291 | 212348


Range status and errors

Selected range

Filename C:\Barsanti - Concerti Grossi Op.3.wav

Peak level 100.0 %
Extraction speed 4.1 X
Range quality 99.9 %
Test CRC 2C80B63B
Copy CRC 2C80B63B
Copy OK

No errors occurred

End of status report

==== Log checksum 9F3DF77C945163BBE29B3494B1FDAEBF616C2F4727220110A2A69D103230BDF2 ====

CD5-6: Giovanni Battista Bassani (1647-1716): Sinfonie Op.5
Track List & Cast:
CD5 [43.23]
01-04. Sonata No.2 in D minor
05-09. Sonata No.4 in D
10-13. Sonata No.1 in A minor
14-18. Sonata No.3 in G
19-22. Sonata No.6 in F
23-27. Sonata No.5 in A minor

Exact Audio Copy V1.0 beta 3 from 29. August 2011

EAC extraction logfile from 7. July 2017, 17:53

Ensemble StilModerno / Bassani - Sinfonie Op.5 vol.1

Used drive : PIONEER BD-RW BDR-207M Adapter: 0 ID: 0

Read mode : Secure
Utilize accurate stream : Yes
Defeat audio cache : Yes
Make use of C2 pointers : No

Read offset correction : 667
Overread into Lead-In and Lead-Out : No
Fill up missing offset samples with silence : Yes
Delete leading and trailing silent blocks : No
Null samples used in CRC calculations : Yes
Used interface : Native Win32 interface for Win NT & 2000

Used output format : User Defined Encoder
Selected bitrate : 128 kBit/s
Quality : High
Add ID3 tag : No
Command line compressor : C:\Program Files\Exact Audio Copy\Flac\flac.exe
Additional command line options : -V -8 -T "Date=%year%" -T "Genre=%genre%" %source%


TOC of the extracted CD

Track | Start | Length | Start sector | End sector
––––––––––––––––––––––––––––-
1 | 0:00.00 | 1:20.44 | 0 | 6043
2 | 1:20.44 | 1:07.07 | 6044 | 11075
3 | 2:27.51 | 3:16.33 | 11076 | 25808
4 | 5:44.09 | 0:54.33 | 25809 | 29891
5 | 6:38.42 | 1:30.05 | 29892 | 36646
6 | 8:08.47 | 2:27.01 | 36647 | 47672
7 | 10:35.48 | 1:15.26 | 47673 | 53323
8 | 11:50.74 | 1:18.63 | 53324 | 59236
9 | 13:09.62 | 1:14.58 | 59237 | 64844
10 | 14:24.45 | 1:43.36 | 64845 | 72605
11 | 16:08.06 | 2:06.35 | 72606 | 82090
12 | 18:14.41 | 1:14.07 | 82091 | 87647
13 | 19:28.48 | 4:30.50 | 87648 | 107947
14 | 23:59.23 | 1:43.01 | 107948 | 115673
15 | 25:42.24 | 2:08.63 | 115674 | 125336
16 | 27:51.12 | 0:58.14 | 125337 | 129700
17 | 28:49.26 | 0:57.49 | 129701 | 134024
18 | 29:47.00 | 1:19.03 | 134025 | 139952
19 | 31:06.03 | 1:22.10 | 139953 | 146112
20 | 32:28.13 | 1:48.35 | 146113 | 154247
21 | 34:16.48 | 1:42.40 | 154248 | 161937
22 | 35:59.13 | 0:34.03 | 161938 | 164490
23 | 36:33.16 | 2:04.17 | 164491 | 173807
24 | 38:37.33 | 1:54.34 | 173808 | 182391
25 | 40:31.67 | 0:53.52 | 182392 | 186418
26 | 41:25.44 | 0:47.46 | 186419 | 189989
27 | 42:13.15 | 1:10.18 | 189990 | 195257


Range status and errors

Selected range

Filename C:\Bassani - Sinfonie Op.5 vol.1.wav

Peak level 99.8 %
Extraction speed 4.1 X
Range quality 100.0 %
Test CRC 00851980
Copy CRC 00851980
Copy OK

No errors occurred

End of status report

==== Log checksum B4C1B4894FBBEC54B5CD0BF1504D023E60BDC30927A18CA814A1138D47AB1B7E ====

CD6 [38.25]
01-05. Sonata No.7 in A
06-11. Sonata No.8 in G minor
12-16. Sonata No.11 in D
17-22. Sonata No.10 in C minor
23-27. Sonata No.9 in C
28-31. Sonata No.12 in A

Ensemble StilModerno

Exact Audio Copy V1.0 beta 3 from 29. August 2011

EAC extraction logfile from 7. July 2017, 18:15

Ensemble StilModerno / Bassani - Sinfonie Op.5 vol.2

Used drive : PIONEER BD-RW BDR-207M Adapter: 0 ID: 0

Read mode : Secure
Utilize accurate stream : Yes
Defeat audio cache : Yes
Make use of C2 pointers : No

Read offset correction : 667
Overread into Lead-In and Lead-Out : No
Fill up missing offset samples with silence : Yes
Delete leading and trailing silent blocks : No
Null samples used in CRC calculations : Yes
Used interface : Native Win32 interface for Win NT & 2000

Used output format : User Defined Encoder
Selected bitrate : 128 kBit/s
Quality : High
Add ID3 tag : No
Command line compressor : C:\Program Files\Exact Audio Copy\Flac\flac.exe
Additional command line options : -V -8 -T "Date=%year%" -T "Genre=%genre%" %source%


TOC of the extracted CD

Track | Start | Length | Start sector | End sector
––––––––––––––––––––––––––––-
1 | 0:00.00 | 1:29.14 | 0 | 6688
2 | 1:29.14 | 1:56.68 | 6689 | 15456
3 | 3:26.07 | 1:11.29 | 15457 | 20810
4 | 4:37.36 | 1:06.21 | 20811 | 25781
5 | 5:43.57 | 1:02.71 | 25782 | 30502
6 | 6:46.53 | 0:34.73 | 30503 | 33125
7 | 7:21.51 | 1:39.43 | 33126 | 40593
8 | 9:01.19 | 1:14.09 | 40594 | 46152
9 | 10:15.28 | 0:57.19 | 46153 | 50446
10 | 11:12.47 | 0:26.68 | 50447 | 52464
11 | 11:39.40 | 0:47.19 | 52465 | 56008
12 | 12:26.59 | 1:31.62 | 56009 | 62895
13 | 13:58.46 | 1:10.17 | 62896 | 68162
14 | 15:08.63 | 1:02.34 | 68163 | 72846
15 | 16:11.22 | 0:49.20 | 72847 | 76541
16 | 17:00.42 | 0:27.18 | 76542 | 78584
17 | 17:27.60 | 2:15.37 | 78585 | 88746
18 | 19:43.22 | 1:37.74 | 88747 | 96095
19 | 21:21.21 | 2:25.18 | 96096 | 106988
20 | 23:46.39 | 0:56.13 | 106989 | 111201
21 | 24:42.52 | 0:21.34 | 111202 | 112810
22 | 25:04.11 | 0:40.41 | 112811 | 115851
23 | 25:44.52 | 1:56.23 | 115852 | 124574
24 | 27:41.00 | 1:20.51 | 124575 | 130625
25 | 29:01.51 | 1:29.28 | 130626 | 137328
26 | 30:31.04 | 0:52.61 | 137329 | 141289
27 | 31:23.65 | 0:43.41 | 141290 | 144555
28 | 32:07.31 | 2:02.45 | 144556 | 153750
29 | 34:10.01 | 1:00.57 | 153751 | 158307
30 | 35:10.58 | 2:43.07 | 158308 | 170539
31 | 37:53.65 | 0:31.53 | 170540 | 172917


Range status and errors

Selected range

Filename C:\Bassani - Sinfonie Op.5 vol.2.wav

Peak level 94.2 %
Extraction speed 6.5 X
Range quality 100.0 %
Test CRC 1C68C518
Copy CRC 1C68C518
Copy OK

No errors occurred

End of status report

==== Log checksum B76E9ABF8D488C7E8A8A9BD53C9C038F8DE21BE639D47E05D522223EBE5CD090 ====