Italian Baroque: The Instrumental Edition - Marino, Nardini, Pergolesi, Porpora, Platti [2016]

Posted By: Vilboa
Italian Baroque: The Instrumental Edition - Marino, Nardini, Pergolesi, Porpora,  Platti [2016]

Italian Baroque: The Instrumental Edition - Marino, Nardini, Pergolesi, Porpora, Platti [2016]
Classical | Brilliant Classics 95430 | TT: 66.28+68.40+60.40+56.36+63.23+65.38 | EAC (FLAC, cue, log) | Covers | 1.98 Gb

A celebration of instrumental Baroque splendour! This set present an anthology of Italian Baroque composers, featuring their instrumental output. Obviously the famous composers have their fair share: Vivaldi, Albinoni, Locatelli, Corelli, but also lesser known composers are featured: Barsanti, Bassani, Veracini, Nardini, Stradella, Vitali, Mancini, Platti, Legrenze and many more, over 30 composers! Performances by leading ensembles specialized in the Historically Informed Performance Practice: L'Arte dell'Arco/Federico Guglielmo, Ensemble Cordia/Stefano Veggetti, Violini Capricciosi/Igor Ruhadze, MusicaAmphion/Pieter Jan Belder and many more. A treasure trove of solo concertos, concerti grossi, sinfonias, overtures, trio sonatas and solo sonatas from the Golden Era of the Italian Baroque, era of joy, passion and brilliance!

CD27: Carlo Antonio Marino (1670-after 1717): Music for string ensemble [66.28]
Track List & Cast:
Sonate a cinque Op.3
01-04. Sonata decima
05-09. Sonata undicesima
10-12. Sonata nona
13-18. Sonata dodicesima
Sonate a quatro Op.6
19-22. Sonata settima
23-27. Sonata nona
28-29. Sonata undicesima
30-34. Concerto a quatro per archi e b.c.

Orcestra da camera 'Carlo Antonio Marino'
Natale Arnoldi, violin


Exact Audio Copy V1.0 beta 3 from 29. August 2011

EAC extraction logfile from 15. August 2017, 9:46

Orchestra da camera 'Carlo Antonio Marino' / Marino - Music for string ensemble

Used drive : PIONEER BD-RW BDR-207M Adapter: 0 ID: 0

Read mode : Secure
Utilize accurate stream : Yes
Defeat audio cache : Yes
Make use of C2 pointers : No

Read offset correction : 667
Overread into Lead-In and Lead-Out : No
Fill up missing offset samples with silence : Yes
Delete leading and trailing silent blocks : No
Null samples used in CRC calculations : Yes
Used interface : Native Win32 interface for Win NT & 2000

Used output format : User Defined Encoder
Selected bitrate : 128 kBit/s
Quality : High
Add ID3 tag : No
Command line compressor : C:\Program Files\Exact Audio Copy\Flac\flac.exe
Additional command line options : -V -8 -T "Date=%year%" -T "Genre=%genre%" %source%


TOC of the extracted CD

Track | Start | Length | Start sector | End sector
––––––––––––––––––––––––––––-
1 | 0:00.00 | 1:43.69 | 0 | 7793
2 | 1:43.69 | 1:42.12 | 7794 | 15455
3 | 3:26.06 | 3:02.46 | 15456 | 29151
4 | 6:28.52 | 1:52.43 | 29152 | 37594
5 | 8:21.20 | 1:52.73 | 37595 | 46067
6 | 10:14.18 | 1:44.05 | 46068 | 53872
7 | 11:58.23 | 1:28.05 | 53873 | 60477
8 | 13:26.28 | 0:46.54 | 60478 | 63981
9 | 14:13.07 | 1:58.35 | 63982 | 72866
10 | 16:11.42 | 1:26.29 | 72867 | 79345
11 | 17:37.71 | 1:37.09 | 79346 | 86629
12 | 19:15.05 | 3:46.06 | 86630 | 103585
13 | 23:01.11 | 1:37.09 | 103586 | 110869
14 | 24:38.20 | 2:19.36 | 110870 | 121330
15 | 26:57.56 | 1:11.32 | 121331 | 126687
16 | 28:09.13 | 1:33.69 | 126688 | 133731
17 | 29:43.07 | 0:44.20 | 133732 | 137051
18 | 30:27.27 | 2:46.70 | 137052 | 149571
19 | 33:14.22 | 2:22.22 | 149572 | 160243
20 | 35:36.44 | 1:30.74 | 160244 | 167067
21 | 37:07.43 | 2:01.01 | 167068 | 176143
22 | 39:08.44 | 1:42.42 | 176144 | 183835
23 | 40:51.11 | 1:28.12 | 183836 | 190447
24 | 42:19.23 | 1:13.41 | 190448 | 195963
25 | 43:32.64 | 1:45.04 | 195964 | 203842
26 | 45:17.68 | 0:25.30 | 203843 | 205747
27 | 45:43.23 | 1:19.51 | 205748 | 211723
28 | 47:02.74 | 2:57.45 | 211724 | 225043
29 | 50:00.44 | 2:08.64 | 225044 | 234707
30 | 52:09.33 | 1:09.21 | 234708 | 239903
31 | 53:18.54 | 4:39.69 | 239904 | 260897
32 | 57:58.48 | 1:58.60 | 260898 | 269807
33 | 59:57.33 | 1:55.61 | 269808 | 278493
34 | 61:53.19 | 4:33.44 | 278494 | 299012


Range status and errors

Selected range

Filename C:\Marino - Music for string ensemble.wav

Peak level 94.4 %
Extraction speed 7.0 X
Range quality 100.0 %
Test CRC 8C4055FC
Copy CRC 8C4055FC
Copy OK

No errors occurred

End of status report

==== Log checksum 3154A7C3E1FD3C789D4BAFCAC5B2AEBD70B93672BE22445981EE3A0731554245 ====


CD28: Pietro Nardini (1722-1793): Complete String Quartets [68.40]
Track List & Cast:
01-02. String Quartet No.1 in A
03-05. String Quartet No.2 in C
06-07. String Quartet No.3 in B flat
08-10. String Quartet No.4 in F
11-12. String Quartet No.5 in G
13-14. String Quartet No.6 in E flat

Quartetto Eleusi

Exact Audio Copy V1.0 beta 3 from 29. August 2011

EAC extraction logfile from 15. August 2017, 10:12

Quartetto Eleusi / Nardini - Complete String Quartets

Used drive : PIONEER BD-RW BDR-207M Adapter: 0 ID: 0

Read mode : Secure
Utilize accurate stream : Yes
Defeat audio cache : Yes
Make use of C2 pointers : No

Read offset correction : 667
Overread into Lead-In and Lead-Out : No
Fill up missing offset samples with silence : Yes
Delete leading and trailing silent blocks : No
Null samples used in CRC calculations : Yes
Used interface : Native Win32 interface for Win NT & 2000

Used output format : User Defined Encoder
Selected bitrate : 128 kBit/s
Quality : High
Add ID3 tag : No
Command line compressor : C:\Program Files\Exact Audio Copy\Flac\flac.exe
Additional command line options : -V -8 -T "Date=%year%" -T "Genre=%genre%" %source%


TOC of the extracted CD

Track | Start | Length | Start sector | End sector
––––––––––––––––––––––––––––-
1 | 0:00.00 | 4:40.14 | 0 | 21013
2 | 4:40.14 | 6:26.05 | 21014 | 49968
3 | 11:06.19 | 3:54.37 | 49969 | 67555
4 | 15:00.56 | 1:37.11 | 67556 | 74841
5 | 16:37.67 | 3:16.26 | 74842 | 89567
6 | 19:54.18 | 7:38.43 | 89568 | 123960
7 | 27:32.61 | 6:20.16 | 123961 | 152476
8 | 33:53.02 | 1:05.23 | 152477 | 157374
9 | 34:58.25 | 5:42.41 | 157375 | 183065
10 | 40:40.66 | 4:02.52 | 183066 | 201267
11 | 44:43.43 | 6:09.18 | 201268 | 228960
12 | 50:52.61 | 4:33.62 | 228961 | 249497
13 | 55:26.48 | 7:06.04 | 249498 | 281451
14 | 62:32.52 | 6:07.63 | 281452 | 309039


Range status and errors

Selected range

Filename C:\Nardini - Complete String Quartets.wav

Peak level 100.0 %
Extraction speed 7.4 X
Range quality 100.0 %
Test CRC 46367702
Copy CRC 46367702
Copy OK

No errors occurred

End of status report

==== Log checksum 010E159270440DEE4FEEA431A87877ADDCA8DCC435FDC53434BC39CB494182D7 ====


CD29: Giovanni Battista Pergolesi (1710-1736): Opere Strumentali [60.40]
Track List & Cast:
01-03. Concerto in B flat for violin & strings
04. Allegro in F for organ
05. Allegro in G for organ
06. Sonata in G for violin & b.c.
07. Trio Sonata in B flat for 2 violins, cello & harpsichord
08. Trio Sonata in B minor for 2 violins, cello & harpsichord
09. Trio Sonata in C for 2 violins, cello & harpsichord
10-13. Sinfonia in F for cello & harpsichord

I Solisti di Milano
Angelo Ephrikian, conductor


Exact Audio Copy V1.0 beta 3 from 29. August 2011

EAC extraction logfile from 15. August 2017, 10:56

Angelo Ephrikian, I Solisti di Milano / Pergolesi - Opere Strumentali

Used drive : PIONEER BD-RW BDR-207M Adapter: 0 ID: 0

Read mode : Secure
Utilize accurate stream : Yes
Defeat audio cache : Yes
Make use of C2 pointers : No

Read offset correction : 667
Overread into Lead-In and Lead-Out : No
Fill up missing offset samples with silence : Yes
Delete leading and trailing silent blocks : No
Null samples used in CRC calculations : Yes
Used interface : Native Win32 interface for Win NT & 2000

Used output format : User Defined Encoder
Selected bitrate : 128 kBit/s
Quality : High
Add ID3 tag : No
Command line compressor : C:\Program Files\Exact Audio Copy\Flac\flac.exe
Additional command line options : -V -8 -T "Date=%year%" -T "Genre=%genre%" %source%


TOC of the extracted CD

Track | Start | Length | Start sector | End sector
––––––––––––––––––––––––––––-
1 | 0:00.00 | 4:49.65 | 0 | 21739
2 | 4:49.65 | 4:55.33 | 21740 | 43897
3 | 9:45.23 | 4:09.52 | 43898 | 62624
4 | 13:55.00 | 5:43.41 | 62625 | 88390
5 | 19:38.41 | 1:58.10 | 88391 | 97250
6 | 21:36.51 | 8:14.60 | 97251 | 134360
7 | 29:51.36 | 6:57.33 | 134361 | 165668
8 | 36:48.69 | 8:52.60 | 165669 | 205628
9 | 45:41.54 | 8:03.32 | 205629 | 241885
10 | 53:45.11 | 1:24.63 | 241886 | 248248
11 | 55:09.74 | 1:55.22 | 248249 | 256895
12 | 57:05.21 | 2:14.19 | 256896 | 266964
13 | 59:19.40 | 1:19.33 | 266965 | 272922


Range status and errors

Selected range

Filename C:\Pergolesi - Opere Strumentali.wav

Peak level 99.9 %
Extraction speed 4.4 X
Range quality 100.0 %
Test CRC 7913B634
Copy CRC 7913B634
Copy OK

No errors occurred

End of status report

==== Log checksum 351815FD6CD8032134818AB4BB3FB0A4DCA11A2D4D16E88DFE542072065CC379 ====


CD30: Nicola Porpora (1686-1768): 6 Sonatas for cello concertante [56.36]
Track List & Cast:
01-04. Sonata No.1
05-08. Sonata No.2
09-12. Sonata No.3
13-16. Sonata No.4
17-20. Sonata No.5
21-24. Sonata No.6

Adriano Fazio, cello concertante
Katarzyna Solecka, viola
Anna Camporini, cello
Pedro Alcacer, theorbo
Lorenzo Profita, harpsichord


Exact Audio Copy V1.0 beta 3 from 29. August 2011

EAC extraction logfile from 15. August 2017, 11:22

Adriano Maria Fazio / Porpora - 6 Sonatas for cello concertante

Used drive : PIONEER BD-RW BDR-207M Adapter: 0 ID: 0

Read mode : Secure
Utilize accurate stream : Yes
Defeat audio cache : Yes
Make use of C2 pointers : No

Read offset correction : 667
Overread into Lead-In and Lead-Out : No
Fill up missing offset samples with silence : Yes
Delete leading and trailing silent blocks : No
Null samples used in CRC calculations : Yes
Used interface : Native Win32 interface for Win NT & 2000

Used output format : User Defined Encoder
Selected bitrate : 128 kBit/s
Quality : High
Add ID3 tag : No
Command line compressor : C:\Program Files\Exact Audio Copy\Flac\flac.exe
Additional command line options : -V -8 -T "Date=%year%" -T "Genre=%genre%" %source%


TOC of the extracted CD

Track | Start | Length | Start sector | End sector
––––––––––––––––––––––––––––-
1 | 0:00.00 | 2:37.32 | 0 | 11806
2 | 2:37.32 | 1:49.33 | 11807 | 20014
3 | 4:26.65 | 1:51.17 | 20015 | 28356
4 | 6:18.07 | 3:02.58 | 28357 | 42064
5 | 9:20.65 | 2:00.17 | 42065 | 51081
6 | 11:21.07 | 2:35.40 | 51082 | 62746
7 | 13:56.47 | 1:47.10 | 62747 | 70781
8 | 15:43.57 | 2:50.68 | 70782 | 83599
9 | 18:34.50 | 2:35.02 | 83600 | 95226
10 | 21:09.52 | 2:34.29 | 95227 | 106805
11 | 23:44.06 | 1:50.23 | 106806 | 115078
12 | 25:34.29 | 2:16.40 | 115079 | 125318
13 | 27:50.69 | 2:29.42 | 125319 | 136535
14 | 30:20.36 | 2:39.57 | 136536 | 148517
15 | 33:00.18 | 1:20.73 | 148518 | 154590
16 | 34:21.16 | 2:32.16 | 154591 | 166006
17 | 36:53.32 | 2:39.04 | 166007 | 177935
18 | 39:32.36 | 2:38.22 | 177936 | 189807
19 | 42:10.58 | 1:38.11 | 189808 | 197168
20 | 43:48.69 | 3:24.72 | 197169 | 212540
21 | 47:13.66 | 2:53.07 | 212541 | 225522
22 | 50:06.73 | 2:33.51 | 225523 | 237048
23 | 52:40.49 | 2:14.45 | 237049 | 247143
24 | 54:55.19 | 1:39.39 | 247144 | 254607


Range status and errors

Selected range

Filename C:\Porpora - 6 Sonatas for cello concertante.wav

Peak level 100.0 %
Extraction speed 7.1 X
Range quality 100.0 %
Test CRC 5EA819C3
Copy CRC 5EA819C3
Copy OK

No errors occurred

End of status report

==== Log checksum 571F81D4ACC521AB45A9ADD2277570692C04C7B4CBDC70CB70FFA297A54EF3D8 ====


CD31: Giovanni Benedetto Platti (c1692-1763): Cello Concertos [63.23]
Track List & Cast:
01-03. Concerto in A for obbligato cello & strins D-WD 654
04-08. Concerto grosso in D after Sonata Op.5 No.1 by Corelli D-WD 538
09-11. Concerto in D minor for obbligato cello & strins D-WD 657
12-16. Concerto grosso in C after Sonata Op.5 No.3 by Corelli D-WD 539
17-19. Concerto in D for obbligato cello & strins D-WD 650

Ensemble Cordia

Exact Audio Copy V1.0 beta 3 from 29. August 2011

EAC extraction logfile from 15. August 2017, 11:46

Stefano Veggetti, Ensemble Cordia / Platti - Cello Concertos

Used drive : PIONEER BD-RW BDR-207M Adapter: 0 ID: 0

Read mode : Secure
Utilize accurate stream : Yes
Defeat audio cache : Yes
Make use of C2 pointers : No

Read offset correction : 667
Overread into Lead-In and Lead-Out : No
Fill up missing offset samples with silence : Yes
Delete leading and trailing silent blocks : No
Null samples used in CRC calculations : Yes
Used interface : Native Win32 interface for Win NT & 2000

Used output format : User Defined Encoder
Selected bitrate : 128 kBit/s
Quality : High
Add ID3 tag : No
Command line compressor : C:\Program Files\Exact Audio Copy\Flac\flac.exe
Additional command line options : -V -8 -T "Date=%year%" -T "Genre=%genre%" %source%


TOC of the extracted CD

Track | Start | Length | Start sector | End sector
––––––––––––––––––––––––––––-
1 | 0:00.00 | 4:58.41 | 0 | 22390
2 | 4:58.41 | 5:17.56 | 22391 | 46221
3 | 10:16.22 | 3:43.19 | 46222 | 62965
4 | 13:59.41 | 3:11.34 | 62966 | 77324
5 | 17:11.00 | 2:22.14 | 77325 | 87988
6 | 19:33.14 | 1:04.01 | 87989 | 92789
7 | 20:37.15 | 2:52.11 | 92790 | 105700
8 | 23:29.26 | 1:38.43 | 105701 | 113093
9 | 25:07.69 | 4:56.16 | 113094 | 135309
10 | 30:04.10 | 4:26.38 | 135310 | 155297
11 | 34:30.48 | 4:46.69 | 155298 | 176816
12 | 39:17.42 | 2:37.36 | 176817 | 188627
13 | 41:55.03 | 1:55.64 | 188628 | 197316
14 | 43:50.67 | 3:13.67 | 197317 | 211858
15 | 47:04.59 | 1:02.54 | 211859 | 216562
16 | 48:07.38 | 2:28.47 | 216563 | 227709
17 | 50:36.10 | 4:04.58 | 227710 | 246067
18 | 54:40.68 | 3:30.63 | 246068 | 261880
19 | 58:11.56 | 5:11.68 | 261881 | 285273


Range status and errors

Selected range

Filename C:\Platti - Cello Concertos.wav

Peak level 100.0 %
Extraction speed 7.2 X
Range quality 100.0 %
Test CRC 9F03D637
Copy CRC 9F03D637
Copy OK

No errors occurred

End of status report

==== Log checksum B8A065DB730CBF6D30BEE6EDF139C1DD9B89C753599E94C2413D4F04163EF073 ====


CD32: Giovanni Benedetto Platti: Sonatas and Trios [65.38]
Track List & Cast:
01-04. Sonata à Oboe, Violoncello e Basso in G minor
05-08. Sonata à Violoncello Solo e Basso Continuo in D minor
09-12. Trio con Oboe e Faghotto Obligato in C minor
13-16. Sonata à Violoncello Solo e Basso Continuo in G minor
17-20. Sonata à Oboe Solo e Basso Continuo in C minor
21-24. Sonata a tre cioè Violino overo Oboe, Violoncello e Basso in G

Ensemble Cordia
Alfredo Bernardini, oboe
Stefano Veggetti, cello
Alberto Grazzi, bassoon
Anna Fontana, harpsichord


Exact Audio Copy V1.0 beta 3 from 29. August 2011

EAC extraction logfile from 15. August 2017, 12:16

Ensemble Cordia, Alfredo Bernardini, Stefano Veggetti, Alberto Grazzi / Platti - Sonatas and Trios

Used drive : PIONEER BD-RW BDR-207M Adapter: 0 ID: 0

Read mode : Secure
Utilize accurate stream : Yes
Defeat audio cache : Yes
Make use of C2 pointers : No

Read offset correction : 667
Overread into Lead-In and Lead-Out : No
Fill up missing offset samples with silence : Yes
Delete leading and trailing silent blocks : No
Null samples used in CRC calculations : Yes
Used interface : Native Win32 interface for Win NT & 2000

Used output format : User Defined Encoder
Selected bitrate : 128 kBit/s
Quality : High
Add ID3 tag : No
Command line compressor : C:\Program Files\Exact Audio Copy\Flac\flac.exe
Additional command line options : -V -8 -T "Date=%year%" -T "Genre=%genre%" %source%


TOC of the extracted CD

Track | Start | Length | Start sector | End sector
––––––––––––––––––––––––––––-
1 | 0:00.00 | 2:48.57 | 0 | 12656
2 | 2:48.57 | 3:26.66 | 12657 | 28172
3 | 6:15.48 | 2:54.05 | 28173 | 41227
4 | 9:09.53 | 3:38.23 | 41228 | 57600
5 | 12:48.01 | 1:59.30 | 57601 | 66555
6 | 14:47.31 | 1:56.26 | 66556 | 75281
7 | 16:43.57 | 2:00.41 | 75282 | 84322
8 | 18:44.23 | 1:49.21 | 84323 | 92518
9 | 20:33.44 | 2:42.63 | 92519 | 104731
10 | 23:16.32 | 3:03.39 | 104732 | 118495
11 | 26:19.71 | 1:43.26 | 118496 | 126246
12 | 28:03.22 | 2:07.00 | 126247 | 135771
13 | 30:10.22 | 3:19.28 | 135772 | 150724
14 | 33:29.50 | 2:27.52 | 150725 | 161801
15 | 35:57.27 | 2:50.71 | 161802 | 174622
16 | 38:48.23 | 1:43.39 | 174623 | 182386
17 | 40:31.62 | 2:08.50 | 182387 | 192036
18 | 42:40.37 | 3:34.29 | 192037 | 208115
19 | 46:14.66 | 3:14.30 | 208116 | 222695
20 | 49:29.21 | 2:03.21 | 222696 | 231941
21 | 51:32.42 | 2:55.42 | 231942 | 245108
22 | 54:28.09 | 4:23.73 | 245109 | 264906
23 | 58:52.07 | 2:37.06 | 264907 | 276687
24 | 61:29.13 | 4:06.63 | 276688 | 295200


Range status and errors

Selected range

Filename C:\Platti - Sonatas and Trios.wav

Peak level 100.0 %
Extraction speed 7.2 X
Range quality 100.0 %
Test CRC 49942064
Copy CRC 49942064
Copy OK

No errors occurred

End of status report

==== Log checksum D5288B7B51CE864DDC2D3C177EC5300EBD599970602DFFC7619046C2536F01ED ====