Subcategories

Itzhak Perlman - The Perlman Edition (2003) (15 CD Box Set)

Posted By: murena
Itzhak Perlman - The Perlman Edition (2003) (15 CD Box Set)

Itzhak Perlman - The Perlman Edition (2003) (15 CD Box Set)
EAC Rip | FLAC (Tracks+.cue, log) | 15 CDs, 16:07:46 min | Covers included | 4,71 Gb
Genre: Classical / Label: EMI Classics

In the latter twentieth and early twenty-first centuries, Itzhak Perlman has been acclaimed as being among the leading violinists before the public, and, without doubt, has been the most visible of them in media venues, from recordings and radio broadcasts to television and film appearances. No other concert violinist and few other serious musicians have achieved the widespread exposure and popularity attained by Perlman.

CDs:
CD1: Tradition
CD2: Encores
CD3: Bach Violin Concertos
CD4: The American Album
CD5: Bruch Violin Concerto No. 2 & Scottish Fantasy
CD6: Prokofiev Violin Concerto & Sonata For Two Violins
CD7: Bethoven "Archduke" & "Ghost" Piano Trios
CD8: The French Album
CD9: Shostakovich Violin Concerto No. 1 & 3 Duets; Glazunov Violin Concerto
CD10: Brahms Violin Concerto, Sonatensatz & Hungarian Dances
CD11: Sibelius & Korngold Violin Concerto; Sinding Suite
CD12: Tchaikovsky & Mendelssohn Violin Concerto
CD13: Dvorak Violin Concerto, Romance, Sonatina & 4 Romantic Pieces
CD14: Paganini Violin Concerto No. 1; Sarasate "Carmen" Fantasy, Introduction et Tarentelle & Zigeunerweissen
CD15: The Kreisler Album

CD1: Tradition

Recorded: 26 - 28.07.1986 (Mann Auditorium, Tel Aviv)
01 - A Yiddishe Mamme (6:51)
02 - As Der Rebbe Elimelech Is Gevoyrn Asoi Freylach (5:55)
03 - Reyzele (4:12)
04 - Oif'n Pripetchik Brennt A Feier'l (4:09)
05 - Doyna (3:44)
06 - Rozhinkes Mit Mandelen (5:41)
07 - Oif'n Weyg Steyt A Boim (5:29)
08 - A Dudele (4:54)
09 - Vi Ahin Soll Ich Geyn (4:56)
Itznak Perlman - Violin
lsrael Zohar - Ciarinet
Israel Philharmonic Orchestra
Conducted - Dov Seltzer


CD2: Encores

Recorded: 01 - 04, 18: 05-07.11.1972 (Abbey Road Studios, London); 16, 17: 14/15.04.1978 (Abbey Road Studios, London); 05 - 12: 05.1982 (92nd Street 'Y', New York); 13 - 15: 23/24.02.1978 (Kingsway Holl, London)
01 - Ottokar Novacek - Perpetuum Mobile Op. 5 No. 4 (2:46)
02 - Paul Ben Haim - Berceuse Sfaradite (3:44)
03 - Claude Debussy - La Fille Aux Cheveux De Lin (2:39)
04 - Pablo De Sarasate - Zapateado Op. 23 No. 2 (3:18)
05 - Manuel Ponce - Estrellita (3:15)
06 - Moritz Moszkowski - Guitarre Op. 45 No. 23 (3:26)
07 - Fryderyk Chopin - Nocturne In E Flat Op. 55 No. 24 (4:22)
08 - Francis Poulenc - Presto In B Flat (1:49)
09 - Camille Saint-Saens - The Swan From The Carnival Of The Animals (3:08)
10 - Domenico Paradies - Toccata (2:22)
11 - Edward Elgar - La Capricieuse Op. 17 (3:55)
12 - Stephen Foster - Old Folks At Home (3:48)
13 - Henri Vieuxtemps - Souvenir D'Amerique On 'Yankee Doodle' Op. 17 (5:00)
14 - Maria Theresia Von Paradis - Sicilienne For Keyboard In E Flat (2:55)
15 - Joseph Joachim Raff - Cavatina Op. 85 No. 3 (3:55)
16 - Pablo De Sarasate - Malaguena Op. 21 No. 1 (4:38)
17 - Pablo De Sarasate - Caprice Basque Op. 24 (6:13)
18 - Pablo De Sarasate - Romanza Andaluza Op. 22 No. 1 (4:48)
Itzhak Perlman - Violin
Samuel Sanders - Piano


CD3: Bach Violin Concertos

Recorded: 01 - 03, 07 - 09: 16.07.1971 (No. 1 Studio, Abbey Road, London); 04 - 06: 25/27/28.05.1974 & 09.07.1974 (No. 1 Studio, Abbey Road, London); 07 - 12: 20/21/23.07.1982 (Mann Auditorium, Tel Aviv)
01 - Violin Concerto No. 2 In E Major BWV 1042 - I. Allegro (9:02)
02 - Violin Concerto No. 2 In E Major BWV 1042 - II. Adagio (8:11)
03 - Violin Concerto No. 2 In E Major BWV 1042 - III. Allegro Assai (3:13)
04 - Violin Concerto No. 1 In A Minor BWV 1041 - I. Allegro (4:12)
05 - Violin Concerto No. 1 In A Minor BWV 1041 - II. Andante (7:44)
06 - Violin Concerto No. 1 In A Minor BWV 1041 - III. Allegro Assai (4:12)
07 - Violin Concerto In D Minor (Double) BWV 1043 - I. Vivace (4:00)
08 - Violin Concerto In D Minor (Double) BWV 1043 - II. Largo (7:33)
09 - Violin Concerto In D Minor (Double) BWV 1043 - III. Allegro (5:17)
10 - Concerto For Violin & Oboe In C Minor BWV 1060 - I. Allegro (5:27)
11 - Concerto For Violin & Oboe In C Minor BWV 1060 - II. Adagio (6:45)
12 - Concerto For Violin & Oboe In C Minor BWV 1060 - III. Allegro (3:52)
01 - 06:
Itzhak Perlman - Violin
English Chamber Orchestra
Conducted - Daniel Barenboim
07 - 09:
Itzhak Perlman - Violin
Pinchas Zukerman - Violin
English Chamber Orchestra
Conducted - Daniel Barenboim
10 - 12:
Itzhak Perlman - Violin
Ray Still - Oboe
Israel Philharmonic Orchestra
Conducted - Itzhak Perlman


CD4: The American Album

Recorded: 01/03/04.11.1994 (Symphony Hall, Boston)
01 - Leonard Bernstein - Serenade After Plato's Symposium - I. Phaedrus - Pausanias (Lento - Allegro Marcato) (6:33)
02 - Leonard Bernstein - Serenade After Plato's Symposium - II. Aristophanes (Allegretto) (4:23)
03 - Leonard Bernstein - Serenade After Plato's Symposium - III. Eryximachus (Presto) (1:31)
04 - Leonard Bernstein - Serenade After Plato's Symposium - IV. Agathon (Adagio) (7:00)
05 - Leonard Bernstein - Serenade After Plato's Symposium - V. Socrates - Alcibiades (Molto Tenuto - Adagio - Allegro Molto Vivace) (10:39)
06 - Samuel Barber - Concerto For Violin And Orchestra Op. 14 - I. Allegro (10:21)
07 - Samuel Barber - Concerto For Violin And Orchestra Op. 14 - II. Andante (8:10)
08 - Samuel Barber - Concerto For Violin And Orchestra Op. 14 - III. Presto In Moto Perpetuo (3:50)
09 - Lukas Foss - 3 American Pieces - Early Song (Andante) (4:57)
10 - Lukas Foss - 3 American Pieces - Dedication (Lento) (4:33)
11 - Lukas Foss - 3 American Pieces - Composer's Holiday (Allegro) (2:49)
01 - 05:
Itzhak Perlman - Violin
Jules Eskin - Cello
Boston Symphony Orchestra
Conducted - Seiji Ozawa
06 - 11:
Itzhak Perlman - Violin
Boston Symphony Orchestra
Conducted - Seiji Ozawa


CD5: Bruch Violin Concerto No. 2 & Scottish Fantasy

Recorded: 27/28.02.1976 (No. 1 Studio, Abbey Road, London)
01 - Violin Concerto No. 2 In D Minor Op. 44 - 1. Adagio Ma Non Troppo (12:30)
02 - Violin Concerto No. 2 In D Minor Op. 44 - 2. Recitative (Allegro Moderato) (3:42)
03 - Violin Concerto No. 2 In D Minor Op. 44 - 3. Finale (Allegro Molto) (9:43)
04 - Scottish Fantasy Op. 46 - Einleitung (Grave) (4:07)
05 - Scottish Fantasy Op. 46 - 1. Adagio Cantabile (5:07)
06 - Scottish Fantasy Op. 46 - 2. Allegro (6:32)
07 - Scottish Fantasy Op. 46 - 3. Andante Sostenuto (7:05)
08 - Scottish Fantasy Op. 46 - 4. Finale (Allegro Guerriero) (9:38)
Itzhak Perlman - Violin
New Philharmonia Orchestra
Conducted - Jesus Lopez-Cobos


CD6: Prokofiev Violin Concerto & Sonata For Two Violins

Recorded: 01 - 06: 23-25.10.1980 (No. 1 Studio, Abbey Road, London); 07 - 10: 26.10.1976 (Temple Church, London)
01 - Violin Concerto No. 1 - I. Andantino (9:37)
02 - Violin Concerto No. 1 - II. Scherzo (Vivacissimo) (3:46)
03 - Violin Concerto No. 1 - III. Moderato (8:39)
04 - Violin Concerto No. 2 - I. Allegro Moderato (10:48)
05 - Violin Concerto No. 2 - II. Andante Assai (9:44)
06 - Violin Concerto No. 2 - III. Allegro Ben Marcato (6:13)
07 - Sonata For Two Violins - I. Andante Cantabile (3:26)
08 - Sonata For Two Violins - II. Allegro (3:09)
09 - Sonata For Two Violins - III. Comodo (Quasi Allegreto) (4:40)
10 - Sonata For Two Violins - IV. Allegro Con Brio (4:58)
01 - 06:
Itzhak Perlman - Violin
BBC Symphony Orchestra
Conducted - Gennady Rozhdestvensky
07 - 10:
Itzhak Perlman - Violin
Pinchas Zukerman - Violin
BBC Symphony Orchestra
Conducted - Gennady Rozhdestvensky


CD7: Bethoven "Archduke" & "Ghost" Piano Trios

Recorded: 01 - 04: 22-24.02.1982 (RCA Stidios, New York); 05 - 10: 20-23.11.1981 и 14.03.1984 (No. 1 Studio, Abbey Road, London)
01 - Piano Trio In B Flat (Archduke) Op. 97 - I. Allegro Moderato (12:30)
02 - Piano Trio In B Flat (Archduke) Op. 97 - II. Scherzo (Allegro) & Trio (6:36)
03 - Piano Trio In B Flat (Archduke) Op. 97 - III. Andante Cantabile (11:37)
04 - Piano Trio In B Flat (Archduke) Op. 97 - IV. Allegro Moderato (6:43)
05 - Piano Trio In E Flat WoO 38 - I. Allegro Moderato (4:48)
06 - Piano Trio In E Flat WoO 38 - II. Scherzo (Allegro Ma Non Troppo) & Trio (4:11)
07 - Piano Trio In E Flat WoO 38 - III. Rondo (Allegretto) (5:30)
08 - Piano Trio No. 5 In D (Ghost) Op. 70 No. 1 - I. Allegro Vivace E Con Brio (6:58)
09 - Piano Trio No. 5 In D (Ghost) Op. 70 No. 1 - II. Largo Assai Ed Espressivo (10:16)
10 - Piano Trio No. 5 In D (Ghost) Op. 70 No. 1 - III. Presto (5:56)
Itzhak Perlman - Violin
Vladimir Ashkenazy - Piano
Lynn Harrell - Violoncello

CD8: The French Album

Recorded: 01, 02, 04, 05: 04/05.07.1974 (Salle Wagram, Paris); 03: 18-21.02.1995 (No. 1 Studio, Abbey Road, London)
01 - Camille Saint-Saens - Introduction & Rondo Capriccioso In A Minor Op. 28 (9:24)
02 - Ernest Chausson - Poeme Op. 25 (16:42)
03 - Camille Saint-Saens - Havanaise In E Op. 83 (10:23)
04 - Jules Massenet - Thais - Meditation (4:48)
05 - Maurice Ravel - Tzigane - Rapsodie De Concert (9:55)
01, 02, 04, 05:
Itzhak Perlman - Violin
Paris Orchestra
Conducted - Jean Martinon
03:
Itzhak Perlman - Violin
Abbey Road Ensemble
Conducted - Lawrence Foster

CD9: Shostakovich Violin Concerto No. 1 & 3 Duets; Glazunov Violin Concerto

Recorded: 01 - 05: 27/31.07.1988 (Mann Auditorium, Tel Aviv); 06 - 08: 01/02.06.1978 (CBS Studios, New York); 09 - 12: 26.07.1988 (Mann Auditorium, Tel Aviv)
01 - Shostakovich - Violin Concerto No. 1 In A Minor Op. 99 - I. Nocturne (10:53)
02 - Shostakovich - Violin Concerto No. 1 In A Minor Op. 99 - II. Scherzo (Allegro) (6:34)
03 - Shostakovich - Violin Concerto No. 1 In A Minor Op. 99 - III. Passacaglia (Andante) (8:47)
04 - Shostakovich - Violin Concerto No. 1 In A Minor Op. 99 - Cadenza (4:12)
05 - Shostakovich - Violin Concerto No. 1 In A Minor Op. 99 - IV. Burlesque (Allegro Con Brio) (5:12)
06 - Shostakovich - Three Violin Duets - I. Praeludium (2:21)
07 - Shostakovich - Three Violin Duets - II. Gavotte (2:17)
08 - Shostakovich - Three Violin Duets - III. Waltzes (2:47)
09 - Glazunov - Violin Concerto In A Minor Op. 82 - Moderato (4:23)
10 - Glazunov - Violin Concerto In A Minor Op. 82 - Andante (7:18)
11 - Glazunov - Violin Concerto In A Minor Op. 82 - Cadenza (2:15)
12 - Glazunov - Violin Concerto In A Minor Op. 82 - Animando (6:02)
01 - 05, 09 - 12:
Itzhak Perlman - Violin
Israel Philharmonic Orchestra
Conducted - Zubin Mehta
06 - 08:
Itzhak Perlman - Violin
Pinchas Zukerman - Violin
Samuel Sanders - Piano
Israel Philharmonic Orchestra
Conducted - Zubin Mehta


CD10: Brahms Violin Concerto, Sonatensatz & Hungarian Dances

Recorded: 01 - 03: 29.02.1992 & 01.03.1992 (Schauspielhaus, Berlin); 04 - 08: 20-23.04.1983 (No. 1 Studio, Abbey Road, London)
01 - Violin Concerto in D Op. 77 - I. Allegro Non Troppo (22:24)
02 - Violin Concerto in D Op. 77 - II. Adagio (9:13)
03 - Violin Concerto in D Op. 77 - III. Allegro Giocoso, Ma Non Troppo Vivace (8:10)
04 - Sonatensatz In C Minor - Scherzo (5:13)
05 - Hungarian Dances - No. 1 In G Minor (3:02)
06 - Hungarian Dances - No. 2 In D Minor (2:58)
07 - Hungarian Dances - No. 7 In A Major (1:47)
08 - Hungarian Dances - No. 9 In E Minor (2:18)
01 - 03:
Itzhak Perlman - Violin
Berlin Philharmonic Orchestra
Conducted - Daniel Barenboim
04 - 08:
Itzhak Perlman - Violin
Vladimir Ashkenazy - Piano
Berlin Philharmonic Orchestra
Conducted - Daniel Barenboim


CD11: Sibelius & Korngold Violin Concerto; Sinding Suite

Recorded: 01 - 06: 23/24.02.1979; 07 - 09: 17-19.05.1980 (Heinz Hall, Pittsburgh)
01 - Jean Sibelius - Violin Concerto In D Minor Op. 47 - I. Allegro Moderato (16:10)
02 - Jean Sibelius - Violin Concerto In D Minor Op. 47 - II. Adagio Di Molto (8:50)
03 - Jean Sibelius - Violin Concerto In D Minor Op. 47 - III. Allegro Ma Non Tanto (7:33)
04 - Christian Sinding - Suite In A Minor Op 10 (Suite In The Old Style) - I. Presto (1:43)
05 - Christian Sinding - Suite In A Minor Op 10 (Suite In The Old Style) - II. Adagio (5:41)
06 - Christian Sinding - Suite In A Minor Op 10 (Suite In The Old Style) - III. Tempo Giusto (5:15)
07 - Erich Wolfgang Korngold - Violin Concerto In D Major Op. 35 - I. Moderato Nobile (8:32)
08 - Erich Wolfgang Korngold - Violin Concerto In D Major Op. 35 - II. Romance (Andante) (8:11)
09 - Erich Wolfgang Korngold - Violin Concerto In D Major Op. 35 - III. Finale (Allegro Assai Vivace) (7:08)
Itzhak Perlman - Violin
Pittsburgh Symphony Orchestra
Conducted - Andre Previn


CD12: Tchaikovsky & Mendelssohn Violin Concerto

Recorded: 01 - 04: 11/13.11.78 (The 'Jld Met', Philadelphia); 05 - 07: 27/28.11.1972 (No. 1 Studio, Abbey Road, London)
01 - Tchaikovsky - Violin Concerto In D Op. 35 - 1. Allegro Monderato (19:18)
02 - Tchaikovsky - Violin Concerto In D Op. 35 - 2. Canzonetta (Andante) (7:01)
03 - Tchaikovsky - Violin Concerto In D Op. 35 - 3. Allegro Vivacissimo (11:10)
04 - Tchaikovsky - Serenade Melancolique In B Minor Op. 26 (9:27)
05 - Mendelssohn - Violin Concerto In E Minor Op. 64 - 1. Allegro Molto Appassionato (13:44)
06 - Mendelssohn - Violin Concerto In E Minor Op. 64 - 2. Andante (8:34)
07 - Mendelssohn - Violin Concerto In E Minor Op. 64 - 3. Allegretto Non Troppo - Allegro Molto Vivace (6:41)
01 - 04:
Itzhak Perlman - violin
Philadelphia Orchestra
Conducted - Eugene Ormandy
05 - 07:
Itzhak Perlman - violin
London Symphony Orchestra
Conducted - Andre Previn


CD13: Dvorak Violin Concerto, Romance, Sonatina & 4 Romantic Pieces

Recorded: 01 - 04: 09 - 11.07.1974 (All Saints Church, Tooting); 05 - 12: 02 - 14.12.1983 (Manhattan Center, New York)
01 - Violin Concerto In A Minor B. 108 Op. 53 - I. Allegro Ma Non Troppo - Quasi Moderato (11:12)
02 - Violin Concerto In A Minor B. 108 Op. 53 - II. Adagio Ma Non Troppo (2:48)
03 - Violin Concerto In A Minor B. 108 Op. 53 - III. Finale Allegro Giocoso, Ma Non Troppo (2:26)
04 - Romance In F Minor B. 39 Op. 11 (4:58)
05 - Sonatina In G Major (Indian Lament) B. 183 Op. 100 - I. Allegro Risoluto (10:36)
06 - Sonatina In G Major (Indian Lament) B. 183 Op. 100 - II. Larghetto (10:01)
07 - Sonatina In G Major (Indian Lament) B. 183 Op. 100 - III. Scherzo Molto Vivace (13:11)
08 - Sonatina In G Major (Indian Lament) B. 183 Op. 100 - IV. Finale Allegro (5:58)
09 - Four Romantic Pieces B. 150 Op. 75 - I. Allegro Moderato (4:20)
10 - Four Romantic Pieces B. 150 Op. 75 - II. Allegro Maestoso (2:59)
11 - Four Romantic Pieces B. 150 Op. 75 - III. Allegro Appassionato (5:44)
12 - Four Romantic Pieces B. 150 Op. 75 - IV. Larghetto (2:55)
01 - 04:
Itzhak Perlman - Violin
London Philharmonic Orchestra
Conducted - Daniel Barenboim
05 - 12:
Itzhak Perlman - Violin
Samuel Sanders - Piano


CD14: Paganini Violin Concerto No. 1; Sarasate "Carmen" Fantasy, Introduction et Tarentelle & Zigeunerweissen

Recorded: 01 - 04: 09/10.08.1971 (Kingsway Holl, London); 05 - 06: 18-21.11.1995 (No. 1 Studio, Abbey Road, London)
01 - Paganini - Violin Concerto No. 1 In E Flat Major Op. 6 MS 21 - I. Allegro Maestoso (11:48)
02 - Paganini - Violin Concerto No. 1 In E Flat Major Op. 6 MS 21 - II. Adagio Espressivo (4:45)
03 - Paganini - Violin Concerto No. 1 In E Flat Major Op. 6 MS 21 - III. Rondo (Allegro Spiritoso) (8:39)
04 - Sarasate - Concert Fantasy On Themes From Bizet's Carmen For Violin & Orchestra Op. 25 (19:23)
05 - Sarasate - Introduction And Tarantella For Violin & Orchestra Op. 43 (5:08)
06 - Sarasate - Zigeunerweisen For Violin & Piano (Gypsy Airs) Op. 20 (9:49)
01 - 04:
Itzhak Perlman - Viloin
Royal Philharmonic Orchestra
Conducted - Lawrence Foster
05 - 06:
Itzhak Perlman - Viloin
Abbey Road Ensemble
Conducted - Lawrence Foster


CD15: The Kreisler Album

Recorded: 1 - 5, 7, 16: 09-12.12.1985 (RCA Studios, New York); 6: 14/15.04.1978 (Abbey Road Studios, London); 8 - 13: 24-26.05.1978 (CBS Studios, New York); 14, 15, 17 - 20: 27-29.08.1975 (Abbey Road Studios, London); 21: 05-07.11.1972 (Abbey Road Studios, London)
01 - Caprice Viennois Op. 2 (3:53)
02 - Songs My Mother Taught Me Op. 55 No. 4 (3:02)
03 - Tempo Di Minuetto (In The Style Of Pugnani) (3:46)
04 - Slavonic Dance No. 2 In E Minor (4:16)
05 - Melodie (3:07)
06 - Spanish Dance No. 5 (4:19)
07 - Mazurka No. 45 In A Minor Op. 67 No. 4 (3:04)
08 - Siciliano & Rigaudon (In The Style Of Francoeur) (5:11)
09 - Serenade Espagnole (2:18)
10 - Serenade (2:35)
11 - Toy Soldiers' March (1:45)
12 - Syncopation (2:06)
13 - Molly On The Shore (2:44)
14 - Andantino (In The Style Of Martini) (3:40)
15 - Slavonic Dance No. 3 In G (5:26)
16 - Schon Rosmarin (1:57)
17 - Liebeslied (3:25)
18 - Recitativo & Scherzo Capriccio Op. 6 (4:02)
19 - Tango (2:32)
20 - Tambourin Chinois Op. 3 (3:35)
21 - Romance In A Op. 94 No. 2 (4:07)
Itzhak Perlman - Violin
Samuel Sanders - Piano



CD1
Exact Audio Copy V0.99 prebeta 1 from 25. May 2007
Отчёт EAC об извлечении, выполненном 27. октября 2007, 0:23
Itzhak Perlman / The Perlman Edition - Tradition
Дисковод: _NEC DVD_RW ND-4570A Adapter: 1 ID: 1
Режим чтения : Достоверность
Использование точного потока : Да
Отключение кэша аудио : Да
Использование указателей C2 : Нет
Коррекция смещения при чтении : 48
Способность читать области Lead-in и Lead-out : Нет
Заполнение пропущенных сэмплов тишиной : Да
Удаление блоков с тишиной в начале и конце : Нет
Интерфейс : Установленный внешний ASPI-интерфейс
Обработка зазоров : Не обнаружено, добавлено к предыдущему треку
Выходной формат : Внутренние WAV-операции
Формат сэмплов : 44.100 Гц; 16 бит; стерео
TOC извлечённого CD
Трек | Старт | Длительность | Начальный сектор | Конечный сектор
––––––––––––––––––––––––––––––––––-
1 | 0:00.00 | 6:51.70 | 0 | 30894
2 | 6:51.70 | 5:55.20 | 30895 | 57539
3 | 12:47.15 | 4:12.72 | 57540 | 76511
4 | 17:00.12 | 4:09.00 | 76512 | 95186
5 | 21:09.12 | 3:44.03 | 95187 | 111989
6 | 24:53.15 | 5:41.20 | 111990 | 137584
7 | 30:34.35 | 5:29.55 | 137585 | 162314
8 | 36:04.15 | 4:54.17 | 162315 | 184381
9 | 40:58.32 | 4:56.43 | 184382 | 206624
Трек 1
Имя файла G:\Torrent\++Inochka\+Itzhak Perlman\+The Perlman Edition\+CD 01 - Tradition\01 - A Yiddishe Mamme.wav
Пиковый уровень 57.1 %
Качество трека 100.0 %
CRC копии A8642FF3
Копирование… OK
Трек 2
Имя файла G:\Torrent\++Inochka\+Itzhak Perlman\+The Perlman Edition\+CD 01 - Tradition\02 - As Der Rebbe Elimelech Is Gevoyrn Asoi Freylach.wav
Пиковый уровень 100.0 %
Качество трека 100.0 %
CRC копии 8F8AA00F
Копирование… OK
Трек 3
Имя файла G:\Torrent\++Inochka\+Itzhak Perlman\+The Perlman Edition\+CD 01 - Tradition\03 - Reyzele.wav
Пиковый уровень 38.1 %
Качество трека 100.0 %
CRC копии E6738852
Копирование… OK
Трек 4
Имя файла G:\Torrent\++Inochka\+Itzhak Perlman\+The Perlman Edition\+CD 01 - Tradition\04 - Oif'n Pripetchik Brennt A Feier'l.wav
Пиковый уровень 22.6 %
Качество трека 100.0 %
CRC копии 3B7A8274
Копирование… OK
Трек 5
Имя файла G:\Torrent\++Inochka\+Itzhak Perlman\+The Perlman Edition\+CD 01 - Tradition\05 - Doyna.wav
Пиковый уровень 73.9 %
Качество трека 100.0 %
CRC копии CEF54612
Копирование… OK
Трек 6
Имя файла G:\Torrent\++Inochka\+Itzhak Perlman\+The Perlman Edition\+CD 01 - Tradition\06 - Rozhinkes Mit Mandelen.wav
Пиковый уровень 35.2 %
Качество трека 100.0 %
CRC копии A565AAD5
Копирование… OK
Трек 7
Имя файла G:\Torrent\++Inochka\+Itzhak Perlman\+The Perlman Edition\+CD 01 - Tradition\07 - Oif'n Weyg Steyt A Boim.wav
Пиковый уровень 41.3 %
Качество трека 99.9 %
CRC копии 533E2FAE
Копирование… OK
Трек 8
Имя файла G:\Torrent\++Inochka\+Itzhak Perlman\+The Perlman Edition\+CD 01 - Tradition\08 - A Dudele.wav
Пиковый уровень 97.9 %
Качество трека 100.0 %
CRC копии 5864D5F9
Копирование… OK
Трек 9
Имя файла G:\Torrent\++Inochka\+Itzhak Perlman\+The Perlman Edition\+CD 01 - Tradition\09 - Vi Ahin Soll Ich Geyn.wav
Пиковый уровень 52.1 %
Качество трека 100.0 %
CRC копии 81A094EE
Копирование… OK
Ошибок не произошло
Конец отчёта


CD2
Exact Audio Copy V0.99 prebeta 1 from 25. May 2007
Отчёт EAC об извлечении, выполненном 27. октября 2007, 0:41
Itzhak Perlman / The Perlman Edition - Encores
Дисковод: _NEC DVD_RW ND-4570A Adapter: 1 ID: 1
Режим чтения : Достоверность
Использование точного потока : Да
Отключение кэша аудио : Да
Использование указателей C2 : Нет
Коррекция смещения при чтении : 48
Способность читать области Lead-in и Lead-out : Нет
Заполнение пропущенных сэмплов тишиной : Да
Удаление блоков с тишиной в начале и конце : Нет
Интерфейс : Установленный внешний ASPI-интерфейс
Обработка зазоров : Не обнаружено, добавлено к предыдущему треку
Выходной формат : Внутренние WAV-операции
Формат сэмплов : 44.100 Гц; 16 бит; стерео
TOC извлечённого CD
Трек | Старт | Длительность | Начальный сектор | Конечный сектор
––––––––––––––––––––––––––––––––––-
1 | 0:00.32 | 2:46.65 | 32 | 12546
2 | 2:47.22 | 3:44.65 | 12547 | 29411
3 | 6:32.12 | 2:39.50 | 29412 | 41386
4 | 9:11.62 | 3:18.43 | 41387 | 56279
5 | 12:30.30 | 3:15.27 | 56280 | 70931
6 | 15:45.57 | 3:26.28 | 70932 | 86409
7 | 19:12.10 | 4:22.72 | 86410 | 106131
8 | 23:35.07 | 1:49.58 | 106132 | 114364
9 | 25:24.65 | 3:08.72 | 114365 | 128536
10 | 28:33.62 | 2:22.68 | 128537 | 139254
11 | 30:56.55 | 3:55.65 | 139255 | 156944
12 | 34:52.45 | 3:48.40 | 156945 | 174084
13 | 38:41.10 | 5:00.00 | 174085 | 196584
14 | 43:41.10 | 2:55.02 | 196585 | 209711
15 | 46:36.12 | 3:55.25 | 209712 | 227361
16 | 50:31.37 | 4:38.73 | 227362 | 248284
17 | 55:10.35 | 6:13.00 | 248285 | 276259
18 | 61:23.35 | 4:48.17 | 276260 | 297876
Трек 1
Имя файла G:\Torrent\++Inochka\+Itzhak Perlman\+The Perlman Edition\+CD 02 - Encores\01 - Ottokar Novacek - Perpetuum Mobile Op. 5 No. 4.wav
Пиковый уровень 78.3 %
Качество трека 100.0 %
CRC копии BEB571B1
Копирование… OK
Трек 2
Имя файла G:\Torrent\++Inochka\+Itzhak Perlman\+The Perlman Edition\+CD 02 - Encores\02 - Paul Ben Haim - Berceuse Sfaradite.wav
Пиковый уровень 26.8 %
Качество трека 100.0 %
CRC копии 9CFA45F2
Копирование… OK
Трек 3
Имя файла G:\Torrent\++Inochka\+Itzhak Perlman\+The Perlman Edition\+CD 02 - Encores\03 - Claude Debussy - La Fille Aux Cheveux De Lin.wav
Пиковый уровень 46.3 %
Качество трека 100.0 %
CRC копии CE67AB08
Копирование… OK
Трек 4
Имя файла G:\Torrent\++Inochka\+Itzhak Perlman\+The Perlman Edition\+CD 02 - Encores\04 - Pablo De Sarasate - Zapateado Op. 23 No. 2.wav
Пиковый уровень 67.5 %
Качество трека 99.9 %
CRC копии A5C67309
Копирование… OK
Трек 5
Имя файла G:\Torrent\++Inochka\+Itzhak Perlman\+The Perlman Edition\+CD 02 - Encores\05 - Manuel Ponce - Estrellita.wav
Пиковый уровень 53.1 %
Качество трека 100.0 %
CRC копии 959726F7
Копирование… OK
Трек 6
Имя файла G:\Torrent\++Inochka\+Itzhak Perlman\+The Perlman Edition\+CD 02 - Encores\06 - Moritz Moszkowski - Guitarre Op. 45 No. 23.wav
Пиковый уровень 68.1 %
Качество трека 100.0 %
CRC копии 7384917A
Копирование… OK
Трек 7
Имя файла G:\Torrent\++Inochka\+Itzhak Perlman\+The Perlman Edition\+CD 02 - Encores\07 - Fryderyk Chopin - Nocturne In E Flat Op. 55 No. 24.wav
Пиковый уровень 73.6 %
Качество трека 100.0 %
CRC копии 437E0259
Копирование… OK
Трек 8
Имя файла G:\Torrent\++Inochka\+Itzhak Perlman\+The Perlman Edition\+CD 02 - Encores\08 - Francis Poulenc - Presto In B Flat.wav
Пиковый уровень 54.1 %
Качество трека 100.0 %
CRC копии 4F6BDC12
Копирование… OK
Трек 9
Имя файла G:\Torrent\++Inochka\+Itzhak Perlman\+The Perlman Edition\+CD 02 - Encores\09 - Camille Saint-Saens - The Swan From The Carnival Of The Animals.wav
Пиковый уровень 35.5 %
Качество трека 100.0 %
CRC копии E2BF36B0
Копирование… OK
Трек 10
Имя файла G:\Torrent\++Inochka\+Itzhak Perlman\+The Perlman Edition\+CD 02 - Encores\10 - Domenico Paradies - Toccata.wav
Пиковый уровень 51.0 %
Качество трека 100.0 %
CRC копии 4CD5935F
Копирование… OK
Трек 11
Имя файла G:\Torrent\++Inochka\+Itzhak Perlman\+The Perlman Edition\+CD 02 - Encores\11 - Edward Elgar - La Capricieuse Op. 17.wav
Пиковый уровень 44.6 %
Качество трека 100.0 %
CRC копии 44C6B810
Копирование… OK
Трек 12
Имя файла G:\Torrent\++Inochka\+Itzhak Perlman\+The Perlman Edition\+CD 02 - Encores\12 - Stephen Foster - Old Folks At Home.wav
Пиковый уровень 80.7 %
Качество трека 100.0 %
CRC копии 8227F2C5
Копирование… OK
Трек 13
Имя файла G:\Torrent\++Inochka\+Itzhak Perlman\+The Perlman Edition\+CD 02 - Encores\13 - Henri Vieuxtemps - Souvenir D'Amerique On 'Yankee Doodle' Op. 17.wav
Пиковый уровень 89.2 %
Качество трека 100.0 %
CRC копии 46915B56
Копирование… OK
Трек 14
Имя файла G:\Torrent\++Inochka\+Itzhak Perlman\+The Perlman Edition\+CD 02 - Encores\14 - Maria Theresia Von Paradis - Sicilienne For Keyboard In E Flat.wav
Пиковый уровень 33.8 %
Качество трека 100.0 %
CRC копии 1AA2DA47
Копирование… OK
Трек 15
Имя файла G:\Torrent\++Inochka\+Itzhak Perlman\+The Perlman Edition\+CD 02 - Encores\15 - Joseph Joachim Raff - Cavatina Op. 85 No. 3.wav
Пиковый уровень 65.6 %
Качество трека 100.0 %
CRC копии A9439268
Копирование… OK
Трек 16
Имя файла G:\Torrent\++Inochka\+Itzhak Perlman\+The Perlman Edition\+CD 02 - Encores\16 - Pablo De Sarasate - Malaguena Op. 21 No. 1.wav
Пиковый уровень 71.6 %
Качество трека 100.0 %
CRC копии 12E27DB6
Копирование… OK
Трек 17
Имя файла G:\Torrent\++Inochka\+Itzhak Perlman\+The Perlman Edition\+CD 02 - Encores\17 - Pablo De Sarasate - Caprice Basque Op. 24.wav
Пиковый уровень 94.9 %
Качество трека 100.0 %
CRC копии 0E33C6FB
Копирование… OK
Трек 18
Имя файла G:\Torrent\++Inochka\+Itzhak Perlman\+The Perlman Edition\+CD 02 - Encores\18 - Pablo De Sarasate - Romanza Andaluza Op. 22 No. 1.wav
Пиковый уровень 72.8 %
Качество трека 99.9 %
CRC копии B005436A
Копирование… OK
Ошибок не произошло
Конец отчёта


CD3
Exact Audio Copy V0.99 prebeta 1 from 25. May 2007
Отчёт EAC об извлечении, выполненном 27. октября 2007, 0:56
Itzhak Perlman / The Perlman Edition - J. S. Bach
Дисковод: _NEC DVD_RW ND-4570A Adapter: 1 ID: 1
Режим чтения : Достоверность
Использование точного потока : Да
Отключение кэша аудио : Да
Использование указателей C2 : Нет
Коррекция смещения при чтении : 48
Способность читать области Lead-in и Lead-out : Нет
Заполнение пропущенных сэмплов тишиной : Да
Удаление блоков с тишиной в начале и конце : Нет
Интерфейс : Установленный внешний ASPI-интерфейс
Обработка зазоров : Не обнаружено, добавлено к предыдущему треку
Выходной формат : Внутренние WAV-операции
Формат сэмплов : 44.100 Гц; 16 бит; стерео
TOC извлечённого CD
Трек | Старт | Длительность | Начальный сектор | Конечный сектор
––––––––––––––––––––––––––––––––––-
1 | 0:00.00 | 9:02.27 | 0 | 40676
2 | 9:02.27 | 8:11.35 | 40677 | 77536
3 | 17:13.62 | 3:13.30 | 77537 | 92041
4 | 20:27.17 | 4:12.53 | 92042 | 110994
5 | 24:39.70 | 7:44.30 | 110995 | 145824
6 | 32:24.25 | 4:12.62 | 145825 | 164786
7 | 36:37.12 | 4:00.23 | 164787 | 182809
8 | 40:37.35 | 7:33.65 | 182810 | 216849
9 | 48:11.25 | 5:17.35 | 216850 | 240659
10 | 53:28.60 | 5:27.47 | 240660 | 265231
11 | 58:56.32 | 6:45.60 | 265232 | 295666
12 | 65:42.17 | 3:52.25 | 295667 | 313091
Трек 1
Имя файла G:\Torrent\++Inochka\+Itzhak Perlman\+The Perlman Edition\+CD 03 - J. S. Bach\01 - Violin Concerto No. 2 In E Major BWV 1042 - I. Allegro.wav
Пиковый уровень 87.8 %
Качество трека 100.0 %
CRC копии 9493E61F
Копирование… OK
Трек 2
Имя файла G:\Torrent\++Inochka\+Itzhak Perlman\+The Perlman Edition\+CD 03 - J. S. Bach\02 - Violin Concerto No. 2 In E Major BWV 1042 - II. Adagio.wav
Пиковый уровень 58.4 %
Качество трека 99.9 %
CRC копии 29C4A463
Копирование… OK
Трек 3
Имя файла G:\Torrent\++Inochka\+Itzhak Perlman\+The Perlman Edition\+CD 03 - J. S. Bach\03 - Violin Concerto No. 2 In E Major BWV 1042 - III. Allegro Assai.wav
Пиковый уровень 80.2 %
Качество трека 100.0 %
CRC копии 0BAA9B01
Копирование… OK
Трек 4
Имя файла G:\Torrent\++Inochka\+Itzhak Perlman\+The Perlman Edition\+CD 03 - J. S. Bach\04 - Violin Concerto No. 1 In A Minor BWV 1041 - I. Allegro.wav
Пиковый уровень 74.4 %
Качество трека 99.9 %
CRC копии 4B2C86BB
Копирование… OK
Трек 5
Имя файла G:\Torrent\++Inochka\+Itzhak Perlman\+The Perlman Edition\+CD 03 - J. S. Bach\05 - Violin Concerto No. 1 In A Minor BWV 1041 - II. Andante.wav
Пиковый уровень 82.4 %
Качество трека 100.0 %
CRC копии A7169499
Копирование… OK
Трек 6
Имя файла G:\Torrent\++Inochka\+Itzhak Perlman\+The Perlman Edition\+CD 03 - J. S. Bach\06 - Violin Concerto No. 1 In A Minor BWV 1041 - III. Allegro Assai.wav
Пиковый уровень 73.4 %
Качество трека 100.0 %
CRC копии 88902710
Копирование… OK
Трек 7
Имя файла G:\Torrent\++Inochka\+Itzhak Perlman\+The Perlman Edition\+CD 03 - J. S. Bach\07 - Violin Concerto In D Minor (Double) BWV 1043 - I. Vivace.wav
Пиковый уровень 98.8 %
Качество трека 100.0 %
CRC копии 7AE387DA
Копирование… OK
Трек 8
Имя файла G:\Torrent\++Inochka\+Itzhak Perlman\+The Perlman Edition\+CD 03 - J. S. Bach\08 - Violin Concerto In D Minor (Double) BWV 1043 - II. Largo.wav
Пиковый уровень 50.8 %
Качество трека 100.0 %
CRC копии 08A7AE9B
Копирование… OK
Трек 9
Имя файла G:\Torrent\++Inochka\+Itzhak Perlman\+The Perlman Edition\+CD 03 - J. S. Bach\09 - Violin Concerto In D Minor (Double) BWV 1043 - III. Allegro.wav
Пиковый уровень 77.1 %
Качество трека 99.9 %
CRC копии 0622870F
Копирование… OK
Трек 10
Имя файла G:\Torrent\++Inochka\+Itzhak Perlman\+The Perlman Edition\+CD 03 - J. S. Bach\10 - Concerto For Violin & Oboe In C Minor BWV 1060 - I. Allegro.wav
Пиковый уровень 79.4 %
Качество трека 100.0 %
CRC копии 3C574C58
Копирование… OK
Трек 11
Имя файла G:\Torrent\++Inochka\+Itzhak Perlman\+The Perlman Edition\+CD 03 - J. S. Bach\11 - Concerto For Violin & Oboe In C Minor BWV 1060 - II. Adagio.wav
Пиковый уровень 43.9 %
Качество трека 100.0 %
CRC копии 242D3485
Копирование… OK
Трек 12
Имя файла G:\Torrent\++Inochka\+Itzhak Perlman\+The Perlman Edition\+CD 03 - J. S. Bach\12 - Concerto For Violin & Oboe In C Minor BWV 1060 - III. Allegro.wav
Пиковый уровень 79.4 %
Качество трека 100.0 %
CRC копии E8C9169A
Копирование… OK
Ошибок не произошло
Конец отчёта


CD4
Exact Audio Copy V0.99 prebeta 1 from 25. May 2007
Отчёт EAC об извлечении, выполненном 27. октября 2007, 1:09
Itzhak Perlman / The Perlman Edition - The American Album
Дисковод: _NEC DVD_RW ND-4570A Adapter: 1 ID: 1
Режим чтения : Достоверность
Использование точного потока : Да
Отключение кэша аудио : Да
Использование указателей C2 : Нет
Коррекция смещения при чтении : 48
Способность читать области Lead-in и Lead-out : Нет
Заполнение пропущенных сэмплов тишиной : Да
Удаление блоков с тишиной в начале и конце : Нет
Интерфейс : Установленный внешний ASPI-интерфейс
Обработка зазоров : Не обнаружено, добавлено к предыдущему треку
Выходной формат : Внутренние WAV-операции
Формат сэмплов : 44.100 Гц; 16 бит; стерео
TOC извлечённого CD
Трек | Старт | Длительность | Начальный сектор | Конечный сектор
––––––––––––––––––––––––––––––––––-
1 | 0:00.33 | 6:33.52 | 33 | 29559
2 | 6:34.10 | 4:23.30 | 29560 | 49314
3 | 10:57.40 | 1:31.43 | 49315 | 56182
4 | 12:29.08 | 7:00.10 | 56183 | 87692
5 | 19:29.18 | 10:39.07 | 87693 | 135624
6 | 30:08.25 | 10:21.03 | 135625 | 182202
7 | 40:29.28 | 8:10.65 | 182203 | 219017
8 | 48:40.18 | 3:50.02 | 219018 | 236269
9 | 52:30.20 | 4:57.00 | 236270 | 258544
10 | 57:27.20 | 4:33.70 | 258545 | 279089
11 | 62:01.15 | 2:49.08 | 279090 | 291772
Трек 1
Имя файла G:\Torrent\++Inochka\+Itzhak Perlman\+The Perlman Edition\+CD 04 - The American Album\01 - Leonard Bernstein - Serenade After Plato's Symposium - I. Phaedrus - Pausanias (Lento - Allegro Marcato).wav
Пиковый уровень 97.7 %
Качество трека 100.0 %
CRC копии CC9CAC94
Копирование… OK
Трек 2
Имя файла G:\Torrent\++Inochka\+Itzhak Perlman\+The Perlman Edition\+CD 04 - The American Album\02 - Leonard Bernstein - Serenade After Plato's Symposium - II. Aristophanes (Allegretto).wav
Пиковый уровень 81.9 %
Качество трека 100.0 %
CRC копии 0B16FC03
Копирование… OK
Трек 3
Имя файла G:\Torrent\++Inochka\+Itzhak Perlman\+The Perlman Edition\+CD 04 - The American Album\03 - Leonard Bernstein - Serenade After Plato's Symposium - III. Eryximachus (Presto).wav
Пиковый уровень 97.7 %
Качество трека 100.0 %
CRC копии 0A4F6CEC
Копирование… OK
Трек 4
Имя файла G:\Torrent\++Inochka\+Itzhak Perlman\+The Perlman Edition\+CD 04 - The American Album\04 - Leonard Bernstein - Serenade After Plato's Symposium - IV. Agathon (Adagio).wav
Пиковый уровень 87.0 %
Качество трека 100.0 %
CRC копии 0D8E97F5
Копирование… OK
Трек 5
Имя файла G:\Torrent\++Inochka\+Itzhak Perlman\+The Perlman Edition\+CD 04 - The American Album\05 - Leonard Bernstein - Serenade After Plato's Symposium - V. Socrates - Alcibiades (Molto Tenuto - Adagio - Allegro Molto Vivace).wav
Пиковый уровень 97.7 %
Качество трека 100.0 %
CRC копии A50276A8
Копирование… OK
Трек 6
Имя файла G:\Torrent\++Inochka\+Itzhak Perlman\+The Perlman Edition\+CD 04 - The American Album\06 - Samuel Barber - Concerto For Violin And Orchestra Op. 14 - I. Allegro.wav
Пиковый уровень 97.7 %
Качество трека 100.0 %
CRC копии 58B8DB35
Копирование… OK
Трек 7
Имя файла G:\Torrent\++Inochka\+Itzhak Perlman\+The Perlman Edition\+CD 04 - The American Album\07 - Samuel Barber - Concerto For Violin And Orchestra Op. 14 - II. Andante.wav
Пиковый уровень 97.7 %
Качество трека 100.0 %
CRC копии 74EB06B3
Копирование… OK
Трек 8
Имя файла G:\Torrent\++Inochka\+Itzhak Perlman\+The Perlman Edition\+CD 04 - The American Album\08 - Samuel Barber - Concerto For Violin And Orchestra Op. 14 - III. Presto In Moto Perpetuo.wav
Пиковый уровень 97.7 %
Качество трека 100.0 %
CRC копии C0BA237E
Копирование… OK
Трек 9
Имя файла G:\Torrent\++Inochka\+Itzhak Perlman\+The Perlman Edition\+CD 04 - The American Album\09 - Lukas Foss - 3 American Pieces - Early Song (Andante).wav
Пиковый уровень 97.7 %
Качество трека 100.0 %
CRC копии 517376DE
Копирование… OK
Трек 10
Имя файла G:\Torrent\++Inochka\+Itzhak Perlman\+The Perlman Edition\+CD 04 - The American Album\10 - Lukas Foss - 3 American Pieces - Dedication (Lento).wav
Пиковый уровень 97.7 %
Качество трека 99.9 %
CRC копии 89084FC6
Копирование… OK
Трек 11
Имя файла G:\Torrent\++Inochka\+Itzhak Perlman\+The Perlman Edition\+CD 04 - The American Album\11 - Lukas Foss - 3 American Pieces - Composer's Holiday (Allegro).wav
Пиковый уровень 97.7 %
Качество трека 100.0 %
CRC копии E291BB27
Копирование… OK
Ошибок не произошло
Конец отчёта


CD5
Exact Audio Copy V0.99 prebeta 1 from 25. May 2007
Отчёт EAC об извлечении, выполненном 27. октября 2007, 1:19
Itzhak Perlman / The Perlman Edition - Max Bruch
Дисковод: _NEC DVD_RW ND-4570A Adapter: 1 ID: 1
Режим чтения : Достоверность
Использование точного потока : Да
Отключение кэша аудио : Да
Использование указателей C2 : Нет
Коррекция смещения при чтении : 48
Способность читать области Lead-in и Lead-out : Нет
Заполнение пропущенных сэмплов тишиной : Да
Удаление блоков с тишиной в начале и конце : Нет
Интерфейс : Установленный внешний ASPI-интерфейс
Обработка зазоров : Не обнаружено, добавлено к предыдущему треку
Выходной формат : Внутренние WAV-операции
Формат сэмплов : 44.100 Гц; 16 бит; стерео
TOC извлечённого CD
Трек | Старт | Длительность | Начальный сектор | Конечный сектор
––––––––––––––––––––––––––––––––––-
1 | 0:00.00 | 12:30.60 | 0 | 56309
2 | 12:30.60 | 3:42.70 | 56310 | 73029
3 | 16:13.55 | 9:43.50 | 73030 | 116804
4 | 25:57.30 | 4:07.57 | 116805 | 135386
5 | 30:05.12 | 5:07.53 | 135387 | 158464
6 | 35:12.65 | 6:32.45 | 158465 | 187909
7 | 41:45.35 | 7:05.17 | 187910 | 219801
8 | 48:50.52 | 9:38.48 | 219802 | 263199
Трек 1
Имя файла G:\Torrent\++Inochka\+Itzhak Perlman\+The Perlman Edition\+CD 05 - Max Bruch\01 - Violin Concerto No. 2 In D Minor Op. 44 - 1. Adagio Ma Non Troppo.wav
Пиковый уровень 98.7 %
Качество трека 99.9 %
CRC копии 73A2EB90
Копирование… OK
Трек 2
Имя файла G:\Torrent\++Inochka\+Itzhak Perlman\+The Perlman Edition\+CD 05 - Max Bruch\02 - Violin Concerto No. 2 In D Minor Op. 44 - 2. Recitative (Allegro Moderato).wav
Пиковый уровень 71.5 %
Качество трека 100.0 %
CRC копии FA236E8E
Копирование… OK
Трек 3
Имя файла G:\Torrent\++Inochka\+Itzhak Perlman\+The Perlman Edition\+CD 05 - Max Bruch\03 - Violin Concerto No. 2 In D Minor Op. 44 - 3. Finale (Allegro Molto).wav
Пиковый уровень 92.5 %
Качество трека 100.0 %
CRC копии 68B30FC3
Копирование… OK
Трек 4
Имя файла G:\Torrent\++Inochka\+Itzhak Perlman\+The Perlman Edition\+CD 05 - Max Bruch\04 - Scottish Fantasy Op. 46 - Einleitung (Grave).wav
Пиковый уровень 53.1 %
Качество трека 100.0 %
CRC копии 7634DCF0
Копирование… OK
Трек 5
Имя файла G:\Torrent\++Inochka\+Itzhak Perlman\+The Perlman Edition\+CD 05 - Max Bruch\05 - Scottish Fantasy Op. 46 - 1. Adagio Cantabile.wav
Пиковый уровень 53.6 %
Качество трека 100.0 %
CRC копии B26FAE84
Копирование… OK
Трек 6
Имя файла G:\Torrent\++Inochka\+Itzhak Perlman\+The Perlman Edition\+CD 05 - Max Bruch\06 - Scottish Fantasy Op. 46 - 2. Allegro.wav
Пиковый уровень 86.3 %
Качество трека 100.0 %
CRC копии 226DDDA9
Копирование… OK
Трек 7
Имя файла G:\Torrent\++Inochka\+Itzhak Perlman\+The Perlman Edition\+CD 05 - Max Bruch\07 - Scottish Fantasy Op. 46 - 3. Andante Sostenuto.wav
Пиковый уровень 40.8 %
Качество трека 100.0 %
CRC копии 8577E02E
Копирование… OK
Трек 8
Имя файла G:\Torrent\++Inochka\+Itzhak Perlman\+The Perlman Edition\+CD 05 - Max Bruch\08 - Scottish Fantasy Op. 46 - 4. Finale (Allegro Guerriero).wav
Пиковый уровень 97.6 %
Качество трека 100.0 %
CRC копии 60A72DB7
Копирование… OK
Ошибок не произошло
Конец отчёта


CD6
Exact Audio Copy V0.99 prebeta 1 from 25. May 2007
Отчёт EAC об извлечении, выполненном 27. октября 2007, 1:35
Itzhak Perlman / The Perlman Edition - Sergey Prokofiev
Дисковод: _NEC DVD_RW ND-4570A Adapter: 1 ID: 1
Режим чтения : Достоверность
Использование точного потока : Да
Отключение кэша аудио : Да
Использование указателей C2 : Нет
Коррекция смещения при чтении : 48
Способность читать области Lead-in и Lead-out : Нет
Заполнение пропущенных сэмплов тишиной : Да
Удаление блоков с тишиной в начале и конце : Нет
Интерфейс : Установленный внешний ASPI-интерфейс
Обработка зазоров : Не обнаружено, добавлено к предыдущему треку
Выходной формат : Внутренние WAV-операции
Формат сэмплов : 44.100 Гц; 16 бит; стерео
TOC извлечённого CD
Трек | Старт | Длительность | Начальный сектор | Конечный сектор
––––––––––––––––––––––––––––––––––-
1 | 0:00.00 | 9:37.35 | 0 | 43309
2 | 9:37.35 | 3:46.60 | 43310 | 60319
3 | 13:24.20 | 8:39.50 | 60320 | 99294
4 | 22:03.70 | 10:48.65 | 99295 | 147959
5 | 32:52.60 | 9:44.57 | 147960 | 191816
6 | 42:37.42 | 6:13.60 | 191817 | 219851
7 | 48:51.27 | 3:26.48 | 219852 | 235349
8 | 52:18.00 | 3:09.57 | 235350 | 249581
9 | 55:27.57 | 4:40.18 | 249582 | 270599
10 | 60:08.00 | 4:58.67 | 270600 | 293016
Трек 1
Имя файла G:\Torrent\++Inochka\+Itzhak Perlman\+The Perlman Edition\+CD 06 - Sergey Prokofiev\01 - Violin Concerto No. 1 - I. Andantino.wav
Пиковый уровень 51.8 %
Качество трека 99.9 %
CRC копии E4892621
Копирование… OK
Трек 2
Имя файла G:\Torrent\++Inochka\+Itzhak Perlman\+The Perlman Edition\+CD 06 - Sergey Prokofiev\02 - Violin Concerto No. 1 - II. Scherzo (Vivacissimo).wav
Пиковый уровень 99.6 %
Качество трека 99.9 %
CRC копии E8155D35
Копирование… OK
Трек 3
Имя файла G:\Torrent\++Inochka\+Itzhak Perlman\+The Perlman Edition\+CD 06 - Sergey Prokofiev\03 - Violin Concerto No. 1 - III. Moderato.wav
Пиковый уровень 99.9 %
Качество трека 99.9 %
CRC копии 3E7885B1
Копирование… OK
Трек 4
Имя файла G:\Torrent\++Inochka\+Itzhak Perlman\+The Perlman Edition\+CD 06 - Sergey Prokofiev\04 - Violin Concerto No. 2 - I. Allegro Moderato.wav
Пиковый уровень 99.9 %
Качество трека 99.9 %
CRC копии F5C06810
Копирование… OK
Трек 5
Имя файла G:\Torrent\++Inochka\+Itzhak Perlman\+The Perlman Edition\+CD 06 - Sergey Prokofiev\05 - Violin Concerto No. 2 - II. Andante Assai.wav
Пиковый уровень 50.4 %
Качество трека 99.9 %
CRC копии C11E1145
Копирование… OK
Трек 6
Имя файла G:\Torrent\++Inochka\+Itzhak Perlman\+The Perlman Edition\+CD 06 - Sergey Prokofiev\06 - Violin Concerto No. 2 - III. Allegro Ben Marcato.wav
Пиковый уровень 65.2 %
Качество трека 100.0 %
CRC копии 20F1E14C
Копирование… OK
Трек 7
Имя файла G:\Torrent\++Inochka\+Itzhak Perlman\+The Perlman Edition\+CD 06 - Sergey Prokofiev\07 - Sonata For Two Violins - I. Andante Cantabile.wav
Пиковый уровень 28.9 %
Качество трека 100.0 %
CRC копии E761B643
Копирование… OK
Трек 8
Имя файла G:\Torrent\++Inochka\+Itzhak Perlman\+The Perlman Edition\+CD 06 - Sergey Prokofiev\08 - Sonata For Two Violins - II. Allegro.wav
Пиковый уровень 62.8 %
Качество трека 100.0 %
CRC копии 422F2584
Копирование… OK
Трек 9
Имя файла G:\Torrent\++Inochka\+Itzhak Perlman\+The Perlman Edition\+CD 06 - Sergey Prokofiev\09 - Sonata For Two Violins - III. Comodo (Quasi Allegreto).wav
Пиковый уровень 19.7 %
Качество трека 99.9 %
CRC копии 0D4E8B3C
Копирование… OK
Трек 10
Имя файла G:\Torrent\++Inochka\+Itzhak Perlman\+The Perlman Edition\+CD 06 - Sergey Prokofiev\10 - Sonata For Two Violins - IV. Allegro Con Brio.wav
Пиковый уровень 55.1 %
Качество трека 99.9 %
CRC копии 8E18FA23
Копирование… OK
Ошибок не произошло
Конец отчёта


CD7
Exact Audio Copy V0.99 prebeta 1 from 25. May 2007
Отчёт EAC об извлечении, выполненном 27. октября 2007, 1:50
Itzhak Perlman / The Perlman Edition - Ludwig van Beethoven
Дисковод: _NEC DVD_RW ND-4570A Adapter: 1 ID: 1
Режим чтения : Достоверность
Использование точного потока : Да
Отключение кэша аудио : Да
Использование указателей C2 : Нет
Коррекция смещения при чтении : 48
Способность читать области Lead-in и Lead-out : Нет
Заполнение пропущенных сэмплов тишиной : Да
Удаление блоков с тишиной в начале и конце : Нет
Интерфейс : Установленный внешний ASPI-интерфейс
Обработка зазоров : Не обнаружено, добавлено к предыдущему треку
Выходной формат : Внутренние WAV-операции
Формат сэмплов : 44.100 Гц; 16 бит; стерео
TOC извлечённого CD
Трек | Старт | Длительность | Начальный сектор | Конечный сектор
––––––––––––––––––––––––––––––––––-
1 | 0:00.00 | 12:30.42 | 0 | 56291
2 | 12:30.42 | 6:36.73 | 56292 | 86064
3 | 19:07.40 | 11:37.37 | 86065 | 138376
4 | 30:45.02 | 6:43.65 | 138377 | 168666
5 | 37:28.67 | 4:48.58 | 168667 | 190324
6 | 42:17.50 | 4:11.70 | 190325 | 209219
7 | 46:29.45 | 5:30.05 | 209220 | 233974
8 | 51:59.50 | 6:58.02 | 233975 | 265326
9 | 58:57.52 | 10:16.60 | 265327 | 311586
10 | 69:14.37 | 5:56.38 | 311587 | 338324
Трек 1
Имя файла G:\Torrent\++Inochka\+Itzhak Perlman\+The Perlman Edition\+CD 07 - Ludwig van Beethoven\01 - Piano Trio In B Flat (Archduke) Op. 97 - I. Allegro Moderato.wav
Пиковый уровень 99.8 %
Качество трека 100.0 %
CRC копии 475DAC36
Копирование… OK
Трек 2
Имя файла G:\Torrent\++Inochka\+Itzhak Perlman\+The Perlman Edition\+CD 07 - Ludwig van Beethoven\02 - Piano Trio In B Flat (Archduke) Op. 97 - II. Scherzo (Allegro) & Trio.wav
Пиковый уровень 96.9 %
Качество трека 100.0 %
CRC копии C65A6CBF
Копирование… OK
Трек 3
Имя файла G:\Torrent\++Inochka\+Itzhak Perlman\+The Perlman Edition\+CD 07 - Ludwig van Beethoven\03 - Piano Trio In B Flat (Archduke) Op. 97 - III. Andante Cantabile.wav
Пиковый уровень 66.8 %
Качество трека 100.0 %
CRC копии 9901FB95
Копирование… OK
Трек 4
Имя файла G:\Torrent\++Inochka\+Itzhak Perlman\+The Perlman Edition\+CD 07 - Ludwig van Beethoven\04 - Piano Trio In B Flat (Archduke) Op. 97 - IV. Allegro Moderato.wav
Пиковый уровень 98.7 %
Качество трека 100.0 %
CRC копии 9AB562D9
Копирование… OK
Трек 5
Имя файла G:\Torrent\++Inochka\+Itzhak Perlman\+The Perlman Edition\+CD 07 - Ludwig van Beethoven\05 - Piano Trio In E Flat WoO 38 - I. Allegro Moderato.wav
Пиковый уровень 99.5 %
Качество трека 100.0 %
CRC копии 6C5CA09D
Копирование… OK
Трек 6
Имя файла G:\Torrent\++Inochka\+Itzhak Perlman\+The Perlman Edition\+CD 07 - Ludwig van Beethoven\06 - Piano Trio In E Flat WoO 38 - II. Scherzo (Allegro Ma Non Troppo) & Trio.wav
Пиковый уровень 75.5 %
Качество трека 100.0 %
CRC копии 55B94E04
Копирование… OK
Трек 7
Имя файла G:\Torrent\++Inochka\+Itzhak Perlman\+The Perlman Edition\+CD 07 - Ludwig van Beethoven\07 - Piano Trio In E Flat WoO 38 - III. Rondo (Allegretto).wav
Пиковый уровень 98.1 %
Качество трека 99.9 %
CRC копии 36037C71
Копирование… OK
Трек 8
Имя файла G:\Torrent\++Inochka\+Itzhak Perlman\+The Perlman Edition\+CD 07 - Ludwig van Beethoven\08 - Piano Trio No. 5 In D (Ghost) Op. 70 No. 1 - I. Allegro Vivace E Con Brio.wav
Пиковый уровень 79.2 %
Качество трека 100.0 %
CRC копии 968ED260
Копирование… OK
Трек 9
Имя файла G:\Torrent\++Inochka\+Itzhak Perlman\+The Perlman Edition\+CD 07 - Ludwig van Beethoven\09 - Piano Trio No. 5 In D (Ghost) Op. 70 No. 1 - II. Largo Assai Ed Espressivo.wav
Пиковый уровень 72.6 %
Качество трека 100.0 %
CRC копии 9263D1B4
Копирование… OK
Трек 10
Имя файла G:\Torrent\++Inochka\+Itzhak Perlman\+The Perlman Edition\+CD 07 - Ludwig van Beethoven\10 - Piano Trio No. 5 In D (Ghost) Op. 70 No. 1 - III. Presto.wav
Пиковый уровень 89.1 %
Качество трека 100.0 %
CRC копии EF6DB9F3
Копирование… OK
Ошибок не произошло
Конец отчёта


CD8
Exact Audio Copy V0.99 prebeta 1 from 25. May 2007
Отчёт EAC об извлечении, выполненном 27. октября 2007, 2:30
Itzhak Perlman / The Perlman Edition - The French Album
Дисковод: _NEC DVD_RW ND-4570A Adapter: 1 ID: 1
Режим чтения : Достоверность
Использование точного потока : Да
Отключение кэша аудио : Да
Использование указателей C2 : Нет
Коррекция смещения при чтении : 48
Способность читать области Lead-in и Lead-out : Нет
Заполнение пропущенных сэмплов тишиной : Да
Удаление блоков с тишиной в начале и конце : Нет
Интерфейс : Установленный внешний ASPI-интерфейс
Обработка зазоров : Не обнаружено, добавлено к предыдущему треку
Выходной формат : Внутренние WAV-операции
Формат сэмплов : 44.100 Гц; 16 бит; стерео
TOC извлечённого CD
Трек | Старт | Длительность | Начальный сектор | Конечный сектор
––––––––––––––––––––––––––––––––––-
1 | 0:00.00 | 9:24.25 | 0 | 42324
2 | 9:24.25 | 16:42.37 | 42325 | 117511
3 | 26:06.62 | 10:23.08 | 117512 | 164244
4 | 36:29.70 | 4:48.47 | 164245 | 185891
5 | 41:18.42 | 9:55.73 | 185892 | 230589
Трек 1
Имя файла G:\Torrent\++Inochka\+Itzhak Perlman\+The Perlman Edition\+CD 08 - The French Album\01 - Camille Saint-Saens - Introduction & Rondo Capriccioso In A Minor Op. 28.wav
Пиковый уровень 97.2 %
Качество трека 100.0 %
CRC копии ABE336C5
Копирование… OK
Трек 2
Имя файла G:\Torrent\++Inochka\+Itzhak Perlman\+The Perlman Edition\+CD 08 - The French Album\02 - Ernest Chausson - Poeme Op. 25.wav
Пиковый уровень 95.1 %
Качество трека 99.9 %
CRC копии 1E405884
Копирование… OK
Трек 3
Имя файла G:\Torrent\++Inochka\+Itzhak Perlman\+The Perlman Edition\+CD 08 - The French Album\03 - Camille Saint-Saens - Havanaise In E Op. 83.wav
Пиковый уровень 98.8 %
Качество трека 100.0 %
CRC копии FCF1B20B
Копирование… OK
Трек 4
Имя файла G:\Torrent\++Inochka\+Itzhak Perlman\+The Perlman Edition\+CD 08 - The French Album\04 - Jules Massenet - Thais - Meditation.wav
Пиковый уровень 57.7 %
Качество трека 100.0 %
CRC копии 1A9DC1D0
Копирование… OK
Трек 5
Имя файла G:\Torrent\++Inochka\+Itzhak Perlman\+The Perlman Edition\+CD 08 - The French Album\05 - Maurice Ravel - Tzigane - Rapsodie De Concert.wav
Пиковый уровень 99.6 %
Качество трека 100.0 %
CRC копии 6B1A9643
Копирование… OK
Ошибок не произошло
Конец отчёта


CD9
Exact Audio Copy V0.99 prebeta 1 from 25. May 2007
Отчёт EAC об извлечении, выполненном 27. октября 2007, 2:59
Itzhak Perlman / The Perlman Edition - Shostakovich & Glazunov
Дисковод: _NEC DVD_RW ND-4570A Adapter: 1 ID: 1
Режим чтения : Достоверность
Использование точного потока : Да
Отключение кэша аудио : Да
Использование указателей C2 : Нет
Коррекция смещения при чтении : 48
Способность читать области Lead-in и Lead-out : Нет
Заполнение пропущенных сэмплов тишиной : Да
Удаление блоков с тишиной в начале и конце : Нет
Интерфейс : Установленный внешний ASPI-интерфейс
Обработка зазоров : Не обнаружено, добавлено к предыдущему треку
Выходной формат : Внутренние WAV-операции
Формат сэмплов : 44.100 Гц; 16 бит; стерео
TOC извлечённого CD
Трек | Старт | Длительность | Начальный сектор | Конечный сектор
––––––––––––––––––––––––––––––––––-
1 | 0:02.00 | 10:53.32 | 150 | 49156
2 | 10:55.32 | 6:34.63 | 49157 | 78769
3 | 17:30.20 | 8:47.65 | 78770 | 118359
4 | 26:18.10 | 4:12.50 | 118360 | 137309
5 | 30:30.60 | 5:12.60 | 137310 | 160769
6 | 35:43.45 | 2:21.65 | 160770 | 171409
7 | 38:05.35 | 2:17.15 | 171410 | 181699
8 | 40:22.50 | 2:47.25 | 181700 | 194249
9 | 43:10.00 | 4:23.72 | 194250 | 214046
10 | 47:33.72 | 7:18.65 | 214047 | 246961
11 | 54:52.62 | 2:15.38 | 246962 | 257124
12 | 57:08.25 | 6:02.62 | 257125 | 284336
Трек 1
Имя файла G:\Torrent\++Inochka\+Itzhak Perlman\+The Perlman Edition\+CD 09 - Shostakovich & Glazunov\01 - Shostakovich - Violin Concerto No. 1 In A Minor Op. 99 - I. Nocturne.wav
Пиковый уровень 37.9 %
Качество трека 100.0 %
CRC копии BAB801F2
Копирование… OK
Трек 2
Имя файла G:\Torrent\++Inochka\+Itzhak Perlman\+The Perlman Edition\+CD 09 - Shostakovich & Glazunov\02 - Shostakovich - Violin Concerto No. 1 In A Minor Op. 99 - II. Scherzo (Allegro).wav
Пиковый уровень 94.4 %
Качество трека 99.9 %
CRC копии 788202CD
Копирование… OK
Трек 3
Имя файла G:\Torrent\++Inochka\+Itzhak Perlman\+The Perlman Edition\+CD 09 - Shostakovich & Glazunov\03 - Shostakovich - Violin Concerto No. 1 In A Minor Op. 99 - III. Passacaglia (Andante).wav
Пиковый уровень 78.2 %
Качество трека 100.0 %
CRC копии 7A6BD4F3
Копирование… OK
Трек 4
Имя файла G:\Torrent\++Inochka\+Itzhak Perlman\+The Perlman Edition\+CD 09 - Shostakovich & Glazunov\04 - Shostakovich - Violin Concerto No. 1 In A Minor Op. 99 - Cadenza.wav
Пиковый уровень 50.6 %
Качество трека 99.9 %
CRC копии 142A668F
Копирование… OK
Трек 5
Имя файла G:\Torrent\++Inochka\+Itzhak Perlman\+The Perlman Edition\+CD 09 - Shostakovich & Glazunov\05 - Shostakovich - Violin Concerto No. 1 In A Minor Op. 99 - IV. Burlesque (Allegro Con Brio).wav
Пиковый уровень 98.8 %
Качество трека 99.9 %
CRC копии 10CE7085
Копирование… OK
Трек 6
Имя файла G:\Torrent\++Inochka\+Itzhak Perlman\+The Perlman Edition\+CD 09 - Shostakovich & Glazunov\06 - Shostakovich - Three Violin Duets - I. Praeludium.wav
Пиковый уровень 25.8 %
Качество трека 100.0 %
CRC копии E841E952
Копирование… OK
Трек 7
Имя файла G:\Torrent\++Inochka\+Itzhak Perlman\+The Perlman Edition\+CD 09 - Shostakovich & Glazunov\07 - Shostakovich - Three Violin Duets - II. Gavotte.wav
Пиковый уровень 37.1 %
Качество трека 100.0 %
CRC копии A73D7289
Копирование… OK
Трек 8
Имя файла G:\Torrent\++Inochka\+Itzhak Perlman\+The Perlman Edition\+CD 09 - Shostakovich & Glazunov\08 - Shostakovich - Three Violin Duets - III. Waltzes.wav
Пиковый уровень 54.0 %
Качество трека 100.0 %
CRC копии CD7D3DE2
Копирование… OK
Трек 9
Имя файла G:\Torrent\++Inochka\+Itzhak Perlman\+The Perlman Edition\+CD 09 - Shostakovich & Glazunov\09 - Glazunov - Violin Concerto In A Minor Op. 82 - Moderato.wav
Пиковый уровень 76.9 %
Качество трека 100.0 %
CRC копии 44DBDD71
Копирование… OK
Трек 10
Имя файла G:\Torrent\++Inochka\+Itzhak Perlman\+The Perlman Edition\+CD 09 - Shostakovich & Glazunov\10 - Glazunov - Violin Concerto In A Minor Op. 82 - Andante.wav
Пиковый уровень 93.7 %
Качество трека 100.0 %
CRC копии 618EE58E
Копирование… OK
Трек 11
Имя файла G:\Torrent\++Inochka\+Itzhak Perlman\+The Perlman Edition\+CD 09 - Shostakovich & Glazunov\11 - Glazunov - Violin Concerto In A Minor Op. 82 - Cadenza.wav
Пиковый уровень 54.1 %
Качество трека 100.0 %
CRC копии A9553FC5
Копирование… OK
Трек 12
Имя файла G:\Torrent\++Inochka\+Itzhak Perlman\+The Perlman Edition\+CD 09 - Shostakovich & Glazunov\12 - Glazunov - Violin Concerto In A Minor Op. 82 - Animando.wav
Пиковый уровень 98.8 %
Качество трека 100.0 %
CRC копии 3AE592E1
Копирование… OK
Ошибок не произошло
Конец отчёта


CD10
Exact Audio Copy V0.99 prebeta 1 from 25. May 2007
Отчёт EAC об извлечении, выполненном 27. октября 2007, 3:11
Itzhak Perlman / The Perlman Edition - Johannes Brahms
Дисковод: _NEC DVD_RW ND-4570A Adapter: 1 ID: 1
Режим чтения : Достоверность
Использование точного потока : Да
Отключение кэша аудио : Да
Использование указателей C2 : Нет
Коррекция смещения при чтении : 48
Способность читать области Lead-in и Lead-out : Нет
Заполнение пропущенных сэмплов тишиной : Да
Удаление блоков с тишиной в начале и конце : Нет
Интерфейс : Установленный внешний ASPI-интерфейс
Обработка зазоров : Не обнаружено, добавлено к предыдущему треку
Выходной формат : Внутренние WAV-операции
Формат сэмплов : 44.100 Гц; 16 бит; стерео
TOC извлечённого CD
Трек | Старт | Длительность | Начальный сектор | Конечный сектор
––––––––––––––––––––––––––––––––––-
1 | 0:00.00 | 22:24.02 | 0 | 100801
2 | 22:24.02 | 9:13.58 | 100802 | 142334
3 | 31:37.60 | 8:10.62 | 142335 | 179146
4 | 39:48.47 | 5:13.73 | 179147 | 202694
5 | 45:02.45 | 3:02.22 | 202695 | 216366
6 | 48:04.67 | 2:58.20 | 216367 | 229736
7 | 51:03.12 | 1:47.70 | 229737 | 237831
8 | 52:51.07 | 2:18.43 | 237832 | 248224
Трек 1
Имя файла G:\Torrent\++Inochka\+Itzhak Perlman\+The Perlman Edition\+CD 10 - Johannes Brahms\01 - Violin Concerto in D Op. 77 - I. Allegro Non Troppo.wav
Пиковый уровень 98.8 %
Качество трека 100.0 %
CRC копии 8501DB9A
Копирование… OK
Трек 2
Имя файла G:\Torrent\++Inochka\+Itzhak Perlman\+The Perlman Edition\+CD 10 - Johannes Brahms\02 - Violin Concerto in D Op. 77 - II. Adagio.wav
Пиковый уровень 76.9 %
Качество трека 100.0 %
CRC копии 751D5698
Копирование… OK
Трек 3
Имя файла G:\Torrent\++Inochka\+Itzhak Perlman\+The Perlman Edition\+CD 10 - Johannes Brahms\03 - Violin Concerto in D Op. 77 - III. Allegro Giocoso, Ma Non Troppo Vivace.wav
Пиковый уровень 98.8 %
Качество трека 100.0 %
CRC копии 6B102F3F
Копирование… OK
Трек 4
Имя файла G:\Torrent\++Inochka\+Itzhak Perlman\+The Perlman Edition\+CD 10 - Johannes Brahms\04 - Sonatensatz In C Minor - Scherzo.wav
Пиковый уровень 88.6 %
Качество трека 100.0 %
CRC копии 1CC9DD2B
Копирование… OK
Трек 5
Имя файла G:\Torrent\++Inochka\+Itzhak Perlman\+The Perlman Edition\+CD 10 - Johannes Brahms\05 - Hungarian Dances - No. 1 In G Minor.wav
Пиковый уровень 59.3 %
Качество трека 99.9 %
CRC копии B8DB93FF
Копирование… OK
Трек 6
Имя файла G:\Torrent\++Inochka\+Itzhak Perlman\+The Perlman Edition\+CD 10 - Johannes Brahms\06 - Hungarian Dances - No. 2 In D Minor.wav
Пиковый уровень 53.8 %
Качество трека 100.0 %
CRC копии DCD39301
Копирование… OK
Трек 7
Имя файла G:\Torrent\++Inochka\+Itzhak Perlman\+The Perlman Edition\+CD 10 - Johannes Brahms\07 - Hungarian Dances - No. 7 In A Major.wav
Пиковый уровень 54.9 %
Качество трека 99.9 %
CRC копии 945EF3CB
Копирование… OK
Трек 8
Имя файла G:\Torrent\++Inochka\+Itzhak Perlman\+The Perlman Edition\+CD 10 - Johannes Brahms\08 - Hungarian Dances - No. 9 In E Minor.wav
Пиковый уровень 39.9 %
Качество трека 100.0 %
CRC копии 8A560099
Копирование… OK
Ошибок не произошло
Конец отчёта


CD11
Exact Audio Copy V0.99 prebeta 1 from 25. May 2007
Отчёт EAC об извлечении, выполненном 27. октября 2007, 3:24
Itzhak Perlman / The Perlman Edition - Sibelius & Sinding & Korngold
Дисковод: _NEC DVD_RW ND-4570A Adapter: 1 ID: 1
Режим чтения : Достоверность
Использование точного потока : Да
Отключение кэша аудио : Да
Использование указателей C2 : Нет
Коррекция смещения при чтении : 48
Способность читать области Lead-in и Lead-out : Нет
Заполнение пропущенных сэмплов тишиной : Да
Удаление блоков с тишиной в начале и конце : Нет
Интерфейс : Установленный внешний ASPI-интерфейс
Обработка зазоров : Не обнаружено, добавлено к предыдущему треку
Выходной формат : Внутренние WAV-операции
Формат сэмплов : 44.100 Гц; 16 бит; стерео
TOC извлечённого CD
Трек | Старт | Длительность | Начальный сектор | Конечный сектор
––––––––––––––––––––––––––––––––––-
1 | 0:00.00 | 16:10.22 | 0 | 72771
2 | 16:10.22 | 8:50.05 | 72772 | 112526
3 | 25:00.27 | 7:33.68 | 112527 | 146569
4 | 32:34.20 | 1:43.70 | 146570 | 154364
5 | 34:18.15 | 5:41.07 | 154365 | 179946
6 | 39:59.22 | 5:15.55 | 179947 | 203626
7 | 45:15.02 | 8:32.28 | 203627 | 242054
8 | 53:47.30 | 8:11.00 | 242055 | 278879
9 | 61:58.30 | 7:08.55 | 278880 | 311034
Трек 1
Имя файла G:\Torrent\++Inochka\+Itzhak Perlman\+The Perlman Edition\+CD 11 - Sibelius & Sinding & Korngold\01 - Jean Sibelius - Violin Concerto In D Minor Op. 47 - I. Allegro Moderato.wav
Пиковый уровень 89.0 %
Качество трека 99.9 %
CRC копии E33AA52B
Копирование… OK
Трек 2
Имя файла G:\Torrent\++Inochka\+Itzhak Perlman\+The Perlman Edition\+CD 11 - Sibelius & Sinding & Korngold\02 - Jean Sibelius - Violin Concerto In D Minor Op. 47 - II. Adagio Di Molto.wav
Пиковый уровень 67.1 %
Качество трека 100.0 %
CRC копии 587BFC5E
Копирование… OK
Трек 3
Имя файла G:\Torrent\++Inochka\+Itzhak Perlman\+The Perlman Edition\+CD 11 - Sibelius & Sinding & Korngold\03 - Jean Sibelius - Violin Concerto In D Minor Op. 47 - III. Allegro Ma Non Tanto.wav
Пиковый уровень 89.0 %
Качество трека 99.9 %
CRC копии 413C5E7A
Копирование… OK
Трек 4
Имя файла G:\Torrent\++Inochka\+Itzhak Perlman\+The Perlman Edition\+CD 11 - Sibelius & Sinding & Korngold\04 - Christian Sinding - Suite In A Minor Op 10 (Suite In The Old Style) - I. Presto.wav
Пиковый уровень 72.9 %
Качество трека 99.8 %
CRC копии 0B590584
Копирование… OK
Трек 5
Имя файла G:\Torrent\++Inochka\+Itzhak Perlman\+The Perlman Edition\+CD 11 - Sibelius & Sinding & Korngold\05 - Christian Sinding - Suite In A Minor Op 10 (Suite In The Old Style) - II. Adagio.wav
Пиковый уровень 45.9 %
Качество трека 100.0 %
CRC копии 7C98C9AE
Копирование… OK
Трек 6
Имя файла G:\Torrent\++Inochka\+Itzhak Perlman\+The Perlman Edition\+CD 11 - Sibelius & Sinding & Korngold\06 - Christian Sinding - Suite In A Minor Op 10 (Suite In The Old Style) - III. Tempo Giusto.wav
Пиковый уровень 51.0 %
Качество трека 100.0 %
CRC копии 8D7C05BB
Копирование… OK
Трек 7
Имя файла G:\Torrent\++Inochka\+Itzhak Perlman\+The Perlman Edition\+CD 11 - Sibelius & Sinding & Korngold\07 - Erich Wolfgang Korngold - Violin Concerto In D Major Op. 35 - I. Moderato Nobile.wav
Пиковый уровень 99.7 %
Качество трека 99.9 %
CRC копии 099BAA75
Копирование… OK
Трек 8
Имя файла G:\Torrent\++Inochka\+Itzhak Perlman\+The Perlman Edition\+CD 11 - Sibelius & Sinding & Korngold\08 - Erich Wolfgang Korngold - Violin Concerto In D Major Op. 35 - II. Romance (Andante).wav
Пиковый уровень 60.5 %
Качество трека 100.0 %
CRC копии D57E1DFD
Копирование… OK
Трек 9
Имя файла G:\Torrent\++Inochka\+Itzhak Perlman\+The Perlman Edition\+CD 11 - Sibelius & Sinding & Korngold\09 - Erich Wolfgang Korngold - Violin Concerto In D Major Op. 35 - III. Finale (Allegro Assai Vivace).wav
Пиковый уровень 99.9 %
Качество трека 100.0 %
CRC копии 7B6622CB
Копирование… OK
Ошибок не произошло
Конец отчёта


CD12
Exact Audio Copy V0.99 prebeta 1 from 25. May 2007
Отчёт EAC об извлечении, выполненном 27. октября 2007, 3:37
Itzhak Perlman / The Perlman Edition - Tchaikovsky & Mendelssohn
Дисковод: _NEC DVD_RW ND-4570A Adapter: 1 ID: 1
Режим чтения : Достоверность
Использование точного потока : Да
Отключение кэша аудио : Да
Использование указателей C2 : Нет
Коррекция смещения при чтении : 48
Способность читать области Lead-in и Lead-out : Нет
Заполнение пропущенных сэмплов тишиной : Да
Удаление блоков с тишиной в начале и конце : Нет
Интерфейс : Установленный внешний ASPI-интерфейс
Обработка зазоров : Не обнаружено, добавлено к предыдущему треку
Выходной формат : Внутренние WAV-операции
Формат сэмплов : 44.100 Гц; 16 бит; стерео
TOC извлечённого CD
Трек | Старт | Длительность | Начальный сектор | Конечный сектор
––––––––––––––––––––––––––––––––––-
1 | 0:00.00 | 19:18.00 | 0 | 86849
2 | 19:18.00 | 7:01.27 | 86850 | 118451
3 | 26:19.27 | 11:10.63 | 118452 | 168764
4 | 37:30.15 | 9:27.07 | 168765 | 211296
5 | 46:57.22 | 13:44.50 | 211297 | 273146
6 | 60:41.72 | 8:34.40 | 273147 | 311736
7 | 69:16.37 | 6:41.35 | 311737 | 341846
Трек 1
Имя файла G:\Torrent\++Inochka\+Itzhak Perlman\+The Perlman Edition\+CD 12 - Tchaikovsky & Mendelssohn\01 - Tchaikovsky - Violin Concerto In D Op. 35 - 1. Allegro Monderato.wav
Пиковый уровень 99.8 %
Качество трека 100.0 %
CRC копии 454038CE
Копирование… OK
Трек 2
Имя файла G:\Torrent\++Inochka\+Itzhak Perlman\+The Perlman Edition\+CD 12 - Tchaikovsky & Mendelssohn\02 - Tchaikovsky - Violin Concerto In D Op. 35 - 2. Canzonetta (Andante).wav
Пиковый уровень 32.6 %
Качество трека 99.9 %
CRC копии 44B3A073
Копирование… OK
Трек 3
Имя файла G:\Torrent\++Inochka\+Itzhak Perlman\+The Perlman Edition\+CD 12 - Tchaikovsky & Mendelssohn\03 - Tchaikovsky - Violin Concerto In D Op. 35 - 3. Allegro Vivacissimo.wav
Пиковый уровень 88.5 %
Качество трека 100.0 %
CRC копии F395551B
Копирование… OK
Трек 4
Имя файла G:\Torrent\++Inochka\+Itzhak Perlman\+The Perlman Edition\+CD 12 - Tchaikovsky & Mendelssohn\04 - Tchaikovsky - Serenade Melancolique In B Minor Op. 26.wav
Пиковый уровень 34.7 %
Качество трека 100.0 %
CRC копии 368DB409
Копирование… OK
Трек 5
Имя файла G:\Torrent\++Inochka\+Itzhak Perlman\+The Perlman Edition\+CD 12 - Tchaikovsky & Mendelssohn\05 - Mendelssohn - Violin Concerto In E Minor Op. 64 - 1. Allegro Molto Appassionato.wav
Пиковый уровень 72.4 %
Качество трека 100.0 %
CRC копии 26439213
Копирование… OK
Трек 6
Имя файла G:\Torrent\++Inochka\+Itzhak Perlman\+The Perlman Edition\+CD 12 - Tchaikovsky & Mendelssohn\06 - Mendelssohn - Violin Concerto In E Minor Op. 64 - 2. Andante.wav
Пиковый уровень 72.0 %
Качество трека 100.0 %
CRC копии EF0E1F44
Копирование… OK
Трек 7
Имя файла G:\Torrent\++Inochka\+Itzhak Perlman\+The Perlman Edition\+CD 12 - Tchaikovsky & Mendelssohn\07 - Mendelssohn - Violin Concerto In E Minor Op. 64 - 3. Allegretto Non Troppo - Allegro Molto Vivace.wav
Пиковый уровень 68.6 %
Качество трека 99.9 %
CRC копии 4593468A
Копирование… OK
Ошибок не произошло
Конец отчёта


CD13
Exact Audio Copy V0.99 prebeta 1 from 25. May 2007
Отчёт EAC об извлечении, выполненном 27. октября 2007, 3:55
Itzhak Perlman / The Perlman Edition - Antonin Dvorak
Дисковод: _NEC DVD_RW ND-4570A Adapter: 1 ID: 1
Режим чтения : Достоверность
Использование точного потока : Да
Отключение кэша аудио : Да
Использование указателей C2 : Нет
Коррекция смещения при чтении : 48
Способность читать области Lead-in и Lead-out : Нет
Заполнение пропущенных сэмплов тишиной : Да
Удаление блоков с тишиной в начале и конце : Нет
Интерфейс : Установленный внешний ASPI-интерфейс
Обработка зазоров : Не обнаружено, добавлено к предыдущему треку
Выходной формат : Внутренние WAV-операции
Формат сэмплов : 44.100 Гц; 16 бит; стерео
TOC извлечённого CD
Трек | Старт | Длительность | Начальный сектор | Конечный сектор
––––––––––––––––––––––––––––––––––-
1 | 0:02.00 | 11:12.12 | 150 | 50561
2 | 11:14.12 | 2:48.35 | 50562 | 63196
3 | 14:02.47 | 2:26.27 | 63197 | 74173
4 | 16:28.74 | 4:58.18 | 74174 | 96541
5 | 21:27.17 | 10:36.73 | 96542 | 144314
6 | 32:04.15 | 10:01.52 | 144315 | 189441
7 | 42:05.67 | 13:11.73 | 189442 | 248839
8 | 55:17.65 | 5:58.67 | 248840 | 275756
9 | 61:16.57 | 4:20.05 | 275757 | 295261
10 | 65:36.62 | 2:59.35 | 295262 | 308721
11 | 68:36.22 | 5:44.55 | 308722 | 334576
12 | 74:21.02 | 2:55.68 | 334577 | 347769
Трек 1
Имя файла G:\Torrent\++Inochka\+Itzhak Perlman\+The Perlman Edition\+CD 13 - Antonin Dvorak\01 - Violin Concerto In A Minor B. 108 Op. 53 - I. Allegro Ma Non Troppo - Quasi Moderato.wav
Пиковый уровень 97.8 %
Качество трека 100.0 %
CRC копии 344E0D09
Копирование… OK
Трек 2
Имя файла G:\Torrent\++Inochka\+Itzhak Perlman\+The Perlman Edition\+CD 13 - Antonin Dvorak\02 - Violin Concerto In A Minor B. 108 Op. 53 - II. Adagio Ma Non Troppo.wav
Пиковый уровень 80.4 %
Качество трека 100.0 %
CRC копии 7A744CEE
Копирование… OK
Трек 3
Имя файла G:\Torrent\++Inochka\+Itzhak Perlman\+The Perlman Edition\+CD 13 - Antonin Dvorak\03 - Violin Concerto In A Minor B. 108 Op. 53 - III. Finale Allegro Giocoso, Ma Non Troppo.wav
Пиковый уровень 34.9 %
Качество трека 100.0 %
CRC копии FC425D2A
Копирование… OK
Трек 4
Имя файла G:\Torrent\++Inochka\+Itzhak Perlman\+The Perlman Edition\+CD 13 - Antonin Dvorak\04 - Romance In F Minor B. 39 Op. 11.wav
Пиковый уровень 36.4 %
Качество трека 100.0 %
CRC копии 5E1777A8
Копирование… OK
Трек 5
Имя файла G:\Torrent\++Inochka\+Itzhak Perlman\+The Perlman Edition\+CD 13 - Antonin Dvorak\05 - Sonatina In G Major (Indian Lament) B. 183 Op. 100 - I. Allegro Risoluto.wav
Пиковый уровень 98.8 %
Качество трека 100.0 %
CRC копии 416DB413
Копирование… OK
Трек 6
Имя файла G:\Torrent\++Inochka\+Itzhak Perlman\+The Perlman Edition\+CD 13 - Antonin Dvorak\06 - Sonatina In G Major (Indian Lament) B. 183 Op. 100 - II. Larghetto.wav
Пиковый уровень 97.6 %
Качество трека 99.9 %
CRC копии 34F1DC33
Копирование… OK
Трек 7
Имя файла G:\Torrent\++Inochka\+Itzhak Perlman\+The Perlman Edition\+CD 13 - Antonin Dvorak\07 - Sonatina In G Major (Indian Lament) B. 183 Op. 100 - III. Scherzo Molto Vivace.wav
Пиковый уровень 84.6 %
Качество трека 99.9 %
CRC копии 4F30D620
Копирование… OK
Трек 8
Имя файла G:\Torrent\++Inochka\+Itzhak Perlman\+The Perlman Edition\+CD 13 - Antonin Dvorak\08 - Sonatina In G Major (Indian Lament) B. 183 Op. 100 - IV. Finale Allegro.wav
Пиковый уровень 64.9 %
Качество трека 100.0 %
CRC копии 13AF1E0A
Копирование… OK
Трек 9
Имя файла G:\Torrent\++Inochka\+Itzhak Perlman\+The Perlman Edition\+CD 13 - Antonin Dvorak\09 - Four Romantic Pieces B. 150 Op. 75 - I. Allegro Moderato.wav
Пиковый уровень 34.0 %
Качество трека 100.0 %
CRC копии F8E6672D
Копирование… OK
Трек 10
Имя файла G:\Torrent\++Inochka\+Itzhak Perlman\+The Perlman Edition\+CD 13 - Antonin Dvorak\10 - Four Romantic Pieces B. 150 Op. 75 - II. Allegro Maestoso.wav
Пиковый уровень 54.7 %
Качество трека 100.0 %
CRC копии DF83484A
Копирование… OK
Трек 11
Имя файла G:\Torrent\++Inochka\+Itzhak Perlman\+The Perlman Edition\+CD 13 - Antonin Dvorak\11 - Four Romantic Pieces B. 150 Op. 75 - III. Allegro Appassionato.wav
Пиковый уровень 65.9 %
Качество трека 100.0 %
CRC копии 38D9119F
Копирование… OK
Трек 12
Имя файла G:\Torrent\++Inochka\+Itzhak Perlman\+The Perlman Edition\+CD 13 - Antonin Dvorak\12 - Four Romantic Pieces B. 150 Op. 75 - IV. Larghetto.wav
Пиковый уровень 37.5 %
Качество трека 100.0 %
CRC копии F5E82782
Копирование… OK
Ошибок не произошло
Конец отчёта


CD14
Exact Audio Copy V0.99 prebeta 1 from 25. May 2007
Отчёт EAC об извлечении, выполненном 27. октября 2007, 4:05
Itzhak Perlman / The Perlman Edition - Sarasate & Paganini
Дисковод: _NEC DVD_RW ND-4570A Adapter: 1 ID: 1
Режим чтения : Достоверность
Использование точного потока : Да
Отключение кэша аудио : Да
Использование указателей C2 : Нет
Коррекция смещения при чтении : 48
Способность читать области Lead-in и Lead-out : Нет
Заполнение пропущенных сэмплов тишиной : Да
Удаление блоков с тишиной в начале и конце : Нет
Интерфейс : Установленный внешний ASPI-интерфейс
Обработка зазоров : Не обнаружено, добавлено к предыдущему треку
Выходной формат : Внутренние WAV-операции
Формат сэмплов : 44.100 Гц; 16 бит; стерео
TOC извлечённого CD
Трек | Старт | Длительность | Начальный сектор | Конечный сектор
––––––––––––––––––––––––––––––––––-
1 | 0:02.00 | 11:48.05 | 150 | 53254
2 | 11:50.05 | 4:45.32 | 53255 | 74661
3 | 16:35.37 | 8:39.53 | 74662 | 113639
4 | 25:15.15 | 19:23.65 | 113640 | 200929
5 | 44:39.05 | 5:08.30 | 200930 | 224059
6 | 49:47.35 | 9:49.35 | 224060 | 268269
Трек 1
Имя файла G:\Torrent\++Inochka\+Itzhak Perlman\+The Perlman Edition\+CD 14 - Paganini & Sarasate\01 - Paganini - Violin Concerto No. 1 In E Flat Major Op. 6 MS 21 - I. Allegro Maestoso.wav
Пиковый уровень 76.4 %
Качество трека 100.0 %
CRC копии 67C51502
Копирование… OK
Трек 2
Имя файла G:\Torrent\++Inochka\+Itzhak Perlman\+The Perlman Edition\+CD 14 - Paganini & Sarasate\02 - Paganini - Violin Concerto No. 1 In E Flat Major Op. 6 MS 21 - II. Adagio Espressivo.wav
Пиковый уровень 87.7 %
Качество трека 100.0 %
CRC копии C63C83DD
Копирование… OK
Трек 3
Имя файла G:\Torrent\++Inochka\+Itzhak Perlman\+The Perlman Edition\+CD 14 - Paganini & Sarasate\03 - Paganini - Violin Concerto No. 1 In E Flat Major Op. 6 MS 21 - III. Rondo (Allegro Spiritoso).wav
Пиковый уровень 75.6 %
Качество трека 100.0 %
CRC копии 834C21DC
Копирование… OK
Трек 4
Имя файла G:\Torrent\++Inochka\+Itzhak Perlman\+The Perlman Edition\+CD 14 - Paganini & Sarasate\04 - Sarasate - Concert Fantasy On Themes From Bizet's Carmen For Violin & Orchestra Op. 25.wav
Пиковый уровень 81.7 %
Качество трека 99.9 %
CRC копии 85B39B23
Копирование… OK
Трек 5
Имя файла G:\Torrent\++Inochka\+Itzhak Perlman\+The Perlman Edition\+CD 14 - Paganini & Sarasate\05 - Sarasate - Introduction And Tarantella For Violin & Orchestra Op. 43.wav
Пиковый уровень 79.9 %
Качество трека 100.0 %
CRC копии D2BA4E97
Копирование… OK
Трек 6
Имя файла G:\Torrent\++Inochka\+Itzhak Perlman\+The Perlman Edition\+CD 14 - Paganini & Sarasate\06 - Sarasate - Zigeunerweisen For Violin & Piano (Gypsy Airs) Op. 20.wav
Пиковый уровень 93.2 %
Качество трека 100.0 %
CRC копии FCAB465F
Копирование… OK
Ошибок не произошло
Конец отчёта


CD15
Exact Audio Copy V0.99 prebeta 1 from 25. May 2007
Отчёт EAC об извлечении, выполненном 27. октября 2007, 4:25
Itzhak Perlman / The Perlman Edition - The Kreisler Album
Дисковод: _NEC DVD_RW ND-4570A Adapter: 1 ID: 1
Режим чтения : Достоверность
Использование точного потока : Да
Отключение кэша аудио : Да
Использование указателей C2 : Нет
Коррекция смещения при чтении : 48
Способность читать области Lead-in и Lead-out : Нет
Заполнение пропущенных сэмплов тишиной : Да
Удаление блоков с тишиной в начале и конце : Нет
Интерфейс : Установленный внешний ASPI-интерфейс
Обработка зазоров : Не обнаружено, добавлено к предыдущему треку
Выходной формат : Внутренние WAV-операции
Формат сэмплов : 44.100 Гц; 16 бит; стерео
TOC извлечённого CD
Трек | Старт | Длительность | Начальный сектор | Конечный сектор
––––––––––––––––––––––––––––––––––-
1 | 0:00.33 | 3:53.50 | 33 | 17557
2 | 3:54.08 | 3:02.02 | 17558 | 31209
3 | 6:56.10 | 3:46.73 | 31210 | 48232
4 | 10:43.08 | 4:16.00 | 48233 | 67432
5 | 14:59.08 | 3:07.10 | 67433 | 81467
6 | 18:06.18 | 4:19.07 | 81468 | 100899
7 | 22:25.25 | 3:04.13 | 100900 | 114712
8 | 25:29.38 | 5:11.70 | 114713 | 138107
9 | 30:41.33 | 2:18.72 | 138108 | 148529
10 | 33:00.30 | 2:35.30 | 148530 | 160184
11 | 35:35.60 | 1:45.45 | 160185 | 168104
12 | 37:21.30 | 2:06.05 | 168105 | 177559
13 | 39:27.35 | 2:44.50 | 177560 | 189909
14 | 42:12.10 | 3:40.03 | 189910 | 206412
15 | 45:52.13 | 5:26.70 | 206413 | 230932
16 | 51:19.08 | 1:57.02 | 230933 | 239709
17 | 53:16.10 | 3:25.00 | 239710 | 255084
18 | 56:41.10 | 4:02.43 | 255085 | 273277
19 | 60:43.53 | 2:32.70 | 273278 | 284747
20 | 63:16.48 | 3:35.32 | 284748 | 300904
21 | 66:52.05 | 4:07.65 | 300905 | 319494
Трек 1
Имя файла G:\Torrent\++Inochka\+Itzhak Perlman\+The Perlman Edition\+CD 15 - The Kreisler Album\01 - Caprice Viennois Op. 2.wav
Пиковый уровень 59.4 %
Качество трека 100.0 %
CRC копии 67F748B5
Копирование… OK
Трек 2
Имя файла G:\Torrent\++Inochka\+Itzhak Perlman\+The Perlman Edition\+CD 15 - The Kreisler Album\02 - Songs My Mother Taught Me Op. 55 No. 4.wav
Пиковый уровень 58.2 %
Качество трека 100.0 %
CRC копии 783838C6
Копирование… OK
Трек 3
Имя файла G:\Torrent\++Inochka\+Itzhak Perlman\+The Perlman Edition\+CD 15 - The Kreisler Album\03 - Tempo Di Minuetto (In The Style Of Pugnani).wav
Пиковый уровень 94.0 %
Качество трека 100.0 %
CRC копии C14D0687
Копирование… OK
Трек 4
Имя файла G:\Torrent\++Inochka\+Itzhak Perlman\+The Perlman Edition\+CD 15 - The Kreisler Album\04 - Slavonic Dance No. 2 In E Minor.wav
Пиковый уровень 88.4 %
Качество трека 99.9 %
CRC копии 6BA82BA4
Копирование… OK
Трек 5
Имя файла G:\Torrent\++Inochka\+Itzhak Perlman\+The Perlman Edition\+CD 15 - The Kreisler Album\05 - Melodie.wav
Пиковый уровень 41.8 %
Качество трека 100.0 %
CRC копии 2221D21E
Копирование… OK
Трек 6
Имя файла G:\Torrent\++Inochka\+Itzhak Perlman\+The Perlman Edition\+CD 15 - The Kreisler Album\06 - Spanish Dance No. 5.wav
Пиковый уровень 93.8 %
Качество трека 100.0 %
CRC копии 51AB04D1
Копирование… OK
Трек 7
Имя файла G:\Torrent\++Inochka\+Itzhak Perlman\+The Perlman Edition\+CD 15 - The Kreisler Album\07 - Mazurka No. 45 In A Minor Op. 67 No. 4.wav
Пиковый уровень 54.3 %
Качество трека 100.0 %
CRC копии B8B3775A
Копирование… OK
Трек 8
Имя файла G:\Torrent\++Inochka\+Itzhak Perlman\+The Perlman Edition\+CD 15 - The Kreisler Album\08 - Siciliano & Rigaudon (In The Style Of Francoeur).wav
Пиковый уровень 67.1 %
Качество трека 100.0 %
CRC копии BF06301C
Копирование… OK
Трек 9
Имя файла G:\Torrent\++Inochka\+Itzhak Perlman\+The Perlman Edition\+CD 15 - The Kreisler Album\09 - Serenade Espagnole.wav
Пиковый уровень 74.8 %
Качество трека 100.0 %
CRC копии F8B7586F
Копирование… OK
Трек 10
Имя файла G:\Torrent\++Inochka\+Itzhak Perlman\+The Perlman Edition\+CD 15 - The Kreisler Album\10 - Serenade.wav
Пиковый уровень 89.7 %
Качество трека 99.9 %
CRC копии B5882D63
Копирование… OK
Трек 11
Имя файла G:\Torrent\++Inochka\+Itzhak Perlman\+The Perlman Edition\+CD 15 - The Kreisler Album\11 - Toy Soldiers' March.wav
Пиковый уровень 90.0 %
Качество трека 99.8 %
CRC копии 0528FB0C
Копирование… OK
Трек 12
Имя файла G:\Torrent\++Inochka\+Itzhak Perlman\+The Perlman Edition\+CD 15 - The Kreisler Album\12 - Syncopation.wav
Пиковый уровень 55.1 %
Качество трека 100.0 %
CRC копии 78B476DB
Копирование… OK
Трек 13
Имя файла G:\Torrent\++Inochka\+Itzhak Perlman\+The Perlman Edition\+CD 15 - The Kreisler Album\13 - Molly On The Shore.wav
Пиковый уровень 97.8 %
Качество трека 100.0 %
CRC копии D5C25DC3
Копирование… OK
Трек 14
Имя файла G:\Torrent\++Inochka\+Itzhak Perlman\+The Perlman Edition\+CD 15 - The Kreisler Album\14 - Andantino (In The Style Of Martini).wav
Пиковый уровень 68.5 %
Качество трека 100.0 %
CRC копии 10F57B01
Копирование… OK
Трек 15
Имя файла G:\Torrent\++Inochka\+Itzhak Perlman\+The Perlman Edition\+CD 15 - The Kreisler Album\15 - Slavonic Dance No. 3 In G.wav
Пиковый уровень 85.6 %
Качество трека 100.0 %
CRC копии 6BA0C5C4
Копирование… OK
Трек 16
Имя файла G:\Torrent\++Inochka\+Itzhak Perlman\+The Perlman Edition\+CD 15 - The Kreisler Album\16 - Schon Rosmarin.wav
Пиковый уровень 46.5 %
Качество трека 100.0 %
CRC копии 5E093907
Копирование… OK
Трек 17
Имя файла G:\Torrent\++Inochka\+Itzhak Perlman\+The Perlman Edition\+CD 15 - The Kreisler Album\17 - Liebeslied.wav
Пиковый уровень 59.9 %
Качество трека 100.0 %
CRC копии 4A5FE5F0
Копирование… OK
Трек 18
Имя файла G:\Torrent\++Inochka\+Itzhak Perlman\+The Perlman Edition\+CD 15 - The Kreisler Album\18 - Recitativo & Scherzo Capriccio Op. 6.wav
Пиковый уровень 78.6 %
Качество трека 100.0 %
CRC копии 5B3CF7E7
Копирование… OK
Трек 19
Имя файла G:\Torrent\++Inochka\+Itzhak Perlman\+The Perlman Edition\+CD 15 - The Kreisler Album\19 - Tango.wav
Пиковый уровень 68.6 %
Качество трека 100.0 %
CRC копии AFA839D0
Копирование… OK
Трек 20
Имя файла G:\Torrent\++Inochka\+Itzhak Perlman\+The Perlman Edition\+CD 15 - The Kreisler Album\20 - Tambourin Chinois Op. 3.wav
Пиковый уровень 82.9 %
Качество трека 100.0 %
CRC копии 981A37EC
Копирование… OK
Трек 21
Имя файла G:\Torrent\++Inochka\+Itzhak Perlman\+The Perlman Edition\+CD 15 - The Kreisler Album\21 - Romance In A Op. 94 No. 2.wav
Пиковый уровень 72.3 %
Качество трека 100.0 %
CRC копии 26411659
Копирование… OK
Ошибок не произошло
Конец отчёта


Thanks to original ripper.