Subcategories

Ivo Perelman: 6CD Collection (1992-2014)

Posted By: v3122
Ivo Perelman: 6CD Collection (1992-2014)

Ivo Perelman: 6CD Collection (1992-2014)
EAC | Flac(Image) + Cue + Log & MP3 CBR 320Kbps
6CD | Label: various | ~ 2360 or 960 Mb | Artwork -> 175 Mb
Free Jazz, Avant-Garde Jazz, Free Improvisation

Brazilian tenor saxophonist Ivo Perelman is a remarkably productive recording artist known for combining simple Brazilian folk themes with the techniques of free jazz and an improvisational aesthetic that have grown increasingly varied as well as prolific over time. Early trio recordings such as 1996's Slaves of Job and Revelation (the latter session an extension of the former) showcased compositions that opened doors onto exploratory flights of fancy. These flights provided foundations for the music that would ensue over the following decades, particularly his long, fruitful, and wildly varied recordings for Leo Records (2011's The Hour of the Star) and his many duo, trio, and quartet recordings with pianist Matthew Shipp (beginning with 2013's The Edge). Shipp and Perelman's collaborations resulted in dozens of albums, including 2015's Callas and 2017's multi-volume The Art of Perelman and Shipp series.
While Perelman plays well in the heavily distorted, abstract-expressionist vein first tapped in the '60s by Albert Ayler, he also fits nicely alongside his similarly inclined contemporaries like Elliott Levin and Ken Simon.

Born in Sao Paulo in 1961, Perelman played classical guitar, cello, clarinet, trombone, and piano while growing up. At the age of 19 he adopted the tenor saxophone as his primary instrument. After arriving in the U.S., he attended the Berklee School of Music in Boston for a semester before dropping out (he is purportedly a mostly self-taught player).

Perelman's travels took him to Los Angeles in 1986, where he studied privately and performed. His first album, 1989's Ivo, featured an all-star cast that included drummer Peter Erskine, bassist John Patitucci, percussionist Airto, and vocalist Flora Purim, among others. Also around this time, Perelman relocated to New York.

During the '90s, he founded his own Ibeji label, releasing albums like Soccer Land and Tapeba Songs. Ever explorative, in 1997 Perelman combined Jewish music and avant-garde jazz, making En Adir: Traditional Jewish Songs for the Music & Arts label. Quite prolific, Perelman recorded often with players of the avant-garde; he's made albums with bassist Dominic Duval, pianist Borah Bergman, drummers Rashied Ali and Jay Rosen, and pianists Marilyn Crispell and Matthew Shipp, to name just a few.

In the 2000s, Perelman continued his busy recording schedule, pairing most often with pianist Shipp, as well as adventurous collaborators like violinist Mat Maneri, guitarist Joe Morris, drummer Gerald Cleaver, and others. Many of these efforts were issued on Leo Records, including such albums as 2011's The Hour of the Star, 2012's Clairvoyant, 2014's Book of Sound, and 2016's Blue. Also in 2016, Perelman released six volumes of a series on Leo called The Art of the Improv Trio. A similar series detailing his partnership with Shipp, the seven-volume The Art of Perelman-Shipp, appeared in 2017. In 2018, Perelman released no less than five recordings for Leo including Strings 1, the duo offerings Kindred Spirits – with bass clarinetist Rudi Mahall – the triple-album Oneness with Shipp, and Spiritual Prayers with saxophonist Jason Stein. In 2019, in addition to continuing his collaboration with Shipp, the saxophonist, along with violist Matt Maneri, delivered three more volumes in the Strings series with alternating sidemen who included Nate Wooley, Ned Rothenberg, Jason Hwang, and Mark Feldman. 2019 also saw Perelman team up with drummer Bobby Kapp, bassist William Parker, and tenor saxophone player Matthew Shipp for the ESP-Disk-issued Ineffable Joy.

by Chris Kelsey, allmusic
Ivo Perelman: 6CD Collection (1992-2014)

Ivo Perelman: 6CD Collection (1992-2014):

Ivo Perelman: 6CD Collection (1992-2014)

Tracklist CD1 - 1992. Ivo Perelman - Children of Ibeji:
Enja, 7005-2

01.Mina Da Sante [14:40]
02.O Marro [09:32]
03.Chant for Lagum [09:23]
04.Oh! Que Noite Too Bonita [05:28]
05.Chant for Oshum [08:49]
06.Chant for Oshala [03:58]
07.Little Rocks of Arunada [08:37]
08.Tom's Diner [03:29]
09.Chant for Ibeji [03:35]
10.Cantor [04:15]

Personnel:

Ivo Perelman (ts)
Flora Purim (voc)
Don Pullen
Paul Bley (p)
Fred Hopkins (b)
Andrew Cyrille (dr)

Exact Audio Copy V1.0 beta 1 from 15. November 2010

EAC extraction logfile from 16. June 2012, 13:54

Ivo Perelman / Children of Ibeji

Used drive : Optiarc DVD RW AD-7710H Adapter: 1 ID: 0

Read mode : Secure
Utilize accurate stream : Yes
Defeat audio cache : Yes
Make use of C2 pointers : No

Read offset correction : 48
Overread into Lead-In and Lead-Out : No
Fill up missing offset samples with silence : Yes
Delete leading and trailing silent blocks : No
Null samples used in CRC calculations : Yes
Used interface : Native Win32 interface for Win NT & 2000
Gap handling : Appended to previous track

Used output format : User Defined Encoder
Selected bitrate : 896 kBit/s
Quality : High
Add ID3 tag : No
Command line compressor : C:\Program Files\Exact Audio Copy\FLAC\FLAC.EXE
Additional command line options : -8 -V -T "ARTIST=%a" -T "TITLE=%t" -T "ALBUM=%g" -T "DATE=%y" -T "TRACKNUMBER=%n" -T "GENRE=%m" -T "COMMENT=%e" %j–picture="%i"%j %s -o %d


TOC of the extracted CD

Track | Start | Length | Start sector | End sector
––––––––––––––––––––––––––––-
1 | 0:00.33 | 14:40.00 | 33 | 66032
2 | 14:40.33 | 9:32.00 | 66033 | 108932
3 | 24:12.33 | 9:23.00 | 108933 | 151157
4 | 33:35.33 | 5:28.00 | 151158 | 175757
5 | 39:03.33 | 8:49.00 | 175758 | 215432
6 | 47:52.33 | 3:58.00 | 215433 | 233282
7 | 51:50.33 | 8:37.00 | 233283 | 272057
8 | 60:27.33 | 3:29.00 | 272058 | 287732
9 | 63:56.33 | 3:35.00 | 287733 | 303857
10 | 67:31.33 | 4:15.25 | 303858 | 323007


Track 1

Filename C:\MY RIPS\01 - Mina Da Sante.wav

Pre-gap length 0:00:02.33

Peak level 82.9 %
Extraction speed 1.6 X
Track quality 100.0 %
Test CRC 5728CE01
Copy CRC 5728CE01
Accurately ripped (confidence 5) [7E8BF968]
Copy OK

Track 2

Filename C:\MY RIPS\02 - O Marro.wav

Pre-gap length 0:00:02.04

Peak level 80.1 %
Extraction speed 1.9 X
Track quality 100.0 %
Test CRC BD7F54C8
Copy CRC BD7F54C8
Accurately ripped (confidence 5) [3BDA098F]
Copy OK

Track 3

Filename C:\MY RIPS\03 - Chant for Lagum.wav

Pre-gap length 0:00:02.69

Peak level 60.1 %
Extraction speed 2.2 X
Track quality 100.0 %
Test CRC D5181CDE
Copy CRC D5181CDE
Accurately ripped (confidence 5) [E775487F]
Copy OK

Track 4

Filename C:\MY RIPS\04 - Oh! Que Noite Too Bonita.wav

Pre-gap length 0:00:02.66

Peak level 73.5 %
Extraction speed 2.2 X
Track quality 100.0 %
Test CRC 15FEEEFA
Copy CRC 15FEEEFA
Accurately ripped (confidence 5) [1F6A731C]
Copy OK

Track 5

Filename C:\MY RIPS\05 - Chant for Oshum.wav

Pre-gap length 0:00:03.46

Peak level 100.0 %
Extraction speed 2.3 X
Track quality 99.9 %
Test CRC 80D4D9B3
Copy CRC 80D4D9B3
Accurately ripped (confidence 5) [CAF73D99]
Copy OK

Track 6

Filename C:\MY RIPS\06 - Chant for Oshala.wav

Pre-gap length 0:00:02.71

Peak level 68.1 %
Extraction speed 2.4 X
Track quality 100.0 %
Test CRC FB36ED25
Copy CRC FB36ED25
Accurately ripped (confidence 5) [FAE57508]
Copy OK

Track 7

Filename C:\MY RIPS\07 - Little Rocks of Arunada.wav

Pre-gap length 0:00:02.46

Peak level 98.0 %
Extraction speed 2.5 X
Track quality 99.9 %
Test CRC 9B7FE20B
Copy CRC 9B7FE20B
Accurately ripped (confidence 5) [F59DAD2F]
Copy OK

Track 8

Filename C:\MY RIPS\08 - Tom's Diner.wav

Pre-gap length 0:00:02.61

Peak level 43.5 %
Extraction speed 2.6 X
Track quality 100.0 %
Test CRC AAE03510
Copy CRC AAE03510
Accurately ripped (confidence 5) [25C54B4A]
Copy OK

Track 9

Filename C:\MY RIPS\09 - Chant for Ibeji.wav

Pre-gap length 0:00:03.06

Peak level 83.4 %
Extraction speed 2.6 X
Track quality 100.0 %
Test CRC BA9A77A9
Copy CRC BA9A77A9
Accurately ripped (confidence 5) [EB3ED49F]
Copy OK

Track 10

Filename C:\MY RIPS\10 - Cantor.wav

Pre-gap length 0:00:02.11

Peak level 57.8 %
Extraction speed 2.8 X
Track quality 100.0 %
Test CRC C80DD513
Copy CRC C80DD513
Accurately ripped (confidence 5) [B67D5E41]
Copy OK


All tracks accurately ripped

No errors occurred

End of status report

==== Log checksum 6AA01FADC42F56C84D05D18F3541C66CBEA47525C98BDDC63AF5F30ED943A0FB ====


[CUETools log; Date: 11.02.2020 7:56:35; Version: 2.1.4]
Pregap length 00:00:33.
[AccurateRip ID: 00209cc8-00f7955c-8c10d20a] found.
Track [ CRC | V2 ] Status
01 [7e8bf968|9fe36c46] (5+2/7) Accurately ripped
02 [3bda098f|fa3139cc] (5+2/7) Accurately ripped
03 [e775487f|260784a2] (5+2/7) Accurately ripped
04 [1f6a731c|ca503307] (5+2/7) Accurately ripped
05 [caf73d99|f038656a] (5+2/7) Accurately ripped
06 [fae57508|69b2f3fb] (5+2/7) Accurately ripped
07 [f59dad2f|3f1489c7] (5+2/7) Accurately ripped
08 [25c54b4a|ae02a5a9] (5+2/7) Accurately ripped
09 [eb3ed49f|8df716e0] (5+2/7) Accurately ripped
10 [b67d5e41|f6777b5c] (5+2/7) Accurately ripped

Track Peak [ CRC32 ] [W/O NULL] [ LOG ]
– 100,0 [687F08EC] [8267AC17]
01 82,9 [5728CE01] [31BEBA61] CRC32
02 80,1 [BD7F54C8] [F1A69AF4] CRC32
03 60,1 [D5181CDE] [8174CB1E] CRC32
04 73,5 [15FEEEFA] [D7D302A4] CRC32
05 100,0 [80D4D9B3] [91BF83AF] CRC32
06 68,1 [FB36ED25] [DA137811] CRC32
07 98,0 [9B7FE20B] [CE775B08] CRC32
08 43,5 [AAE03510] [A5C7B59A] CRC32
09 83,4 [BA9A77A9] [4B6E0999] CRC32
10 57,8 [C80DD513] [98279E8D] CRC32


Ivo Perelman: 6CD Collection (1992-2014)

Tracklist CD2 - 1996. Ivo Perelman Trio with Rory Stuart - Revelation:
CIMP, CIMP #134

01. Waiting for Plugs (10:00)
02. Drips (7:36)
03. October Rains (6:22)
04. Auld Lang Syne (7:01)
05. Auld Lang Syne Blues (5:48)
06. Pellican Rose (4:42)
07. Summer Ballad (6:37)
08. Bobaba Dubaa (5:23)
09. In A Sentimental Mood (12:39)
10. Ivocation (3:35)

Ivo Perelman - tenor saxophone
Rory Stuart - guitar
Dominic Duval - bass
Jay Rosen - drums, percussion

Exact Audio Copy V1.0 beta 2 from 29. April 2011

EAC extraction logfile from 17. February 2013, 0:48

Ivo Perelman Trio with Rory Stuart / Revelation

Used drive : Optiarc DVD RW AD-5280S Adapter: 1 ID: 1

Read mode : Secure
Utilize accurate stream : Yes
Defeat audio cache : Yes
Make use of C2 pointers : No

Read offset correction : 48
Overread into Lead-In and Lead-Out : No
Fill up missing offset samples with silence : Yes
Delete leading and trailing silent blocks : No
Null samples used in CRC calculations : Yes
Used interface : Native Win32 interface for Win NT & 2000
Gap handling : Appended to previous track

Used output format : User Defined Encoder
Selected bitrate : 128 kBit/s
Quality : High
Add ID3 tag : No
Command line compressor : C:\Program Files\FLAC\flac.exe
Additional command line options : -V -8 -T "Genre=%genre%" -T "Artist=%artist%" -T "Title=%title%" -T "Album=%albumtitle%" -T "Date=%year%" -T "Tracknumber=%tracknr%" -T "Comment=%comment%" %source%


TOC of the extracted CD

Track | Start | Length | Start sector | End sector
––––––––––––––––––––––––––––-
1 | 0:00.00 | 9:55.59 | 0 | 44683
2 | 9:55.59 | 7:35.59 | 44684 | 78867
3 | 17:31.43 | 6:21.25 | 78868 | 107467
4 | 23:52.68 | 7:01.20 | 107468 | 139062
5 | 30:54.13 | 5:47.62 | 139063 | 165149
6 | 36:42.00 | 4:41.65 | 165150 | 186289
7 | 41:23.65 | 6:36.48 | 186290 | 216037
8 | 48:00.38 | 5:22.61 | 216038 | 240248
9 | 53:23.24 | 12:38.61 | 240249 | 297159
10 | 66:02.10 | 3:35.02 | 297160 | 313286


Track 1

Filename C:\Ivo Perelman Trio with Rory Stuart (1996) - Revelation\01 - Waiting For Plugs.wav

Pre-gap length 0:00:02.00

Peak level 54.5 %
Extraction speed 3.1 X
Track quality 100.0 %
Test CRC F46E5C20
Copy CRC F46E5C20
Track not present in AccurateRip database
Copy OK

Track 2

Filename C:\Ivo Perelman Trio with Rory Stuart (1996) - Revelation\02 - Drips.wav

Pre-gap length 0:00:03.15

Peak level 46.1 %
Extraction speed 3.5 X
Track quality 100.0 %
Test CRC 4A2731FE
Copy CRC 4A2731FE
Track not present in AccurateRip database
Copy OK

Track 3

Filename C:\Ivo Perelman Trio with Rory Stuart (1996) - Revelation\03 - October Rains.wav

Pre-gap length 0:00:03.15

Peak level 61.5 %
Extraction speed 3.9 X
Track quality 100.0 %
Test CRC DA7C952B
Copy CRC DA7C952B
Track not present in AccurateRip database
Copy OK

Track 4

Filename C:\Ivo Perelman Trio with Rory Stuart (1996) - Revelation\04 - Auld Lang Syne.wav

Pre-gap length 0:00:03.15

Peak level 75.4 %
Extraction speed 3.9 X
Track quality 99.9 %
Test CRC 085324D5
Copy CRC 085324D5
Track not present in AccurateRip database
Copy OK

Track 5

Filename C:\Ivo Perelman Trio with Rory Stuart (1996) - Revelation\05 - Auld Lang Syne Blues.wav

Pre-gap length 0:00:03.15

Peak level 100.0 %
Extraction speed 4.4 X
Track quality 100.0 %
Test CRC 0BCBEC99
Copy CRC 0BCBEC99
Track not present in AccurateRip database
Copy OK

Track 6

Filename C:\Ivo Perelman Trio with Rory Stuart (1996) - Revelation\06 - Pelican Pose.wav

Pre-gap length 0:00:03.15

Peak level 26.6 %
Extraction speed 4.1 X
Track quality 99.9 %
Test CRC 6DACE473
Copy CRC 6DACE473
Track not present in AccurateRip database
Copy OK

Track 7

Filename C:\Ivo Perelman Trio with Rory Stuart (1996) - Revelation\07 - Summer Ballad.wav

Pre-gap length 0:00:03.15

Peak level 36.0 %
Extraction speed 4.9 X
Track quality 100.0 %
Test CRC 1683FD12
Copy CRC 1683FD12
Track not present in AccurateRip database
Copy OK

Track 8

Filename C:\Ivo Perelman Trio with Rory Stuart (1996) - Revelation\08 - Bobaba Dubaa.wav

Pre-gap length 0:00:03.15

Peak level 62.4 %
Extraction speed 5.1 X
Track quality 100.0 %
Test CRC 4C960B94
Copy CRC 4C960B94
Track not present in AccurateRip database
Copy OK

Track 9

Filename C:\Ivo Perelman Trio with Rory Stuart (1996) - Revelation\09 - In A Sentimental Mood.wav

Pre-gap length 0:00:03.15

Peak level 55.7 %
Extraction speed 5.7 X
Track quality 100.0 %
Test CRC E43FF870
Copy CRC E43FF870
Track not present in AccurateRip database
Copy OK

Track 10

Filename C:\Ivo Perelman Trio with Rory Stuart (1996) - Revelation\10 - Ivocation.wav

Pre-gap length 0:00:03.15

Peak level 100.0 %
Extraction speed 5.3 X
Track quality 100.0 %
Test CRC 26274DE1
Copy CRC 26274DE1
Track not present in AccurateRip database
Copy OK


None of the tracks are present in the AccurateRip database

No errors occurred

End of status report

==== Log checksum 994E309E85DA2A12FFF6EE458B996640465E69A761B07B1DAAC0B6BFE85278C1 ====


[CUETools log; Date: 11.02.2020 8:26:45; Version: 2.1.4]
[AccurateRip ID: 001b4961-00d673f8-8f10510a] disk not present in database.

Track Peak [ CRC32 ] [W/O NULL] [ LOG ]
– 100,0 [AFEF9A65] [440A9D7E]
01 54,5 [F46E5C20] [266090D0] CRC32
02 46,1 [4A2731FE] [45892A77] CRC32
03 61,5 [DA7C952B] [975B2529] CRC32
04 75,4 [085324D5] [61C2EC10] CRC32
05 100,0 [0BCBEC99] [210176A3] CRC32
06 26,6 [6DACE473] [FF552D79] CRC32
07 36,0 [1683FD12] [2A293B40] CRC32
08 62,4 [4C960B94] [DAE1A5EB] CRC32
09 55,7 [E43FF870] [0D7057F1] CRC32
10 100,0 [26274DE1] [7C74A6B8] CRC32


Ivo Perelman: 6CD Collection (1992-2014)

Tracklist CD3 - 2000. Ivo Perelman - The Eye Listens:
Boxholder Records, BXH012

1 - A Night At The Opera (18:51)
2 - The Eye Listens (12:14)
3 - The Solution (15:17)
4 - Give Them The Spiritual (15:00)
5 - Dance Of The Infidels (10:14)

Ivo Perelman - tenor sax, vocals
Wilber Morris - bass, vocals
Michael Wimberley - drums

Exact Audio Copy V1.0 beta 2 from 29. April 2011

EAC extraction logfile from 8. September 2011, 12:57

Ivo Perelman / The Eye Listens

Used drive : Optiarc DVD RW AD-7240S Adapter: 2 ID: 0

Read mode : Secure
Utilize accurate stream : Yes
Defeat audio cache : Yes
Make use of C2 pointers : No

Read offset correction : 48
Overread into Lead-In and Lead-Out : No
Fill up missing offset samples with silence : Yes
Delete leading and trailing silent blocks : No
Null samples used in CRC calculations : Yes
Used interface : Native Win32 interface for Win NT & 2000
Gap handling : Appended to previous track

Used output format : User Defined Encoder
Selected bitrate : 768 kBit/s
Quality : High
Add ID3 tag : No
Command line compressor : C:\Program Files\Exact Audio Copy\FLAC\FLAC.EXE
Additional command line options : -6 -V -T "ARTIST=%artist%" -T "TITLE=%title%" -T "ALBUM=%albumtitle%" -T "DATE=%year%" -T "TRACKNUMBER=%tracknr%" -T "GENRE=%genre%" -T "COMMENT=%comment%" -T "BAND=%albuminterpret%" -T "COMPOSER=%composer%" %haslyrics%–ta


TOC of the extracted CD

Track | Start | Length | Start sector | End sector
––––––––––––––––––––––––––––-
1 | 0:00.00 | 18:53.73 | 0 | 85047
2 | 18:53.73 | 12:16.65 | 85048 | 140312
3 | 31:10.63 | 15:20.18 | 140313 | 209330
4 | 46:31.06 | 15:03.21 | 209331 | 277076
5 | 61:34.27 | 10:14.20 | 277077 | 323146


Track 1

Filename C:\Ivo Perelman - The Eye Listens (2000)\01 A Night at the Opera.wav

Pre-gap length 0:00:02.00

Peak level 99.7 %
Extraction speed 3.2 X
Track quality 100.0 %
Test CRC 1B1DA7BB
Copy CRC 1B1DA7BB
Accurately ripped (confidence 2) [D6C2B49E] (AR v1)
Copy OK

Track 2

Filename C:\Ivo Perelman - The Eye Listens (2000)\02 The Eye Listens.wav

Pre-gap length 0:00:02.44

Peak level 96.0 %
Extraction speed 4.0 X
Track quality 100.0 %
Test CRC C9506423
Copy CRC C9506423
Accurately ripped (confidence 2) [A75ECABC] (AR v1)
Copy OK

Track 3

Filename C:\Ivo Perelman - The Eye Listens (2000)\03 The Solution.wav

Pre-gap length 0:00:02.45

Peak level 98.5 %
Extraction speed 4.6 X
Track quality 100.0 %
Test CRC EDF26BBB
Copy CRC EDF26BBB
Accurately ripped (confidence 2) [3B43FEF9] (AR v1)
Copy OK

Track 4

Filename C:\Ivo Perelman - The Eye Listens (2000)\04 Give them the Spiritual.wav

Pre-gap length 0:00:02.45

Peak level 99.3 %
Extraction speed 5.2 X
Track quality 100.0 %
Test CRC C67E81FC
Copy CRC C67E81FC
Accurately ripped (confidence 2) [E6F0D303] (AR v1)
Copy OK

Track 5

Filename C:\Ivo Perelman - The Eye Listens (2000)\05 Dance of the Infidels.wav

Pre-gap length 0:00:02.45

Peak level 98.2 %
Extraction speed 5.5 X
Track quality 100.0 %
Test CRC 4750832D
Copy CRC 4750832D
Accurately ripped (confidence 2) [496C386F] (AR v1)
Copy OK


All tracks accurately ripped

No errors occurred

End of status report

==== Log checksum A90D4C2B7C5A346C2C6365979BE8E75A657FD768FD6E8B646FEE4A87B5A9AC4F ====


[CUETools log; Date: 11.02.2020 8:14:42; Version: 2.1.4]
[AccurateRip ID: 000fcaa4-004884f3-4b10d405] found.
Track [ CRC | V2 ] Status
01 [d6c2b49e|de7770d6] (2+3/5) Accurately ripped
02 [a75ecabc|74f19088] (2+3/5) Accurately ripped
03 [3b43fef9|143d66a5] (2+3/5) Accurately ripped
04 [e6f0d303|a90b1170] (2+3/5) Accurately ripped
05 [496c386f|54514366] (2+3/5) Accurately ripped

Track Peak [ CRC32 ] [W/O NULL] [ LOG ]
– 99,7 [1794169F] [08C1B207]
01 99,7 [1B1DA7BB] [28B4CE9F] CRC32
02 96,0 [C9506423] [201053B3] CRC32
03 98,5 [EDF26BBB] [721DDBE3] CRC32
04 99,3 [C67E81FC] [6AF63962] CRC32
05 98,2 [4750832D] [C175A1BE] CRC32


Ivo Perelman: 6CD Collection (1992-2014)

Tracklist CD4 - 2009. Ivo Perelman Trio - Mind Games:
Leo Records, CD LR 547

1. Mind Games
2. Primal Defense
3. Musical Line
4. Grateful For Life
5. G.S. Farewell

Ivo Perelman: tenor saxophone
Dominic Duval: bass
Brian Willson: drums

Exact Audio Copy V0.99 prebeta 4 from 23. January 2008

EAC extraction logfile from 19. December 2009, 18:23

Ivo Perelman Trio / Mind Games

Used drive : HL-DT-STBDDVDRW GGC-H20L Adapter: 1 ID: 0

Read mode : Secure
Utilize accurate stream : Yes
Defeat audio cache : Yes
Make use of C2 pointers : No

Read offset correction : 667
Overread into Lead-In and Lead-Out : No
Fill up missing offset samples with silence : Yes
Delete leading and trailing silent blocks : No
Null samples used in CRC calculations : Yes
Used interface : Native Win32 interface for Win NT & 2000
Gap handling : Appended to previous track

Used output format : User Defined Encoder
Selected bitrate : 768 kBit/s
Quality : High
Add ID3 tag : No
Command line compressor : D:\Audio\FLAC\flac.exe
Additional command line options : -6 -V -T "ARTIST=%a" -T "TITLE=%t" -T "ALBUM=%g" -T "DATE=%y" -T "TRACKNUMBER=%n" -T "GENRE=%m" -T "COMMENT=%e" %s -o %d


TOC of the extracted CD

Track | Start | Length | Start sector | End sector
––––––––––––––––––––––––––––-
1 | 0:00.00 | 8:43.00 | 0 | 39224
2 | 8:43.00 | 15:15.14 | 39225 | 107863
3 | 23:58.14 | 7:36.48 | 107864 | 142111
4 | 31:34.62 | 3:24.37 | 142112 | 157448
5 | 34:59.24 | 26:28.25 | 157449 | 276573


Track 1

Filename E:\New Rip\Ivo Perelman Trio - Mind Games\01 - Mind Games.wav

Pre-gap length 0:00:02.00

Peak level 100.0 %
Track quality 99.9 %
Test CRC 0F236D05
Copy CRC 0F236D05
Track not present in AccurateRip database
Copy OK

Track 2

Filename E:\New Rip\Ivo Perelman Trio - Mind Games\02 - Primal Defense.wav

Pre-gap length 0:00:03.00

Peak level 100.0 %
Track quality 100.0 %
Test CRC 0D6919C7
Copy CRC 0D6919C7
Track not present in AccurateRip database
Copy OK

Track 3

Filename E:\New Rip\Ivo Perelman Trio - Mind Games\03 - Musical Line.wav

Pre-gap length 0:00:03.00

Peak level 100.0 %
Track quality 100.0 %
Test CRC 2B800C7A
Copy CRC 2B800C7A
Track not present in AccurateRip database
Copy OK

Track 4

Filename E:\New Rip\Ivo Perelman Trio - Mind Games\04 - Grateful for Life.wav

Pre-gap length 0:00:03.00

Peak level 100.0 %
Track quality 100.0 %
Test CRC 234623FE
Copy CRC 234623FE
Track not present in AccurateRip database
Copy OK

Track 5

Filename E:\New Rip\Ivo Perelman Trio - Mind Games\05 - G.S. Farewell.wav

Pre-gap length 0:00:03.00

Peak level 100.0 %
Track quality 100.0 %
Test CRC 16BEB6DB
Copy CRC 16BEB6DB
Track not present in AccurateRip database
Copy OK


None of the tracks are present in the AccurateRip database

No errors occurred

End of status report


[CUETools log; Date: 11.02.2020 8:23:07; Version: 2.1.4]
[AccurateRip ID: 000b0918-0034245c-330e6705] found.
Track [ CRC | V2 ] Status
01 [d75e6a9e|ae8bf5d0] (1+1/2) Accurately ripped
02 [a6ed24b1|8e97aaee] (2+0/2) Accurately ripped
03 [3f7200a4|6ec37de4] (1+1/3) Accurately ripped
04 [0905074b|0f4edf34] (1+1/2) Accurately ripped
05 [8421fb3f|de809dde] (1+1/2) Accurately ripped

Track Peak [ CRC32 ] [W/O NULL] [ LOG ]
– 100,0 [BBDEAC1F] [E54B1440]
01 100,0 [0F236D05] [F930D810] CRC32
02 100,0 [0D6919C7] [65B058DE] CRC32
03 100,0 [2B800C7A] [DCC8A858] CRC32
04 100,0 [234623FE] [68A6EB0B] CRC32
05 100,0 [16BEB6DB] [07C0ABE5] CRC32


Ivo Perelman: 6CD Collection (1992-2014)

Tracklist CD5 - 2010. Ivo Perelman, Gerry Hemingway - The Apple In The Dark:
Leo, CD LR 569

01. The Apple In The Dark (3:57)
02. Lispector (3:37)
03. A Maca No Escuro (4:10)
04. Sinful (9:22)
05. Vicious Circle (4:30)
06. The Path (11:58)
07. Green Settings (6:32)
08. Wrestling (4:00)
09. Indulgences (7:22)
10. Lisboa (7:40)

Gerry Hemingway - drums
Ivo Perelman - tenor saxophone, piano

Exact Audio Copy V1.0 beta 2 from 29. April 2011

EAC extraction logfile from 17. March 2015, 23:18

Ivo Perelman, Gerry Hemingway / The Apple In The Dark

Used drive : Optiarc DVD RW AD-5280S Adapter: 1 ID: 1

Read mode : Secure
Utilize accurate stream : Yes
Defeat audio cache : Yes
Make use of C2 pointers : No

Read offset correction : 48
Overread into Lead-In and Lead-Out : No
Fill up missing offset samples with silence : Yes
Delete leading and trailing silent blocks : No
Null samples used in CRC calculations : Yes
Used interface : Installed external ASPI interface

Used output format : User Defined Encoder
Selected bitrate : 128 kBit/s
Quality : High
Add ID3 tag : No
Command line compressor : C:\Program Files\FLAC\flac.exe
Additional command line options : -V -8 -T "Genre=%genre%" -T "Artist=%artist%" -T "Title=%title%" -T "Album=%albumtitle%" -T "Date=%year%" -T "Tracknumber=%tracknr%" -T "Comment=%comment%" %source%


TOC of the extracted CD

Track | Start | Length | Start sector | End sector
––––––––––––––––––––––––––––-
1 | 0:00.00 | 3:59.68 | 0 | 17992
2 | 3:59.68 | 3:40.10 | 17993 | 34502
3 | 7:40.03 | 4:13.45 | 34503 | 53522
4 | 11:53.48 | 9:24.70 | 53523 | 95892
5 | 21:18.43 | 4:33.12 | 95893 | 116379
6 | 25:51.55 | 12:00.47 | 116380 | 170426
7 | 37:52.27 | 6:34.69 | 170427 | 200045
8 | 44:27.21 | 4:03.40 | 200046 | 218310
9 | 48:30.61 | 7:24.51 | 218311 | 251661
10 | 55:55.37 | 7:41.60 | 251662 | 286296


Range status and errors

Selected range

Filename C:\Ivo Perelman, Gerry Hemingway - The Apple In The Dark\Ivo Perelman, Gerry Hemingway - The Apple In The Dark.wav

Peak level 100.0 %
Extraction speed 7.7 X
Range quality 100.0 %
Test CRC DFECE977
Copy CRC DFECE977
Copy OK

No errors occurred


AccurateRip summary

Track 1 accurately ripped (confidence 1) [920E100D] (AR v2)
Track 2 accurately ripped (confidence 1) [6009924F] (AR v2)
Track 3 accurately ripped (confidence 1) [8280797F] (AR v2)
Track 4 accurately ripped (confidence 1) [2D00AE89] (AR v2)
Track 5 accurately ripped (confidence 1) [89597F22] (AR v2)
Track 6 accurately ripped (confidence 1) [FAE76146] (AR v2)
Track 7 accurately ripped (confidence 1) [FB343CD5] (AR v2)
Track 8 accurately ripped (confidence 1) [E685455E] (AR v2)
Track 9 accurately ripped (confidence 1) [96F1679F] (AR v2)
Track 10 accurately ripped (confidence 1) [55A41C2D] (AR v2)

All tracks accurately ripped

End of status report

==== Log checksum 07F448728E8D4E164FD670D511ACF100C62FA853B3F23FD9068B969085C64326 ====


[CUETools log; Date: 11.02.2020 8:36:51; Version: 2.1.4]
[AccurateRip ID: 00160cab-00b66cb0-810ee90a] found.
Track [ CRC | V2 ] Status
01 [2ba4750e|920e100d] (0+3/3) Accurately ripped
02 [a779429f|6009924f] (0+2/2) Accurately ripped
03 [f8c75038|8280797f] (0+3/3) Accurately ripped
04 [76c83fea|2d00ae89] (0+3/3) Accurately ripped
05 [8a6dd44d|89597f22] (0+3/3) Accurately ripped
06 [26c097f5|fae76146] (0+3/3) Accurately ripped
07 [a0349076|fb343cd5] (0+3/3) Accurately ripped
08 [235d8fdc|e685455e] (0+3/3) Accurately ripped
09 [5b4d0452|96f1679f] (0+3/3) Accurately ripped
10 [5af0908b|55a41c2d] (0+3/3) Accurately ripped

Track Peak [ CRC32 ] [W/O NULL] [ LOG ]
– 100,0 [DFECE977] [D4984473] CRC32
01 100,0 [702A145B] [4EF074CA]
02 99,7 [A3800A57] [B6B5A771]
03 97,7 [924BE198] [78329AB7]
04 100,0 [F4ABE574] [663C36C5]
05 100,0 [6DF703EC] [CE84BF50]
06 100,0 [5656A85C] [91D94D49]
07 100,0 [49F1FE92] [F7818460]
08 100,0 [92EFC6DD] [ABFBD145]
09 100,0 [19DF5B31] [FECD80E6]
10 99,9 [69BD5095] [2D99B43A]


Ivo Perelman: 6CD Collection (1992-2014)

Tracklist CD6 - 2014. Ivo Perelman - The Other Edge:
Leo Records, LR 699

1. Desert Flower
2. Panem Et Circenses Part 1
3. Crystal Clear
4. Panem Et Circenses Part 2
5. Latin Vibes
6. Petals or Thorns?
7. Big Band Swing
8. The Other Edge

Exact Audio Copy V1.0 beta 3 from 29. August 2011

EAC extraction logfile from 6. December 2014, 10:44

Ivo Perelman / The Other Edge

Used drive : ATAPI iHBS112 2 Adapter: 2 ID: 0

Read mode : Secure
Utilize accurate stream : Yes
Defeat audio cache : Yes
Make use of C2 pointers : No

Read offset correction : 6
Overread into Lead-In and Lead-Out : No
Fill up missing offset samples with silence : Yes
Delete leading and trailing silent blocks : No
Null samples used in CRC calculations : Yes
Used interface : Native Win32 interface for Win NT & 2000
Gap handling : Appended to previous track

Used output format : User Defined Encoder
Selected bitrate : 1024 kBit/s
Quality : High
Add ID3 tag : No
Command line compressor : C:\Program Files\FLAC Frontend\tools\flac.exe
Additional command line options : -8 -V -T "ARTIST=%artist%" -T "TITLE=%title%" -T "ALBUM=%albumtitle%" -T "DATE=%year%" -T "TRACKNUMBER=%tracknr%" -T "TOTALTRACKS=%numtracks%" -T "GENRE=%genre%" -T "ALBUMARTIST=%albumartist%" -T "ALBUM ARTIST=%albumartist%" -T "COMPOSER=%composer%" -T "PERFORMER=%albuminterpret%" -T "DISCNUMBER=%cdnumber%" -T "TOTALDISCS=%totalcds%" -T "COMMENT=EAC Secure Mode, Test & Copy, AccurateRip, FLAC -8" %source%


TOC of the extracted CD

Track | Start | Length | Start sector | End sector
––––––––––––––––––––––––––––-
1 | 0:00.00 | 10:57.67 | 0 | 49341
2 | 10:57.67 | 9:29.04 | 49342 | 92020
3 | 20:26.71 | 4:15.40 | 92021 | 111185
4 | 24:42.36 | 10:51.67 | 111186 | 160077
5 | 35:34.28 | 5:48.53 | 160078 | 186230
6 | 41:23.06 | 6:37.52 | 186231 | 216057
7 | 48:00.58 | 6:55.63 | 216058 | 247245
8 | 54:56.46 | 10:22.67 | 247246 | 293962


Track 1

Filename P:\DL\Ivo Perelman - The Other Edge (2014) [FLAC]\01 - Desert Flower.wav

Pre-gap length 0:00:02.00

Peak level 100.0 %
Extraction speed 6.0 X
Track quality 100.0 %
Test CRC 95D87D53
Copy CRC 95D87D53
Track not present in AccurateRip database
Copy OK

Track 2

Filename P:\DL\Ivo Perelman - The Other Edge (2014) [FLAC]\02 - Panem Et Circenses Part 1.wav

Pre-gap length 0:00:02.00

Peak level 100.0 %
Extraction speed 6.6 X
Track quality 99.9 %
Test CRC C8ADC655
Copy CRC C8ADC655
Track not present in AccurateRip database
Copy OK

Track 3

Filename P:\DL\Ivo Perelman - The Other Edge (2014) [FLAC]\03 - Crystal Clear.wav

Pre-gap length 0:00:02.00

Peak level 100.0 %
Extraction speed 7.3 X
Track quality 100.0 %
Test CRC F2EF7476
Copy CRC F2EF7476
Track not present in AccurateRip database
Copy OK

Track 4

Filename P:\DL\Ivo Perelman - The Other Edge (2014) [FLAC]\04 - Panem Et Circenses Part 2.wav

Pre-gap length 0:00:02.00

Peak level 100.0 %
Extraction speed 8.5 X
Track quality 100.0 %
Test CRC 2BBD922A
Copy CRC 2BBD922A
Track not present in AccurateRip database
Copy OK

Track 5

Filename P:\DL\Ivo Perelman - The Other Edge (2014) [FLAC]\05 - Latin Vibes.wav

Pre-gap length 0:00:03.00

Peak level 100.0 %
Extraction speed 8.8 X
Track quality 100.0 %
Test CRC 078EA7D2
Copy CRC 078EA7D2
Track not present in AccurateRip database
Copy OK

Track 6

Filename P:\DL\Ivo Perelman - The Other Edge (2014) [FLAC]\06 - Petals or Thorns.wav

Pre-gap length 0:00:02.00

Peak level 100.0 %
Extraction speed 9.6 X
Track quality 100.0 %
Test CRC 1A7AB324
Copy CRC 1A7AB324
Track not present in AccurateRip database
Copy OK

Track 7

Filename P:\DL\Ivo Perelman - The Other Edge (2014) [FLAC]\07 - Big Band Swing.wav

Pre-gap length 0:00:02.00

Peak level 100.0 %
Extraction speed 10.2 X
Track quality 100.0 %
Test CRC B69DA96E
Copy CRC B69DA96E
Track not present in AccurateRip database
Copy OK

Track 8

Filename P:\DL\Ivo Perelman - The Other Edge (2014) [FLAC]\08 - The Other Edge.wav

Pre-gap length 0:00:02.00

Peak level 100.0 %
Extraction speed 11.1 X
Track quality 100.0 %
Test CRC 15BB26FB
Copy CRC 15BB26FB
Track not present in AccurateRip database
Copy OK


None of the tracks are present in the AccurateRip database

No errors occurred

End of status report

–– CUETools DB Plugin V2.1.3

[CTDB TOCID: 2jPF6yLGvwSfx5EOowUEJ44hgnc-] found, Submit result: 2jPF6yLGvwSfx5EOowUEJ44hgnc- has been confirmed
[84b33ffc] (1/1) Accurately ripped


==== Log checksum 31488A92B9F2E0FA9B0D67730043D2C5B7BF859EB80983B0E43E4D43C94C3485 ====


[CUETools log; Date: 11.02.2020 8:19:12; Version: 2.1.4]
[AccurateRip ID: 0014b15d-0087655d-7d0f4f08] found.
Track [ CRC | V2 ] Status
01 [7c096d69|14a0c46a] (0+2/2) Accurately ripped
02 [1f629e11|fd99ca72] (0+2/2) Accurately ripped
03 [e300f128|886bd352] (0+2/2) Accurately ripped
04 [7ccde803|c0f77e0d] (0+2/2) Accurately ripped
05 [d2ad08fc|10498b97] (0+2/2) Accurately ripped
06 [1a3cba98|b9ae8673] (0+2/2) Accurately ripped
07 [4b32b6e0|a03a3b56] (0+2/2) Accurately ripped
08 [0604fbdc|38210c73] (0+2/2) Accurately ripped

Track Peak [ CRC32 ] [W/O NULL] [ LOG ]
– 100,0 [048946B0] [3E282F32]
01 100,0 [95D87D53] [05CA7258] CRC32
02 100,0 [C8ADC655] [618B6657] CRC32
03 100,0 [F2EF7476] [EF637A16] CRC32
04 100,0 [2BBD922A] [7AA04638] CRC32
05 100,0 [078EA7D2] [3B492DFD] CRC32
06 100,0 [1A7AB324] [CB75C8D7] CRC32
07 100,0 [B69DA96E] [C7D74F5F] CRC32
08 100,0 [15BB26FB] [3D2D4334] CRC32



All thanks go to the original releasers

Ivo Perelman in my Blog

Download Ivo Perelman: 6CD Collection (1992-2014):