Subcategories

Jerseyband - Lung Punch Fantasy (2006)

Posted By: TestTickles
Jerseyband - Lung Punch Fantasy (2006)

Jerseyband - Lung Punch Fantasy (2006)
EAC Rip | FLAC with CUE and log | scans | 293 mb
MP3 CBR 320kbps | RAR | 112 mb
Genre: jazz

Lung Punch Fantasy is the 2006 live album by Jerseyband. It is a live album because it says so on the cover, the inside says it was recorded at SUNY Purchase. This was released by Jerseyband themselves, no one else.

Jerseyband - Lung Punch Fantasy (2006)

1. Sheffield's Law
2. Titan
3. Feminem
4. Sangwich
5. Mischief
6. Lord Magnificent
7. Steve Jobs For Jerseyband
8. French Parade
9. Shave Your Shelf

Ryan Ferreira-guitar
Matt Blanchard-tenor saxophone (first chair), voice
Ed Rosenberg-tenor saxophone (second chair), voice
Brett Madsen-trumpet, voice
Alex Hamlin-baritone saxophone, Smoker's voice
Grey McMurray-bass
Ted Poor-drums

Produced by Jerseyband
Recorded & mixed By Frank Wartinger
Mastered by Nathan James

Exact Audio Copy V1.0 beta 6 from 9. April 2015

EAC extraction logfile from 11. January 2018, 10:05

Jerseyband / Lung Punch Fantasy

Used drive : TSSTcorpDVD+-RW TS-L633C Adapter: 1 ID: 0

Read mode : Secure
Utilize accurate stream : Yes
Defeat audio cache : Yes
Make use of C2 pointers : No

Read offset correction : 6
Overread into Lead-In and Lead-Out : No
Fill up missing offset samples with silence : Yes
Delete leading and trailing silent blocks : No
Null samples used in CRC calculations : Yes
Used interface : Native Win32 interface for Win NT & 2000
Gap handling : Appended to previous track

Used output format : Internal WAV Routines
Sample format : 44.100 Hz; 16 Bit; Stereo


TOC of the extracted CD

Track | Start | Length | Start sector | End sector
––––––––––––––––––––––––––––-
1 | 0:00.00 | 3:25.02 | 0 | 15376
2 | 3:25.02 | 5:11.54 | 15377 | 38755
3 | 8:36.56 | 2:08.09 | 38756 | 48364
4 | 10:44.65 | 6:53.38 | 48365 | 79377
5 | 17:38.28 | 5:31.40 | 79378 | 104242
6 | 23:09.68 | 2:42.23 | 104243 | 116415
7 | 25:52.16 | 4:54.09 | 116416 | 138474
8 | 30:46.25 | 4:54.48 | 138475 | 160572
9 | 35:40.73 | 4:12.26 | 160573 | 179498


Track 1

Filename C:\My Documents\My FLAC\Jerseyband - Lung Punch Fantasy (2006) [FLAC]\01 - Sheffield's Law.wav

Pre-gap length 0:00:02.00

Peak level 98.8 %
Extraction speed 1.0 X
Track quality 100.0 %
Test CRC 325626A7
Copy CRC 325626A7
Accurately ripped (confidence 5) [7EB4D93B] (AR v1)
Copy OK

Track 2

Filename C:\My Documents\My FLAC\Jerseyband - Lung Punch Fantasy (2006) [FLAC]\02 - Titan.wav

Peak level 98.8 %
Extraction speed 1.1 X
Track quality 99.9 %
Test CRC 67A3171F
Copy CRC 67A3171F
Accurately ripped (confidence 5) [40E44F92] (AR v1)
Copy OK

Track 3

Filename C:\My Documents\My FLAC\Jerseyband - Lung Punch Fantasy (2006) [FLAC]\03 - Feminem.wav

Peak level 98.8 %
Extraction speed 0.9 X
Track quality 99.9 %
Test CRC F954C305
Copy CRC F954C305
Accurately ripped (confidence 5) [B1C4EB86] (AR v1)
Copy OK

Track 4

Filename C:\My Documents\My FLAC\Jerseyband - Lung Punch Fantasy (2006) [FLAC]\04 - Sangwich.wav

Peak level 98.8 %
Extraction speed 1.5 X
Track quality 100.0 %
Test CRC F32685D8
Copy CRC F32685D8
Accurately ripped (confidence 5) [6BECC7A6] (AR v1)
Copy OK

Track 5

Filename C:\My Documents\My FLAC\Jerseyband - Lung Punch Fantasy (2006) [FLAC]\05 - Mischief.wav

Peak level 98.8 %
Extraction speed 1.7 X
Track quality 100.0 %
Test CRC 3FC2A037
Copy CRC 3FC2A037
Accurately ripped (confidence 5) [455319EA] (AR v1)
Copy OK

Track 6

Filename C:\My Documents\My FLAC\Jerseyband - Lung Punch Fantasy (2006) [FLAC]\06 - Lord Magnificent.wav

Peak level 99.2 %
Extraction speed 1.3 X
Track quality 99.9 %
Test CRC D6B853F7
Copy CRC D6B853F7
Accurately ripped (confidence 5) [DC17B22E] (AR v1)
Copy OK

Track 7

Filename C:\My Documents\My FLAC\Jerseyband - Lung Punch Fantasy (2006) [FLAC]\07 - Steve Jobs For Jerseyband.wav

Peak level 98.8 %
Extraction speed 1.4 X
Track quality 99.9 %
Test CRC A35CB55B
Copy CRC A35CB55B
Accurately ripped (confidence 5) [D8CF9637] (AR v1)
Copy OK

Track 8

Filename C:\My Documents\My FLAC\Jerseyband - Lung Punch Fantasy (2006) [FLAC]\08 - French Parade.wav

Peak level 98.8 %
Extraction speed 1.3 X
Track quality 99.8 %
Test CRC A97CD91D
Copy CRC A97CD91D
Accurately ripped (confidence 4) [3CCF8F1C] (AR v1)
Copy OK

Track 9

Filename C:\My Documents\My FLAC\Jerseyband - Lung Punch Fantasy (2006) [FLAC]\09 - Shave Your Shelf.wav

Peak level 98.8 %
Extraction speed 0.4 X
Track quality 99.6 %
Test CRC DBBCB83D
Copy CRC DBBCB83D
Accurately ripped (confidence 4) [56EB3B66] (AR v1)
Copy OK


All tracks accurately ripped

No errors occurred

End of status report

–– CUETools DB Plugin V2.1.6

[CTDB TOCID: _Fgq7mRkxMDjz_qyP8weOu6KbvY-] found
Submit result: _Fgq7mRkxMDjz_qyP8weOu6KbvY- has been confirmed
Track | CTDB Status
1 | (1/1) Accurately ripped
2 | (1/1) Accurately ripped
3 | (1/1) Accurately ripped
4 | (1/1) Accurately ripped
5 | (1/1) Accurately ripped
6 | (1/1) Accurately ripped
7 | (1/1) Accurately ripped
8 | (1/1) Accurately ripped
9 | (1/1) Accurately ripped


==== Log checksum 7593687F48F42C2E77228C3D322BF34529CF364E0ED3DA6641153E8C850D341B ====


Jerseyband - Lung Punch Fantasy (2006)