Subcategories

Jerry Jeff Walker - Viva Luckenbach! (1994)

Posted By: TestTickles
Jerry Jeff Walker - Viva Luckenbach! (1994)

Jerry Jeff Walker - Viva Luckenbach! (1994)
EAC Rip | FLAC with CUE and log | no scans | 334 mb
MP3 CBR 320kbps | RAR | 112 mb
Genre: country

This album was recorded in honor of the 20th anniversary of Jerry Jeff Walker's 1973 album Viva Terlingua, considered to be one of his more well known efforts. As with Viva Terlingua, ¡Viva Luckenbach! was recorded live at the same bar. The album was co-produced by Lloyd Maines, who also sits in on pedal steel guitar and dobro. If the last name is familiar, Lloyd is the father of Natalie Maines, vocalist for Dixie Chicks. This was released by Trued And True Music in association with the Rykodisc label.
Luckenbach was virtually a ghost town in the Texas hill country when local rancher John R. "Hondo" Crouch bought it up in the early '70s and turned it into a laid-back small town, in the process building an anything-goes dance hall of his dreams. Jerry Jeff Walker recorded his breakthrough progressive-country album Viva Terlingua in Luckenbach in 1973, and he celebrated its 20th anniversary by cutting another live album in the same dance hall. The more sensibly titled ¡Viva Luckenbach! is just what we've come to expect from Walker: the sloppy but exuberant combination of raise-a-glass party songs and sentimental ballads that have made Walker the Jimmy Buffett of Texas.


01. Gettin' By
02. Viva Luckenbach
03. What I Like About Texas
04. Learning To P'Like And Luckenbach Women's Lib
05. Some Phone Numbers
06. I'll Be Here In The Morning
07. I Makes Money (Money Don't Make Me)
08. Keep Texas Beautiful
09. The Gift
10. Little Man
11. Gonzo Compadres
12. Movin' On
–-
Jerry Jeff Walker-vocals, guitar

THE GONZO COMPADRES
John Inmon-lead guitar and vocals
Freddie Krc-drums and vocals
Bob Livingston-bass guitar and vocals
Lloyd Maines-pedal steel guitar and dobro
Brian Piper-keyboards

Kelly Dunn-organ
Sweet Mary Egan-fiddle
Craig Hills-guitar
Michael McGeary-tambourine
Gary P. Nunn-duet vocal on "What I Like About Texas"
Herb Steiner-pedal steel guitar
Ponty Bone-backup vocals
Django Walker-backup vocals
Becky Patterson-spoken word


Executive producer: Susan Walker
Co-produced by Lloyd Maines & Jerry Jeff Walker
Recorded in Luckenbach, Texas, October 20-20, 1993
Remote audio truck: Reelsound Recording Co., Austin, Texas
Engineering: Maloom H. Harper
Remote crew: Greg Klinginsmith & John Ingle
Mixing: Cedar Creek Recording, Austin, Texas
Re-mix engineer: Fred Remmert
Sound at Luckenbach: Crosswind Sound/Charles Ray & Lloyd Goad
Remix editor: Jim Wilson

Jerry Jeff Walker - Viva Luckenbach! (1994)


EAC extraction logfile from 14. March 2007, 8:43 for CD
Jerry Jeff Walker / ¡Viva Luckenbach!

Used drive : LITE-ON DVDRW SOHW-1633S Adapter: 0 ID: 0
Read mode : Secure with NO C2, accurate stream, disable cache
Read offset correction : 12
Overread into Lead-In and Lead-Out : No

Used output format : Internal WAV Routines
44.100 Hz; 16 Bit; Stereo

Other options :
Fill up missing offset samples with silence : Yes
Delete leading and trailing silent blocks : No
Installed external ASPI interface


Track 1
Filename D:\FLAC\Jerry Jeff Walker - Viva Luckenbach! (1994) [FLAC]\01 - Gettin' By.wav

Pre-gap length 0:00:02.42

Peak level 100.0 %
Track quality 100.0 %
Test CRC 8E14F176
Copy CRC 8E14F176
Copy OK

Track 2
Filename D:\FLAC\Jerry Jeff Walker - Viva Luckenbach! (1994) [FLAC]\02 - Viva Luckenbach.wav

Peak level 100.0 %
Track quality 100.0 %
Test CRC 9148F1B5
Copy CRC 9148F1B5
Copy OK

Track 3
Filename D:\FLAC\Jerry Jeff Walker - Viva Luckenbach! (1994) [FLAC]\03 - What I Like About Texas.wav

Pre-gap length 0:00:23.04

Peak level 100.0 %
Track quality 100.0 %
Test CRC B5AE6F3F
Copy CRC B5AE6F3F
Copy OK

Track 4
Filename D:\FLAC\Jerry Jeff Walker - Viva Luckenbach! (1994) [FLAC]\04 - Learning To P'Like And Luckenbach Women's Lib.wav

Pre-gap length 0:00:05.62

Peak level 100.0 %
Track quality 100.0 %
Test CRC A6A22F4F
Copy CRC A6A22F4F
Copy OK

Track 5
Filename D:\FLAC\Jerry Jeff Walker - Viva Luckenbach! (1994) [FLAC]\05 - Some Phone Numbers.wav

Pre-gap length 0:00:32.00

Peak level 100.0 %
Track quality 100.0 %
Test CRC 2F81A4DC
Copy CRC 2F81A4DC
Copy OK

Track 6
Filename D:\FLAC\Jerry Jeff Walker - Viva Luckenbach! (1994) [FLAC]\06 - I'll Be Here In The Morning.wav

Pre-gap length 0:00:28.84

Peak level 100.0 %
Track quality 99.9 %
Test CRC 4BBAEBD6
Copy CRC 4BBAEBD6
Copy OK

Track 7
Filename D:\FLAC\Jerry Jeff Walker - Viva Luckenbach! (1994) [FLAC]\07 - I Makes Money (Money Don't Make Me).wav

Pre-gap length 0:00:27.93

Peak level 100.0 %
Track quality 99.9 %
Test CRC C7A97FBD
Copy CRC C7A97FBD
Copy OK

Track 8
Filename D:\FLAC\Jerry Jeff Walker - Viva Luckenbach! (1994) [FLAC]\08 - Keep Texas Beautiful.wav

Pre-gap length 0:00:28.60

Peak level 100.0 %
Track quality 100.0 %
Test CRC D1E1C6CF
Copy CRC D1E1C6CF
Copy OK

Track 9
Filename D:\FLAC\Jerry Jeff Walker - Viva Luckenbach! (1994) [FLAC]\09 - The Gift.wav

Peak level 100.0 %
Track quality 100.0 %
Test CRC E8AA9647
Copy CRC E8AA9647
Copy OK

Track 10
Filename D:\FLAC\Jerry Jeff Walker - Viva Luckenbach! (1994) [FLAC]\10 - Little Man.wav

Peak level 100.0 %
Track quality 100.0 %
Test CRC 7CC91C62
Copy CRC 7CC91C62
Copy OK

Track 11
Filename D:\FLAC\Jerry Jeff Walker - Viva Luckenbach! (1994) [FLAC]\11 - Gonzo Compadres.wav

Pre-gap length 0:00:18.00

Peak level 100.0 %
Track quality 100.0 %
Test CRC 03FE8B9F
Copy CRC 03FE8B9F
Copy OK

Track 12
Filename D:\FLAC\Jerry Jeff Walker - Viva Luckenbach! (1994) [FLAC]\12 - Movin' On.wav

Peak level 100.0 %
Track quality 100.0 %
Test CRC 7056B0BA
Copy CRC 7056B0BA
Copy OK


No errors occured


End of status report
NITROFLARE (FLAC)
NITROFLARE (MP3)