Subcategories

Jerry Lee Lewis - 18 Original Sun Greatest Hits (1984) {Rhino}

Posted By: TestTickles
Jerry Lee Lewis - 18 Original Sun Greatest Hits (1984) {Rhino}

Jerry Lee Lewis - 18 Original Sun Greatest Hits (1984) {Rhino}
EAC Rip | FLAC with CUE and log | scans | 240 mb
MP3 CBR 320kbps | RAR | 89 mb
Genre: rock'n'roll

18 Original Sun Greatest Hits is a 1984 compilation by Jerry Lee Lewis. This was one of the first compilations on Rhino Records to have a compact disc counterpart.

Jerry Lee Lewis - 18 Original Sun Greatest Hits (1984) {Rhino}

1. Whole Lotta Shakin' Goin' On (2:54)
2. Great Balls Of Fire (1:53)
3. Breathless (2:43)
4. High School Confidential (2:30)
5. What'd I Say (2:27)
6. Drinkin' Wine Spo-Dee-O-Dee (2:35)
7. Matchbox (1:44)
8. Jambalaya (2:00)
9. When The Saints Go Marchin' In (2:09)
10. Lewis Boogie (1:59)
11. It'll Be Me (Single Version) (2:46)
12. All Night Long (2:04)
13. Big Blon' Baby (1:41)
14. Crazy Arms (2:44)
15. Ubangi Stomp (1:47)
16. Big Legged Woman (2:25)
17. Put Me Down (2:08)
18. Wild One (1:49)

Jerry Lee Lewis - 18 Original Sun Greatest Hits (1984) {Rhino}


Exact Audio Copy V1.1 from 23. June 2015

EAC extraction logfile from 4. August 2016, 23:08

Jerry Lee Lewis / 18 Original Sun Greatest Hits

Used drive : TEAC DVD-ROM DV-28SW Adapter: 1 ID: 0

Read mode : Secure
Utilize accurate stream : Yes
Defeat audio cache : Yes
Make use of C2 pointers : No

Read offset correction : 6
Overread into Lead-In and Lead-Out : No
Fill up missing offset samples with silence : Yes
Delete leading and trailing silent blocks : No
Null samples used in CRC calculations : Yes
Used interface : Native Win32 interface for Win NT & 2000
Gap handling : Appended to previous track

Used output format : Internal WAV Routines
Sample format : 44.100 Hz; 16 Bit; Stereo


TOC of the extracted CD

Track | Start | Length | Start sector | End sector
––––––––––––––––––––––––––––-
1 | 0:00.00 | 2:53.72 | 0 | 13046
2 | 2:53.72 | 1:52.50 | 13047 | 21496
3 | 4:46.47 | 2:43.18 | 21497 | 33739
4 | 7:29.65 | 2:30.22 | 33740 | 45011
5 | 10:00.12 | 2:27.25 | 45012 | 56061
6 | 12:27.37 | 2:35.38 | 56062 | 67724
7 | 15:03.00 | 1:43.60 | 67725 | 75509
8 | 16:46.60 | 2:00.07 | 75510 | 84516
9 | 18:46.67 | 2:09.18 | 84517 | 94209
10 | 20:56.10 | 1:58.52 | 94210 | 103111
11 | 22:54.62 | 2:46.28 | 103112 | 115589
12 | 25:41.15 | 2:04.17 | 115590 | 124906
13 | 27:45.32 | 1:41.10 | 124907 | 132491
14 | 29:26.42 | 2:44.18 | 132492 | 144809
15 | 32:10.60 | 1:46.67 | 144810 | 152826
16 | 33:57.52 | 2:25.20 | 152827 | 163721
17 | 36:22.72 | 2:08.30 | 163722 | 173351
18 | 38:31.27 | 1:49.50 | 173352 | 181576


Track 1

Filename C:\My Documents\My FLAC\Jerry Lee Lewis - 18 Original Sun Greatest Hits (1984) [FLAC] {Rhino}\01 - Whole Lotta Shakin' Goin' On.wav

Pre-gap length 0:00:02.00

Peak level 100.0 %
Extraction speed 0.9 X
Track quality 99.9 %
Test CRC 266DD2CF
Copy CRC 266DD2CF
Accurately ripped (confidence 10) [4BABFD8C] (AR v2)
Copy OK

Track 2

Filename C:\My Documents\My FLAC\Jerry Lee Lewis - 18 Original Sun Greatest Hits (1984) [FLAC] {Rhino}\02 - Great Balls Of Fire.wav

Pre-gap length 0:00:02.32

Peak level 100.0 %
Extraction speed 1.1 X
Track quality 100.0 %
Test CRC 0CFBAEF8
Copy CRC 0CFBAEF8
Accurately ripped (confidence 10) [B257E16E] (AR v2)
Copy OK

Track 3

Filename C:\My Documents\My FLAC\Jerry Lee Lewis - 18 Original Sun Greatest Hits (1984) [FLAC] {Rhino}\03 - Breathless.wav

Pre-gap length 0:00:02.30

Peak level 100.0 %
Extraction speed 1.2 X
Track quality 100.0 %
Test CRC BB55B3CA
Copy CRC BB55B3CA
Accurately ripped (confidence 10) [D3B632D9] (AR v2)
Copy OK

Track 4

Filename C:\My Documents\My FLAC\Jerry Lee Lewis - 18 Original Sun Greatest Hits (1984) [FLAC] {Rhino}\04 - High School Confidential.wav

Pre-gap length 0:00:02.30

Peak level 99.9 %
Extraction speed 1.3 X
Track quality 100.0 %
Test CRC 0E4D0326
Copy CRC 0E4D0326
Accurately ripped (confidence 10) [500B0B8C] (AR v2)
Copy OK

Track 5

Filename C:\My Documents\My FLAC\Jerry Lee Lewis - 18 Original Sun Greatest Hits (1984) [FLAC] {Rhino}\05 - What'd I Say.wav

Pre-gap length 0:00:02.32

Peak level 87.4 %
Extraction speed 1.3 X
Track quality 100.0 %
Test CRC A2F9FE62
Copy CRC A2F9FE62
Accurately ripped (confidence 10) [9F6B9978] (AR v2)
Copy OK

Track 6

Filename C:\My Documents\My FLAC\Jerry Lee Lewis - 18 Original Sun Greatest Hits (1984) [FLAC] {Rhino}\06 - Drinkin' Wine Spo-Dee-O-Dee.wav

Pre-gap length 0:00:02.45

Peak level 100.0 %
Extraction speed 1.4 X
Track quality 100.0 %
Test CRC D61D7636
Copy CRC D61D7636
Accurately ripped (confidence 10) [2595097F] (AR v2)
Copy OK

Track 7

Filename C:\My Documents\My FLAC\Jerry Lee Lewis - 18 Original Sun Greatest Hits (1984) [FLAC] {Rhino}\07 - Matchbox.wav

Pre-gap length 0:00:02.38

Peak level 100.0 %
Extraction speed 1.3 X
Track quality 100.0 %
Test CRC 278A1BCE
Copy CRC 278A1BCE
Accurately ripped (confidence 10) [B14F5253] (AR v2)
Copy OK

Track 8

Filename C:\My Documents\My FLAC\Jerry Lee Lewis - 18 Original Sun Greatest Hits (1984) [FLAC] {Rhino}\08 - Jambalaya.wav

Pre-gap length 0:00:02.33

Peak level 100.0 %
Extraction speed 1.4 X
Track quality 100.0 %
Test CRC BB61612B
Copy CRC BB61612B
Accurately ripped (confidence 10) [739C1C51] (AR v2)
Copy OK

Track 9

Filename C:\My Documents\My FLAC\Jerry Lee Lewis - 18 Original Sun Greatest Hits (1984) [FLAC] {Rhino}\09 - When The Saints Go Marchin' In.wav

Pre-gap length 0:00:02.32

Peak level 100.0 %
Extraction speed 1.5 X
Track quality 100.0 %
Test CRC 4A8A8872
Copy CRC 4A8A8872
Accurately ripped (confidence 9) [ADC17725] (AR v2)
Copy OK

Track 10

Filename C:\My Documents\My FLAC\Jerry Lee Lewis - 18 Original Sun Greatest Hits (1984) [FLAC] {Rhino}\10 - Lewis Boogie.wav

Pre-gap length 0:00:01.70

Peak level 98.7 %
Extraction speed 1.5 X
Track quality 100.0 %
Test CRC 1A7F2650
Copy CRC 1A7F2650
Accurately ripped (confidence 10) [E7D9EED8] (AR v2)
Copy OK

Track 11

Filename C:\My Documents\My FLAC\Jerry Lee Lewis - 18 Original Sun Greatest Hits (1984) [FLAC] {Rhino}\11 - It'll Be Me (Single Version).wav

Peak level 88.9 %
Extraction speed 1.6 X
Track quality 100.0 %
Test CRC 2D224FCE
Copy CRC 2D224FCE
Accurately ripped (confidence 10) [F70E8DE2] (AR v2)
Copy OK

Track 12

Filename C:\My Documents\My FLAC\Jerry Lee Lewis - 18 Original Sun Greatest Hits (1984) [FLAC] {Rhino}\12 - All Night Long.wav

Pre-gap length 0:00:02.15

Peak level 91.7 %
Extraction speed 1.6 X
Track quality 100.0 %
Test CRC 03556A6D
Copy CRC 03556A6D
Accurately ripped (confidence 10) [B8A8958E] (AR v2)
Copy OK

Track 13

Filename C:\My Documents\My FLAC\Jerry Lee Lewis - 18 Original Sun Greatest Hits (1984) [FLAC] {Rhino}\13 - Big Blon' Baby.wav

Pre-gap length 0:00:02.40

Peak level 100.0 %
Extraction speed 1.5 X
Track quality 100.0 %
Test CRC 289ED0F0
Copy CRC 289ED0F0
Accurately ripped (confidence 10) [D93E75DD] (AR v2)
Copy OK

Track 14

Filename C:\My Documents\My FLAC\Jerry Lee Lewis - 18 Original Sun Greatest Hits (1984) [FLAC] {Rhino}\14 - Crazy Arms.wav

Pre-gap length 0:00:02.27

Peak level 100.0 %
Extraction speed 1.7 X
Track quality 100.0 %
Test CRC 4795B171
Copy CRC 4795B171
Accurately ripped (confidence 10) [25F5FCDD] (AR v2)
Copy OK

Track 15

Filename C:\My Documents\My FLAC\Jerry Lee Lewis - 18 Original Sun Greatest Hits (1984) [FLAC] {Rhino}\15 - Ubangi Stomp.wav

Pre-gap length 0:00:02.15

Peak level 100.0 %
Extraction speed 1.3 X
Track quality 99.9 %
Test CRC 5152D285
Copy CRC 5152D285
Accurately ripped (confidence 10) [F1C0D19A] (AR v2)
Copy OK

Track 16

Filename C:\My Documents\My FLAC\Jerry Lee Lewis - 18 Original Sun Greatest Hits (1984) [FLAC] {Rhino}\16 - Big Legged Woman.wav

Pre-gap length 0:00:02.17

Peak level 100.0 %
Extraction speed 1.8 X
Track quality 100.0 %
Test CRC 5CD89E81
Copy CRC 5CD89E81
Accurately ripped (confidence 10) [7DF63DEB] (AR v2)
Copy OK

Track 17

Filename C:\My Documents\My FLAC\Jerry Lee Lewis - 18 Original Sun Greatest Hits (1984) [FLAC] {Rhino}\17 - Put Me Down.wav

Pre-gap length 0:00:02.25

Peak level 99.9 %
Extraction speed 1.8 X
Track quality 100.0 %
Test CRC 536AA1AA
Copy CRC 536AA1AA
Accurately ripped (confidence 10) [63DADAE4] (AR v2)
Copy OK

Track 18

Filename C:\My Documents\My FLAC\Jerry Lee Lewis - 18 Original Sun Greatest Hits (1984) [FLAC] {Rhino}\18 - Wild One.wav

Pre-gap length 0:00:02.05

Peak level 100.0 %
Extraction speed 1.7 X
Track quality 100.0 %
Test CRC B4B2EB28
Copy CRC B4B2EB28
Accurately ripped (confidence 10) [FEE1A2DB] (AR v2)
Copy OK


All tracks accurately ripped

No errors occurred

End of status report

–– CUETools DB Plugin V2.1.6

[CTDB TOCID: x9EEzg5I3EfnXFjUMJyYYpj7l6o-] found
Submit result: x9EEzg5I3EfnXFjUMJyYYpj7l6o- has been confirmed
Track | CTDB Status
1 | (22/22) Accurately ripped
2 | (22/22) Accurately ripped
3 | (22/22) Accurately ripped
4 | (22/22) Accurately ripped
5 | (22/22) Accurately ripped
6 | (22/22) Accurately ripped
7 | (22/22) Accurately ripped
8 | (22/22) Accurately ripped
9 | (21/22) Accurately ripped
10 | (22/22) Accurately ripped
11 | (22/22) Accurately ripped
12 | (22/22) Accurately ripped
13 | (22/22) Accurately ripped
14 | (22/22) Accurately ripped
15 | (22/22) Accurately ripped
16 | (22/22) Accurately ripped
17 | (22/22) Accurately ripped
18 | (22/22) Accurately ripped


==== Log checksum 8C325040EAA4AFF34387E7F6423B833BA97DB083C78A4927D3FB89EFC8D98CF6 ====
NITROFLARE (FLAC)
NITROFLARE (MP3)