James Brown - Sex Machine (1970) {1993 Polydor} **[RE-UP]**

Posted By: TestTickles
James Brown - Sex Machine (1970) {1993 Polydor} **[RE-UP]**

James Brown - Sex Machine (1970) {1993 Polydor}
EAC Rip | FLAC with CUE and log | scans | 433 mb
MP3 CBR 320kbps | RAR | 161 mb
Genre: R&B, soul, funk

Sex Machine is the 1970 album by James Brown. While promoted as a live album, the applause of some of the tracks were dubbed in during post-production. A few of these songs would become the source of countless hip-hop samples, including "Give It Up Or Turnit A Loose". This CD was released on 23 March, 1993.

An instant best-seller when released in September 1970, this album has rightfully passed into classic status. What's not widely known – and if you don't want to know, stop here – is that the album's original disc 1 (tracks 1-5) and disc two (tracks 6-15) are two separate recordings: one studio, one live, by two radically different bands. And the title track wasn't even the hit version.

Of course, James Brown made it work.

JB returned to his adopted home town of Augusta, GA, in the fall of 1969 after an unrewarding time living in St. Albans, Queens (New York). A homecoming concert at Augusta'a Bell Auditorium was recorded on October 1, intended to be released as a live album called James Brown At Home With His Bad Self. But when five months later his great band of the Sixies quit, the album was shelved.

With "Sex Machine" a smash single in the spring of 1970, Brown introduced The J.B.'s featuring Bootsy and Catfish Collins. On stage, the hungry young group reinvented the back catalog; not even the current hit was safe. Brown documented the revolution in a late-night studio session that summer. Dubbing in canned applause, he combined it with an LP's worth of the 1969 live stage show, including two recent studio singles, "Lowdown Popcorn" and "Brother Rapp" – also with dubbed applause – for good measure.

Sex Machine hit No. 4 on the R&B charts, N. 29 Pop. Through band upheaval and changing tastes, James Brown never broke stride. With his bad self.

James Brown - Sex Machine (1970) {1993 Polydor} **[RE-UP]**

01. Get Up I Feel Like Being A Sex Machine
02. Brother Rapp (Part I & Part II)

MEDLEY:
03. Bewildered
04. I Got The Feelin'
05. Give It Up Or Turnit A Loose

06. I Don't Want Nobody To Give Me Nothing (Open Up The Door I'll Get It Myself)
07. Licking Stick-Licking Stick
08. Lowdown Popcorn
09. Spinning Wheel
10. If I Ruled The World
11. There Was A Time
12. It's A Man's Man's Man's World
13. Please, Please, Please
14. I Can't Stand Myself (When You Touch Me)
15. Mother Popcorn
–-
GET UP I FEEL LIKE BEING A SEX MACHINE, Medley: BEWILDERED, I GOT THE FEELlN', GIVE IT UP OR TURNIT A LOOSE
Recorded in Cincinatti, OH, July 23, 1970
James Brown - vocals, piano (SEX MACHINE)
Clayton (Chicken) Gunnells - trumpet
Darryl (Hasaan) Jamison - trumpet
Robert (Chopper) McCollough - tenor sax
Bobby Byrd - organ, vocals (SEX MACHINE)
Phelps (Catfish) Collins - guitar
William (Bootsy) Collins - bass
John (Jabo) Starks - drums (SEX MACHINE)
Clyde Stubblefield - drums (MEDLEY)
Johnny Griggs - congas (MEDLEY)

BROTHER RAPP
Recorded in Cinninnati, OH, October 14, 1969
James Brown - vocals
Richard (Kush) Griffith - trumpet
Joseph Davis - trumpet
Fred Wesley - trombone
Maceo Parker - tenor sax
Eldee Williams - tenor sax
Jimmy Nolen - guitar
Alphonso (Country) Kellum - guitar
Kenny Poole - wah-wah guitar (inaudible)
(Sweet) Charles Sherrell - bass
Clyde Stubblefield - drums
Art Lopez - percussion

REMAINDER OF TITLES (EXCEPT LOWDOWN POPCORN)
Recorded live at Bell AUdditorium, Augusta, GA, October 1, 1969
James Brown - vocals, organ (SPINNING WHEEL only)
Richard (Kush) Griffith - trumpet
Joseph Davis - trumpet
Fred Wesley - trombone
Maceo Parker - tenor sax, organ, emcee
Eldee Williams - tenor sax
SL Clair Pinckney - tenor and baritone sax
Jimmy Nolen - guitar
Alphonso (Country) Kellum - guitar and bass
(Sweet) Charles Sherrell - bass
Clyde Stubblefield - drums
John (Jabo) Starks - drums
Melvin Parker - drums
Marva Whitney, Robert Graham and Jerry Shearin ­ background vocals on PLEASE PLEASE PLEASE

LOWDOWN POPCORN
Recorded in Miami, FL, June 12, 1969
James Brown - organ
Richard (Kush) Griffith - trumpet
Joseph Davis - trumpet
Fred Wesley - trombone
Alfred (Pee Wee) Ellis - alto sax
Maceo Parker - tenor sax
St Clair Pinckney - baritone sax
Jimmy Nolen - guitar
Alphonso (Country) Kellum - guitar
(Sweet) Charles Sherrell - bass
Clyde Stubblefield - drums


Produced by James Brown
JAMES BROWN PRODUCTIONS


Engineer: Ron Lenhoff

Digitally remastered by Joseph M. Palmaccio, Polygram Studios
Recording information and personnel: Alan Leeds

EAC extraction logfile from 11. August 2006, 14:10 for CD
James Brown / Sex Machine

Used drive : LITE-ON DVDRW SOHW-1633S Adapter: 0 ID: 0
Read mode : Secure with NO C2, accurate stream, disable cache
Read offset correction : 12
Overread into Lead-In and Lead-Out : No

Used output format : Internal WAV Routines
44.100 Hz; 16 Bit; Stereo

Other options :
Fill up missing offset samples with silence : Yes
Delete leading and trailing silent blocks : No
Installed external ASPI interface


Track 1
Filename D:\FLAC\James Brown - Sex Machine (1970) [FLAC] {1993 Polydor}\01 - Get Up I Feel Like Being A Sex Machine.wav

Pre-gap length 0:00:02.42

Peak level 84.6 %
Track quality 100.0 %
Test CRC 454C91E3
Copy CRC 454C91E3
Copy OK

Track 2
Filename D:\FLAC\James Brown - Sex Machine (1970) [FLAC] {1993 Polydor}\02 - Brother Rapp (Part I & Part II).wav

Peak level 92.5 %
Track quality 100.0 %
Test CRC F253ED76
Copy CRC F253ED76
Copy OK

Track 3
Filename D:\FLAC\James Brown - Sex Machine (1970) [FLAC] {1993 Polydor}\03 - Bewildered.wav

Peak level 91.4 %
Track quality 100.0 %
Test CRC 01C889C7
Copy CRC 01C889C7
Copy OK

Track 4
Filename D:\FLAC\James Brown - Sex Machine (1970) [FLAC] {1993 Polydor}\04 - I Got The Feelin'.wav

Peak level 85.5 %
Track quality 99.8 %
Test CRC 2F7002BC
Copy CRC 2F7002BC
Copy OK

Track 5
Filename D:\FLAC\James Brown - Sex Machine (1970) [FLAC] {1993 Polydor}\05 - Give It Up Or Turnit A Loose.wav

Peak level 97.5 %
Track quality 100.0 %
Test CRC E290A14F
Copy CRC E290A14F
Copy OK

Track 6
Filename D:\FLAC\James Brown - Sex Machine (1970) [FLAC] {1993 Polydor}\06 - I Don't Want Nobody To Give Me Nothing (Open Up The Door I'll Get It Myself).wav

Peak level 93.7 %
Track quality 100.0 %
Test CRC ECA201EC
Copy CRC ECA201EC
Copy OK

Track 7
Filename D:\FLAC\James Brown - Sex Machine (1970) [FLAC] {1993 Polydor}\07 - Licking Stick-Licking Stick.wav

Peak level 90.9 %
Track quality 100.0 %
Test CRC 79F82D05
Copy CRC 79F82D05
Copy OK

Track 8
Filename D:\FLAC\James Brown - Sex Machine (1970) [FLAC] {1993 Polydor}\08 - Lowdown Popcorn.wav

Peak level 90.2 %
Track quality 100.0 %
Test CRC 150A2887
Copy CRC 150A2887
Copy OK

Track 9
Filename D:\FLAC\James Brown - Sex Machine (1970) [FLAC] {1993 Polydor}\09 - Spinning Wheel.wav

Peak level 96.3 %
Track quality 100.0 %
Test CRC 7C7C3E9F
Copy CRC 7C7C3E9F
Copy OK

Track 10
Filename D:\FLAC\James Brown - Sex Machine (1970) [FLAC] {1993 Polydor}\10 - If I Ruled The World.wav

Peak level 95.6 %
Track quality 100.0 %
Test CRC 6FAE7FC0
Copy CRC 6FAE7FC0
Copy OK

Track 11
Filename D:\FLAC\James Brown - Sex Machine (1970) [FLAC] {1993 Polydor}\11 - There Was A Time.wav

Peak level 100.0 %
Track quality 100.0 %
Test CRC 12F994FA
Copy CRC 12F994FA
Copy OK

Track 12
Filename D:\FLAC\James Brown - Sex Machine (1970) [FLAC] {1993 Polydor}\12 - It's A Man's Man's Man's World.wav

Peak level 96.9 %
Track quality 100.0 %
Test CRC 518E18C9
Copy CRC 518E18C9
Copy OK

Track 13
Filename D:\FLAC\James Brown - Sex Machine (1970) [FLAC] {1993 Polydor}\13 - Please, Please, Please.wav

Peak level 89.2 %
Track quality 100.0 %
Test CRC 8C1FA268
Copy CRC 8C1FA268
Copy OK

Track 14
Filename D:\FLAC\James Brown - Sex Machine (1970) [FLAC] {1993 Polydor}\14 - I Can't Stand Myself (When You Touch Me).wav

Peak level 90.1 %
Track quality 100.0 %
Test CRC 84597A7C
Copy CRC 84597A7C
Copy OK

Track 15
Filename D:\FLAC\James Brown - Sex Machine (1970) [FLAC] {1993 Polydor}\15 - Mother Popcorn.wav

Peak level 97.0 %
Track quality 100.0 %
Test CRC 8AF4687C
Copy CRC 8AF4687C
Copy OK

No errors occured


End of status report


James Brown - Sex Machine (1970) {1993 Polydor} **[RE-UP]**


Check out other titles in my blog.