Subcategories

James Brown - Foundations Of Funk - A Brand New Bag: 1964-1969 (2CD) (1996)

Posted By: TestTickles
James Brown - Foundations Of Funk - A Brand New Bag: 1964-1969 (2CD) (1996)

James Brown - Foundations Of Funk - A Brand New Bag: 1964-1969 (2CD) (1996)
EAC Rip | FLAC with CUE and log | scans | 751 mb
Genre: R&B, soul, funk

Foundations Of Funk - A Brand New Bag: 1964-1969 is a 1996 compilation CD by James Brown. It focuses on the era of music when James Brown was making his style of soul into something more gritty, when it would soon become the funk. This is considered some of the most influential music in James Brown's career, if not the world. An MP3 version has already been posted, please click here to see if the download is available.

James Brown - Foundations Of Funk - A Brand New Bag: 1964-1969 (2CD) (1996)

DISC 1
01. Out Of Sight (2:25)
02. Papa's Got A Brand New Bag, Pts. 1 & 2 (4:19)
03. I Got You (I Feel Good) (2:48)
04. Money Won't Change You, Pts. 1 & 2 (4:18)
05. Introduction-Out Of Sight-Bring It Up (Live) (5:57)
06. Let Yourself Go (4:00)
07. There Was A Time (4:28)
08. Cold Sweat, Pts. 1 & 2 (7:27)
09. Get It Together, Pts. 1 & 2 (9:00)
10. Goodbye My Love, Pts. 1 & 2 (5:39)
11. I Can't Stand Myself (When You Touch Me), Pts. 1 & 2 (7:22)
12. I Got The Feelin' (3:08)
13. The Popcorn (4:33)
14. Cold Sweat (False Start And Studio Dialogue) (0:23)
15. Cold Sweat (Alternate Take) (6:50)


DISC 2
01. Licking Stick-Licking Stick (Live) (4:18)
02. Say It Loud-I'm Black And I'm Proud, Pts. 1 & 2 (4:54)
03. Give It Up Or Turnit A Loose (4:34)
04. You Got To Have A Mother For Me (5:43)
05. I Don't Want Nobody To Give Me Nothing (Open Up The Door I'll Get It Myself) (9:45)
06. Let A Man Come In And Do The Popcorn, Pts. 1 & 2 (7:50)
07. It's A New Day, Pts. 1 & 2 (6:29)
08. Ain't It Funky Now (9:32)
09. Brother Rapp (7:04)
10. Funky Drummer, Pts. 1 & 2 (5:37)
11. She's The One (3:03)
12. Mother Popcorn (Live) (9:02)

James Brown - Foundations Of Funk - A Brand New Bag: 1964-1969 (2CD) (1996)


Exact Audio Copy V1.1 from 23. June 2015

EAC extraction logfile from 27. May 2016, 10:57

James Brown / Foundations Of Funk, A Brand New Bag 1964-1969 (Disc 1)

Used drive : TEAC DVD-ROM DV-28SW Adapter: 1 ID: 0

Read mode : Secure
Utilize accurate stream : Yes
Defeat audio cache : Yes
Make use of C2 pointers : No

Read offset correction : 6
Overread into Lead-In and Lead-Out : No
Fill up missing offset samples with silence : Yes
Delete leading and trailing silent blocks : No
Null samples used in CRC calculations : Yes
Used interface : Native Win32 interface for Win NT & 2000
Gap handling : Left out

Used output format : Internal WAV Routines
Sample format : 44.100 Hz; 16 Bit; Stereo


TOC of the extracted CD

Track | Start | Length | Start sector | End sector
––––––––––––––––––––––––––––-
1 | 0:00.00 | 2:25.27 | 0 | 10901
2 | 2:25.27 | 4:19.63 | 10902 | 30389
3 | 6:45.15 | 2:48.55 | 30390 | 43044
4 | 9:33.70 | 4:18.35 | 43045 | 62429
5 | 13:52.30 | 5:57.55 | 62430 | 89259
6 | 19:50.10 | 4:00.27 | 89260 | 107286
7 | 23:50.37 | 4:28.53 | 107287 | 127439
8 | 28:19.15 | 7:27.02 | 127440 | 160966
9 | 35:46.17 | 9:00.40 | 160967 | 201506
10 | 44:46.57 | 5:39.33 | 201507 | 226964
11 | 50:26.15 | 7:22.17 | 226965 | 260131
12 | 57:48.32 | 3:08.20 | 260132 | 274251
13 | 60:56.52 | 4:34.03 | 274252 | 294804
14 | 65:30.55 | 0:23.30 | 294805 | 296559
15 | 65:54.10 | 6:50.57 | 296560 | 327366


Track 1

Filename C:\My Documents\My FLAC\James Brown - Foundations Of Funk A Brand New Bag 1964-1969 (2CD) (1996) [FLAC]\Disc 1\01 - Out Of Sight.wav

Pre-gap length 0:00:02.00

Peak level 100.0 %
Extraction speed 2.5 X
Track quality 100.0 %
Test CRC D5156EF0
Copy CRC D5156EF0
Track not fully ripped for AccurateRip lookup
Copy OK

Track 2

Filename C:\My Documents\My FLAC\James Brown - Foundations Of Funk A Brand New Bag 1964-1969 (2CD) (1996) [FLAC]\Disc 1\02 - Papa's Got Brand New Bag (Pts. 1 & 2).wav

Pre-gap length 0:00:02.57

Peak level 93.7 %
Extraction speed 3.0 X
Track quality 100.0 %
Test CRC B5A567DD
Copy CRC B5A567DD
Track not fully ripped for AccurateRip lookup
Copy OK

Track 3

Filename C:\My Documents\My FLAC\James Brown - Foundations Of Funk A Brand New Bag 1964-1969 (2CD) (1996) [FLAC]\Disc 1\03 - I Got You (I Feel Good).wav

Pre-gap length 0:00:02.60

Peak level 99.9 %
Extraction speed 2.4 X
Track quality 99.9 %
Test CRC E61F14DE
Copy CRC E61F14DE
Track not fully ripped for AccurateRip lookup
Copy OK

Track 4

Filename C:\My Documents\My FLAC\James Brown - Foundations Of Funk A Brand New Bag 1964-1969 (2CD) (1996) [FLAC]\Disc 1\04 - Money Won't Change You (Pts. 1 & 2).wav

Pre-gap length 0:00:02.55

Peak level 100.0 %
Extraction speed 2.9 X
Track quality 99.9 %
Test CRC 4C858DEE
Copy CRC 4C858DEE
Track not fully ripped for AccurateRip lookup
Copy OK

Track 5

Filename C:\My Documents\My FLAC\James Brown - Foundations Of Funk A Brand New Bag 1964-1969 (2CD) (1996) [FLAC]\Disc 1\05 - Introduction, Out Of Sight, Bring It Up [Live].wav

Pre-gap length 0:00:02.63

Peak level 100.0 %
Extraction speed 3.8 X
Track quality 100.0 %
Test CRC 3121EE6E
Copy CRC 3121EE6E
Track not fully ripped for AccurateRip lookup
Copy OK

Track 6

Filename C:\My Documents\My FLAC\James Brown - Foundations Of Funk A Brand New Bag 1964-1969 (2CD) (1996) [FLAC]\Disc 1\06 - Let Yourself Go.wav

Pre-gap length 0:00:02.70

Peak level 100.0 %
Extraction speed 3.3 X
Track quality 99.9 %
Test CRC 0D577F3C
Copy CRC 0D577F3C
Track not fully ripped for AccurateRip lookup
Copy OK

Track 7

Filename C:\My Documents\My FLAC\James Brown - Foundations Of Funk A Brand New Bag 1964-1969 (2CD) (1996) [FLAC]\Disc 1\07 - There Was A Time.wav

Pre-gap length 0:00:02.25

Peak level 100.0 %
Extraction speed 4.2 X
Track quality 100.0 %
Test CRC B73DCEF1
Copy CRC B73DCEF1
Track not fully ripped for AccurateRip lookup
Copy OK

Track 8

Filename C:\My Documents\My FLAC\James Brown - Foundations Of Funk A Brand New Bag 1964-1969 (2CD) (1996) [FLAC]\Disc 1\08 - Cold Sweat (Pts. 1 & 2).wav

Pre-gap length 0:00:02.43

Peak level 89.0 %
Extraction speed 4.7 X
Track quality 100.0 %
Test CRC 66803394
Copy CRC 66803394
Track not fully ripped for AccurateRip lookup
Copy OK

Track 9

Filename C:\My Documents\My FLAC\James Brown - Foundations Of Funk A Brand New Bag 1964-1969 (2CD) (1996) [FLAC]\Disc 1\09 - Get It Together (Pts. 1 & 2).wav

Pre-gap length 0:00:02.57

Peak level 89.0 %
Extraction speed 5.1 X
Track quality 100.0 %
Test CRC 3449404F
Copy CRC 3449404F
Track not fully ripped for AccurateRip lookup
Copy OK

Track 10

Filename C:\My Documents\My FLAC\James Brown - Foundations Of Funk A Brand New Bag 1964-1969 (2CD) (1996) [FLAC]\Disc 1\10 - Goodbye My Love (Pts. 1 & 2).wav

Pre-gap length 0:00:02.57

Peak level 89.0 %
Extraction speed 5.2 X
Track quality 100.0 %
Test CRC 613CA78B
Copy CRC 613CA78B
Track not fully ripped for AccurateRip lookup
Copy OK

Track 11

Filename C:\My Documents\My FLAC\James Brown - Foundations Of Funk A Brand New Bag 1964-1969 (2CD) (1996) [FLAC]\Disc 1\11 - I Can't Stand Myself (When You Touch Me) (Pts. 1 & 2).wav

Pre-gap length 0:00:02.68

Peak level 92.5 %
Extraction speed 5.0 X
Track quality 99.9 %
Test CRC 47F04D19
Copy CRC 47F04D19
Track not fully ripped for AccurateRip lookup
Copy OK

Track 12

Filename C:\My Documents\My FLAC\James Brown - Foundations Of Funk A Brand New Bag 1964-1969 (2CD) (1996) [FLAC]\Disc 1\12 - I Got The Feelin'.wav

Pre-gap length 0:00:03.00

Peak level 93.3 %
Extraction speed 5.2 X
Track quality 100.0 %
Test CRC 8DD94802
Copy CRC 8DD94802
Track not fully ripped for AccurateRip lookup
Copy OK

Track 13

Filename C:\My Documents\My FLAC\James Brown - Foundations Of Funk A Brand New Bag 1964-1969 (2CD) (1996) [FLAC]\Disc 1\13 - The Popcorn.wav

Pre-gap length 0:00:02.72

Peak level 91.2 %
Extraction speed 5.6 X
Track quality 100.0 %
Test CRC 9FF0DEB5
Copy CRC 9FF0DEB5
Track not fully ripped for AccurateRip lookup
Copy OK

Track 14

Filename C:\My Documents\My FLAC\James Brown - Foundations Of Funk A Brand New Bag 1964-1969 (2CD) (1996) [FLAC]\Disc 1\14 - Cold Sweat (False Start & Studio Dialogue).wav

Pre-gap length 0:00:02.70

Peak level 100.0 %
Extraction speed 2.4 X
Track quality 100.0 %
Test CRC 19215BCA
Copy CRC 19215BCA
Accurately ripped (confidence 8) [6E76EBE8] (AR v2)
Copy OK

Track 15

Filename C:\My Documents\My FLAC\James Brown - Foundations Of Funk A Brand New Bag 1964-1969 (2CD) (1996) [FLAC]\Disc 1\15 - Cold Sweat (Alternate Take).wav

Peak level 100.0 %
Extraction speed 6.1 X
Track quality 100.0 %
Test CRC E005D4D4
Copy CRC E005D4D4
Accurately ripped (confidence 6) [7D3777C8] (AR v2)
Copy OK


2 track(s) accurately ripped
13 track(s) not fully ripped for AccurateRip lookup

Some tracks could not be verified as accurate

No errors occurred

End of status report

==== Log checksum 293734DC44B2D35D65A517358CDD8628DCE19257D2AD52E52225CF2E732B8872 ====






Exact Audio Copy V1.1 from 23. June 2015

EAC extraction logfile from 27. May 2016, 12:13

James Brown / Foundations Of Funk - A Brand New Bag: 1964-1969 (Disc 2)

Used drive : TEAC DVD-ROM DV-28SW Adapter: 1 ID: 0

Read mode : Secure
Utilize accurate stream : Yes
Defeat audio cache : Yes
Make use of C2 pointers : No

Read offset correction : 6
Overread into Lead-In and Lead-Out : No
Fill up missing offset samples with silence : Yes
Delete leading and trailing silent blocks : No
Null samples used in CRC calculations : Yes
Used interface : Native Win32 interface for Win NT & 2000
Gap handling : Left out

Used output format : Internal WAV Routines
Sample format : 44.100 Hz; 16 Bit; Stereo


TOC of the extracted CD

Track | Start | Length | Start sector | End sector
––––––––––––––––––––––––––––-
1 | 0:00.00 | 4:18.22 | 0 | 19371
2 | 4:18.22 | 4:54.55 | 19372 | 41476
3 | 9:13.02 | 4:34.40 | 41477 | 62066
4 | 13:47.42 | 5:43.45 | 62067 | 87836
5 | 19:31.12 | 9:45.50 | 87837 | 131761
6 | 29:16.62 | 7:50.65 | 131762 | 167076
7 | 37:07.52 | 6:29.08 | 167077 | 196259
8 | 43:36.60 | 9:32.30 | 196260 | 239189
9 | 53:09.15 | 7:04.37 | 239190 | 271026
10 | 60:13.52 | 5:37.35 | 271027 | 296336
11 | 65:51.12 | 3:03.03 | 296337 | 310064
12 | 68:54.15 | 9:02.65 | 310065 | 350779


Track 1

Filename C:\My Documents\My FLAC\James Brown - Foundations Of Funk A Brand New Bag 1964-1969 (2CD) (1996) [FLAC]\Disc 2\01 - Licking Stick - Licking Stick (Live).wav

Pre-gap length 0:00:02.00

Peak level 100.0 %
Extraction speed 2.4 X
Track quality 99.9 %
Test CRC 20E9406B
Copy CRC 20E9406B
Track not fully ripped for AccurateRip lookup
Copy OK

Track 2

Filename C:\My Documents\My FLAC\James Brown - Foundations Of Funk A Brand New Bag 1964-1969 (2CD) (1996) [FLAC]\Disc 2\02 - Say It Loud I'm Black And I'm Proud (Pts. 1 & 2).wav

Pre-gap length 0:00:03.00

Peak level 94.4 %
Extraction speed 3.2 X
Track quality 100.0 %
Test CRC 9030CE64
Copy CRC 9030CE64
Track not fully ripped for AccurateRip lookup
Copy OK

Track 3

Filename C:\My Documents\My FLAC\James Brown - Foundations Of Funk A Brand New Bag 1964-1969 (2CD) (1996) [FLAC]\Disc 2\03 - Give It Up Or Turnit A Loose.wav

Pre-gap length 0:00:04.05

Peak level 84.0 %
Extraction speed 3.4 X
Track quality 100.0 %
Test CRC 75FEEEC8
Copy CRC 75FEEEC8
Track not fully ripped for AccurateRip lookup
Copy OK

Track 4

Filename C:\My Documents\My FLAC\James Brown - Foundations Of Funk A Brand New Bag 1964-1969 (2CD) (1996) [FLAC]\Disc 2\04 - You Got To Have A Mother For Me.wav

Pre-gap length 0:00:04.00

Peak level 84.0 %
Extraction speed 3.8 X
Track quality 100.0 %
Test CRC 7603D586
Copy CRC 7603D586
Track not fully ripped for AccurateRip lookup
Copy OK

Track 5

Filename C:\My Documents\My FLAC\James Brown - Foundations Of Funk A Brand New Bag 1964-1969 (2CD) (1996) [FLAC]\Disc 2\05 - I Don't Want Nobody To Give Me Nothing (Open Up The Door I'll Get It Myself).wav

Pre-gap length 0:00:03.42

Peak level 100.0 %
Extraction speed 4.1 X
Track quality 99.9 %
Test CRC 7B5D76D1
Copy CRC 7B5D76D1
Track not fully ripped for AccurateRip lookup
Copy OK

Track 6

Filename C:\My Documents\My FLAC\James Brown - Foundations Of Funk A Brand New Bag 1964-1969 (2CD) (1996) [FLAC]\Disc 2\06 - Let A Man Come In And Do The Popcorn (Pts. 1 & 2).wav

Pre-gap length 0:00:03.00

Peak level 94.4 %
Extraction speed 4.7 X
Track quality 100.0 %
Test CRC CB735085
Copy CRC CB735085
Track not fully ripped for AccurateRip lookup
Copy OK

Track 7

Filename C:\My Documents\My FLAC\James Brown - Foundations Of Funk A Brand New Bag 1964-1969 (2CD) (1996) [FLAC]\Disc 2\07 - It's A New Day (Pts. 1 & 2).wav

Pre-gap length 0:00:03.20

Peak level 80.8 %
Extraction speed 4.9 X
Track quality 100.0 %
Test CRC A84FBA69
Copy CRC A84FBA69
Track not fully ripped for AccurateRip lookup
Copy OK

Track 8

Filename C:\My Documents\My FLAC\James Brown - Foundations Of Funk A Brand New Bag 1964-1969 (2CD) (1996) [FLAC]\Disc 2\08 - Ain't It Funky Now.wav

Pre-gap length 0:00:03.30

Peak level 82.1 %
Extraction speed 5.4 X
Track quality 100.0 %
Test CRC A03420F6
Copy CRC A03420F6
Track not fully ripped for AccurateRip lookup
Copy OK

Track 9

Filename C:\My Documents\My FLAC\James Brown - Foundations Of Funk A Brand New Bag 1964-1969 (2CD) (1996) [FLAC]\Disc 2\09 - Brother Rapp.wav

Pre-gap length 0:00:03.20

Peak level 79.4 %
Extraction speed 5.6 X
Track quality 100.0 %
Test CRC 7F058E90
Copy CRC 7F058E90
Track not fully ripped for AccurateRip lookup
Copy OK

Track 10

Filename C:\My Documents\My FLAC\James Brown - Foundations Of Funk A Brand New Bag 1964-1969 (2CD) (1996) [FLAC]\Disc 2\10 - Funky Drummer (Pts. 1 & 2).wav

Pre-gap length 0:00:04.00

Peak level 82.2 %
Extraction speed 0.9 X
Track quality 100.0 %
Test CRC B4DD4EEA
Copy CRC B4DD4EEA
Track not fully ripped for AccurateRip lookup
Copy OK

Track 11

Filename C:\My Documents\My FLAC\James Brown - Foundations Of Funk A Brand New Bag 1964-1969 (2CD) (1996) [FLAC]\Disc 2\11 - She's The One.wav

Pre-gap length 0:00:03.05

Peak level 100.0 %
Extraction speed 5.3 X
Track quality 100.0 %
Test CRC D9DAD036
Copy CRC D9DAD036
Track not fully ripped for AccurateRip lookup
Copy OK

Track 12

Filename C:\My Documents\My FLAC\James Brown - Foundations Of Funk A Brand New Bag 1964-1969 (2CD) (1996) [FLAC]\Disc 2\12 - Mother Popcorn (Live).wav

Pre-gap length 0:00:03.43

Peak level 89.1 %
Extraction speed 6.1 X
Track quality 100.0 %
Test CRC 44D8A2A2
Copy CRC 44D8A2A2
Accurately ripped (confidence 8) [E33112A3] (AR v2)
Copy OK


1 track(s) accurately ripped
11 track(s) not fully ripped for AccurateRip lookup

Some tracks could not be verified as accurate

No errors occurred

End of status report

==== Log checksum FB7D4B02C2D0A2C2E88DAE107D371623DAB7457B1FDDC318763EE88714C22093 ====
NITROFLARE (FLAC)