Subcategories

Jeff Berlin - High Standards (2010)

Posted By: Samtro
Jeff Berlin - High Standards (2010)

Jeff Berlin - High Standards (2010)
Jazz, Jazz Bass, Fusion | Released: May 1, 2010
EAC RIP | APE+CUE+LOG+Scans / MP3 320 Kbps | 333 MB / 140 MB

describes this album as follows: "It is a standard jazz piano trio led by a former rock bass player playing jazz tunes, and soloing nothing like bass players usually solo." "Keith Jarrett is huge influence on me. I transcribed his solos and practiced them on bass. I wanted to try my hand at recording tunes that I have played for many years, which inspired me to record three guys in a room and let the session remain as they eventually turned out." It's always a treat when Jeff Berlin releases a new recording! "High Standards" is a must have if you are a jazz fan and or a lover of the bass guitar. Jeff's playing is so crisp and Richard Drexler and Danny Gottlieb add so much to the music. These three gentleman are as tight of a trio as you will ever find. You can tell that Jeff is a true fan of the standards and to hear him put his own twist on these classics... well, just take a listen for yourself and you will see how high the standard has been set!
Tracklist:

1. Groovin’ High (6:20)
2. Nardis (5:02)
3. I Want to Be Happy (6:03)
4. Body and Soul (8:09)
5. Solar (7:04)
6. Invitation (8:07)
7. If I Were a Bell (5:29)
8. Valse Nobles et Sentimales No. IV (1:18)
9. Someday My Prince Will Come (7:13)

Personnel:

Jeff Berlin - Bass
Richard Drexler - Piano / Upright Bass
Danny Gottlieb - Drums


Exact Audio Copy V0.99 prebeta 4 from 23. January 2008

Отчёт EAC об извлечении, выполненном 7. июля 2010, 1:13

Jeff Berlin / High Standards

Дисковод: _NEC DVD_RW ND-2510A Adapter: 1 ID: 0

Режим чтения : Достоверность
Использование точного потока : Да
Отключение кэша аудио : Да
Использование указателей C2 : Нет

Коррекция смещения при чтении : 48
Способность читать области Lead-in и Lead-out : Нет
Заполнение пропущенных сэмплов тишиной : Да
Удаление блоков с тишиной в начале и конце : Нет
При вычислениях CRC использовались нулевые сэмплы : Да
Интерфейс : Установленный внешний ASPI-интерфейс

Выходной формат : Внутренние WAV-операции
Формат сэмплов : 44.100 Гц; 16 бит; стерео


TOC извлечённого CD

Трек | Старт | Длительность | Начальный сектор | Конечный сектор
––––––––––––––––––––––––––––––––––-
1 | 0:00.00 | 6:20.28 | 0 | 28527
2 | 6:20.28 | 5:02.59 | 28528 | 51236
3 | 11:23.12 | 6:03.14 | 51237 | 78475
4 | 17:26.26 | 8:09.69 | 78476 | 115219
5 | 25:36.20 | 7:04.63 | 115220 | 147082
6 | 32:41.08 | 8:07.31 | 147083 | 183638
7 | 40:48.39 | 5:29.64 | 183639 | 208377
8 | 46:18.28 | 1:18.26 | 208378 | 214253
9 | 47:36.54 | 7:13.32 | 214254 | 246760


Характеристики диапазона извлечения и сообщения об ошибках

Выбранный диапазон

Имя файла E:\ПРОЕКТ\Jeff Berlin-High Standards 2010\Jeff Berlin - High Standards.wav

Пиковый уровень 100.0 %
Качество диапазона 100.0 %
CRC теста 98829D1B
CRC копии 98829D1B
Копирование… OK

Ошибок не произошло


AccurateRip: сводка

Трек 1 нет в базе данных
Трек 2 нет в базе данных
Трек 3 нет в базе данных
Трек 4 нет в базе данных
Трек 5 нет в базе данных
Трек 6 нет в базе данных
Трек 7 нет в базе данных
Трек 8 нет в базе данных
Трек 9 нет в базе данных

Ни одного трека нет в базе AccurateRip

Конец отчёта


Depositfiles:
APE: Download

Letitbit:
APE: Part-1 Part-2 Part-3
MP3:
Download

SharingMatrix:
APE: Download