Subcategories

Joe Lynn Turner - Second Hand Life (2007) [Japanese Ed.]

Posted By: Andi_Deris
Joe Lynn Turner - Second Hand Life (2007) [Japanese Ed.]

Joe Lynn Turner - Second Hand Life (2007) [Japanese Ed.]
EAC Rip | FLAC: Image+Cue+Log | 406 Mb | MP3 CBR 320 kbps | 143 Mb | Scans | 83 Mb | Time: 49:06
Genre: Hard Rock | Label: Yamaha Music | Cat.№: YCCY-10017

'"Second Hand Life" seems to have been influenced by a little bit of everything from JLT's catalog. There is clearly a lot of Deep Purple influence in a lot of tracks - JLT was Deep Purple's substitute singer for quite a few years. But, there are also influences from his days in Rainbow that are obvious. And, his own unique style and incredible ability to write top quality ballads rounds out the overall sound of "Second Hand Life".



Joe Lynn Turner - Second Hand Life (2007) [Japanese Ed.]


Track Listing

01. Your Love Is Life (04:39)
02. Got Me Where You Want Me (03:19)
03. Second Hand Life (04:34)
04. In Your Eyes (04:55)
05. Blood Red Sky (05:57)
06. Stroke Of Midnight (04:49)
07. Off The Hook (Bonus track for Japan) (04:10)
08. Over The Top (04:25)
09. Cruel (03:48)
10. Sweet Obsession (03:45)
11. Love Is On Our Side (04:40)

Produced by Bob Held, Joe Lynn Turner & Mark Wexler

Personnel

• Joe Lynn Turner: lead vocals
• Karl Cochran: guitars, bass
• Michael Cartellone: drums
• Gary Corbett: keyboards
• Bob Held: bass on tracks 2, 3, 6, and 8

Exact Audio Copy V1.0 beta 3 from 29. August 2011

EAC extraction logfile from 29. October 2014, 12:37

Joe Lynn Turner / Second Hand Life

Used drive : SlimtypeDVD A DS8A5SH Adapter: 0 ID: 1

Read mode : Secure
Utilize accurate stream : Yes
Defeat audio cache : Yes
Make use of C2 pointers : No

Read offset correction : 6
Overread into Lead-In and Lead-Out : No
Fill up missing offset samples with silence : Yes
Delete leading and trailing silent blocks : No
Null samples used in CRC calculations : Yes
Used interface : Native Win32 interface for Win NT & 2000

Used output format : User Defined Encoder
Selected bitrate : 320 kBit/s
Quality : High
Add ID3 tag : No
Command line compressor : C:\Program Files (x86)\Exact Audio Copy\Flac\flac.exe
Additional command line options : -V -8 -T "Date=%year%" -T "Genre=%genre%" %source%


TOC of the extracted CD

Track | Start | Length | Start sector | End sector
––––––––––––––––––––––––––––-
1 | 0:00.00 | 4:39.47 | 0 | 20971
2 | 4:39.47 | 3:19.42 | 20972 | 35938
3 | 7:59.14 | 4:34.11 | 35939 | 56499
4 | 12:33.25 | 4:55.17 | 56500 | 78641
5 | 17:28.42 | 5:57.14 | 78642 | 105430
6 | 23:25.56 | 4:49.28 | 105431 | 127133
7 | 28:15.09 | 4:10.39 | 127134 | 145922
8 | 32:25.48 | 4:25.64 | 145923 | 165861
9 | 36:51.37 | 3:48.49 | 165862 | 183010
10 | 40:40.11 | 3:45.17 | 183011 | 199902
11 | 44:25.28 | 4:40.15 | 199903 | 220917


Range status and errors

Selected range

Filename D:\My Music\Joe Lynn Turner - 2007 Second Hand Life\Joe Lynn Turner - Second Hand Life.wav

Peak level 100.0 %
Extraction speed 4.3 X
Range quality 100.0 %
Test CRC 405A12C7
Copy CRC 405A12C7
Copy OK

No errors occurred


AccurateRip summary

Track 1 accurately ripped (confidence 1) [92444922] (AR v2)
Track 2 accurately ripped (confidence 1) [235A2B09] (AR v2)
Track 3 accurately ripped (confidence 1) [5FAC575B] (AR v2)
Track 4 accurately ripped (confidence 1) [A7A75BA9] (AR v2)
Track 5 accurately ripped (confidence 1) [4DEF2337] (AR v2)
Track 6 accurately ripped (confidence 1) [BD430234] (AR v2)
Track 7 accurately ripped (confidence 1) [AE60A1DA] (AR v2)
Track 8 accurately ripped (confidence 1) [920831D3] (AR v2)
Track 9 accurately ripped (confidence 1) [6D772E95] (AR v2)
Track 10 accurately ripped (confidence 1) [1460DED5] (AR v2)
Track 11 accurately ripped (confidence 1) [0A9CD576] (AR v2)

All tracks accurately ripped

End of status report

==== Log checksum C92B6E6B1A9AB40EBF9FB9E95290B8D1655D45F7D251A1D4294AA00AC0C8BB22 ====


Many thanks to the original uploader: kolushew