Subcategories

Juice With Soul - Body Armor (1993) **[RE-UP]**

Posted By: TestTickles
Juice With Soul - Body Armor (1993) **[RE-UP]**

Juice With Soul - Body Armor (1993) {Atlantic Street/Atlantic}
EAC Rip | FLAC with CUE and log | scans | 310 mb
MP3 CBR 320kbps | RAR | 134 mb
Genre: rap, hip-hop

Body Armor is the 1993 debut album by rap duo Juice With Soul. Released by Atlantic Street/Atlantic, the only (known) single from this album was the opening track, "Gang Lingo". The group consisted of rappers Juice (Julius Harold) and Soul (William "Bill" Bias).

Juice With Soul - Body Armor (1993) **[RE-UP]**

01. Gang Lingo
02. To The Uumhm
03. It's On
04. Just Because You're Black
05. Kill Or Get Killed
06. Money Ain't Shit When You're Dead
07. Body Armor
08. Like Father, Like Son
09. Born Suspect
10. Nickel Plated Funk
11. No Bizness In Show Bizness
12. The System
13. Juice With Soul
–-
Executive producers: Terryl L. Calloway, Richard Nash, Kevin Woodley
All songs produced by Juice With Soul

Juice With Soul - Body Armor (1993) **[RE-UP]**


EAC extraction logfile from 21. July 2006, 11:06 for CD
Juice With Soul / Body Armor

Used drive : LITE-ON DVDRW SOHW-1633S Adapter: 0 ID: 0
Read mode : Secure with NO C2, accurate stream, disable cache
Read offset correction : 12
Overread into Lead-In and Lead-Out : No

Used output format : Internal WAV Routines
44.100 Hz; 16 Bit; Stereo

Other options :
Fill up missing offset samples with silence : Yes
Delete leading and trailing silent blocks : No
Installed external ASPI interface


Track 1
Filename D:\FLAC\Juice With Soul - Body Armor (1993) [FLAC]\01 - Gang Lingo.wav

Pre-gap length 0:00:02.42

Peak level 98.3 %
Track quality 99.9 %
Test CRC 2A8D8813
Copy CRC 2A8D8813
Copy OK

Track 2
Filename D:\FLAC\Juice With Soul - Body Armor (1993) [FLAC]\02 - To The Uumhm.wav

Peak level 98.3 %
Track quality 100.0 %
Test CRC E7BD8478
Copy CRC E7BD8478
Copy OK

Track 3
Filename D:\FLAC\Juice With Soul - Body Armor (1993) [FLAC]\03 - It's On.wav

Pre-gap length 0:00:01.02

Peak level 98.4 %
Track quality 100.0 %
Test CRC 949F51F7
Copy CRC 949F51F7
Copy OK

Track 4
Filename D:\FLAC\Juice With Soul - Body Armor (1993) [FLAC]\04 - Just Because You're Black.wav

Pre-gap length 0:00:00.37

Peak level 98.5 %
Track quality 100.0 %
Test CRC 9D0453D6
Copy CRC 9D0453D6
Copy OK

Track 5
Filename D:\FLAC\Juice With Soul - Body Armor (1993) [FLAC]\05 - Kill Or Get Killed.wav

Pre-gap length 0:00:00.02

Peak level 98.5 %
Track quality 99.9 %
Test CRC C9A78B7A
Copy CRC C9A78B7A
Copy OK

Track 6
Filename D:\FLAC\Juice With Soul - Body Armor (1993) [FLAC]\06 - Money Ain't Shit When You're Dead.wav

Peak level 98.5 %
Track quality 100.0 %
Test CRC EAF799E6
Copy CRC EAF799E6
Copy OK

Track 7
Filename D:\FLAC\Juice With Soul - Body Armor (1993) [FLAC]\07 - Body Armor.wav

Pre-gap length 0:00:00.82

Peak level 98.0 %
Track quality 100.0 %
Test CRC A321D855
Copy CRC A321D855
Copy OK

Track 8
Filename D:\FLAC\Juice With Soul - Body Armor (1993) [FLAC]\08 - Like Father, Like Son.wav

Peak level 98.3 %
Track quality 100.0 %
Test CRC 7153C29B
Copy CRC 7153C29B
Copy OK

Track 9
Filename D:\FLAC\Juice With Soul - Body Armor (1993) [FLAC]\09 - Born Suspect.wav

Peak level 98.4 %
Track quality 100.0 %
Test CRC 12F3F9E6
Copy CRC 12F3F9E6
Copy OK

Track 10
Filename D:\FLAC\Juice With Soul - Body Armor (1993) [FLAC]\10 - Nickel Plated Funk.wav

Pre-gap length 0:00:01.16

Peak level 98.3 %
Track quality 100.0 %
Test CRC ADCFD2B8
Copy CRC ADCFD2B8
Copy OK

Track 11
Filename D:\FLAC\Juice With Soul - Body Armor (1993) [FLAC]\11 - No Bizness In Show Bizness.wav

Peak level 98.3 %
Track quality 100.0 %
Test CRC FC889973
Copy CRC FC889973
Copy OK

Track 12
Filename D:\FLAC\Juice With Soul - Body Armor (1993) [FLAC]\12 - The System.wav

Pre-gap length 0:00:00.06

Peak level 98.3 %
Track quality 99.9 %
Test CRC 517069F6
Copy CRC 517069F6
Copy OK

Track 13
Filename D:\FLAC\Juice With Soul - Body Armor (1993) [FLAC]\13 - Juice With Soul.wav

Peak level 98.3 %
Track quality 100.0 %
Test CRC D335F754
Copy CRC D335F754
Copy OK

No errors occured


End of status report


Juice With Soul - Body Armor (1993) **[RE-UP]**


Check out other titles in my blog.