Subcategories

J.T. Shelter - J.T. Shelter (1993)

Posted By: BlondStyle
J.T. Shelter - J.T. Shelter (1993)

J.T. Shelter - J.T. Shelter (1993)
Pop/Rock, Melodic Rock, AOR | EAC Rip | FLAC, Img+CUE+LOG+Scans (JPEG) | 43:58 Min | 340,46 Mb
Label: Kardiak (Canada) | Cat.# KRKCD-2503 | Released: 1993

Cool CD from the ex-Shelter man. I consider this cd one of the best aor indie release ever heard. Clean production,simple aor but straight to your heart with great melodies and arrangements. This is a pure true AOR gem indeed,I know the price on eBay is not so low but It's a must have, IMO
~Review by z4roxx

J.T. Shelter - J.T. Shelter (1993)

J.T. Shelter - J.T. Shelter (1993)


Release of this album/CD: 1993 [CD Kardiak (Canada), Cat.# KRKCD-2503 / UPC: 064027250329]
℗© 1993 Kardiak Productions Inc.

Credits:

Arranged By – J.T. Shelter
Arranged By, Producer, Engineer – Neil O'Connor
Bass – Eric Bergeron
Drums – Dan Hughes
Graphics – Jerome LeBlanc
Guitar, Backing Vocals – Bob Lapointe
Keyboards – Pascal Mailloux
Management – Paul Beauregard
Mastered By – Bill Kipper
Mixed By – Mark Peters
Producer – Marc Durand
Vocals – J.T. Batten


Tracklist:

01. A Place In Your Heart (03:43)
02. Back Where I Belong (03:46)
03. I'll Be Your Shelter (05:05)
04. Answer Me Now (03:12)
05. That's Fire (05:27)
06. Jet Black Eyes (04:18)
07. Don't Let Go (02:57)
08. One In A Million (03:21)
09. Leave The Heartache (03:52)
10. Here For You (04:27)
11. Time In Our Hands (03:49)

Exact Audio Copy V1.1 from 23. June 2015

Отчёт EAC об извлечении, выполненном 5. октября 2017, 20:55

J.T. Shelter / J.T. Shelter (KRKCD-2503)

Дисковод: PLEXTOR BD-R PX-B950SA Adapter: 1 ID: 0

Режим чтения : Достоверность
Использование точного потока : Да
Отключение кэша аудио : Да
Использование указателей C2 : Нет

Коррекция смещения при чтении : 6
Способность читать области Lead-in и Lead-out : Нет
Заполнение пропущенных сэмплов тишиной : Да
Удаление блоков с тишиной в начале и конце : Нет
При вычислениях CRC использовались нулевые сэмплы : Да
Интерфейс : Встроенный Win32-интерфейс для Win NT/2000

Выходной формат : Пользовательский кодировщик
Выбранный битрейт : 1024 kBit/s
Качество : Высокий
Добавление ID3-тега : Нет
Утилита сжатия : C:\Program Files (x86)\Exact Audio Copy\FLAC\FLAC.EXE
Дополнительные параметры : -6 -V -T "ARTIST=%artist%" -T "TITLE=%title%" -T "ALBUM=%albumtitle%" -T "DATE=%year%" -T "TRACKNUMBER=%tracknr%" -T "GENRE=%genre%" -T "COMMENT=%comment%" -T "BAND=%albuminterpret%" -T "ALBUMARTIST=%albuminterpret%" -T "COMPOSER=%composer%" %haslyrics%–tag-from-file=LYRICS="%lyricsfile%"%haslyrics% -T "DISCNUMBER=%cdnumber%" -T "TOTALDISCS=%totalcds%" -T "TOTALTRACKS=%numtracks%" %hascover%–picture="%coverfile%"%hascover% %source% -o %dest%


TOC извлечённого CD

Трек | Старт | Длительность | Начальный сектор | Конечный сектор
––––––––––––––––––––––––––––––––––-
1 | 0:00.00 | 3:42.52 | 0 | 16701
2 | 3:42.52 | 3:46.08 | 16702 | 33659
3 | 7:28.60 | 5:04.62 | 33660 | 56521
4 | 12:33.47 | 3:11.68 | 56522 | 70914
5 | 15:45.40 | 5:27.10 | 70915 | 95449
6 | 21:12.50 | 4:18.37 | 95450 | 114836
7 | 25:31.12 | 2:57.23 | 114837 | 128134
8 | 28:28.35 | 3:21.10 | 128135 | 143219
9 | 31:49.45 | 3:51.62 | 143220 | 160606
10 | 35:41.32 | 4:26.40 | 160607 | 180596
11 | 40:07.72 | 3:49.35 | 180597 | 197806


Характеристики диапазона извлечения и сообщения об ошибках

Выбранный диапазон

Имя файла G:\RIP\J.T. Shelter 1993 FLAC by alzal\J.T. Shelter - J.T. Shelter (KRKCD-2503).wav

Пиковый уровень 100.0 %
Скорость извлечения 3.1 X
Качество диапазона 99.9 %
CRC теста 4848D25A
CRC копии 4848D25A
Копирование… OK

Ошибок не произошло


AccurateRip: сводка

Трек 1 отсутствует в базе данных
Трек 2 отсутствует в базе данных
Трек 3 отсутствует в базе данных
Трек 4 отсутствует в базе данных
Трек 5 отсутствует в базе данных
Трек 6 отсутствует в базе данных
Трек 7 отсутствует в базе данных
Трек 8 отсутствует в базе данных
Трек 9 отсутствует в базе данных
Трек 10 отсутствует в базе данных
Трек 11 отсутствует в базе данных

Ни одного трека нет в базе AccurateRip

Конец отчёта

–– CUETools DB Plugin V2.1.6

[CTDB TOCID: xAi6ChljAW8W.IMMmk0NTTc4WGg-] disk not present in database
Submit result: xAi6ChljAW8W.IMMmk0NTTc4WGg- has been uploaded


==== Контрольная сумма отчёта 56F6E3A044CF5BCAC85D50C97A6B556467CB3C3A6A9FE9660E1A90371DAB267D ====

––––––––––––––––––––––––––––––––––––––––
Analyzed: J.T. Shelter / J.T. Shelter (KRKCD-2503)
––––––––––––––––––––––––––––––––––––––––

DR Peak RMS Duration Track
––––––––––––––––––––––––––––––––––––––––
DR9 -0.15 dB -10.94 dB 3:43 01-A Place In Your Heart
DR10 -0.25 dB -12.48 dB 3:46 02-Back Where I Belong
DR10 -0.16 dB -12.83 dB 5:05 03-I'll Be Your Shelter
DR9 0.00 dB -10.10 dB 3:12 04-Answer Me Now
DR9 0.00 dB -12.42 dB 5:27 05-That's Fire
DR10 -0.01 dB -12.13 dB 4:18 06-Jet Black Eyes
DR9 -0.10 dB -11.18 dB 2:57 07-Don't Let Go
DR10 -0.07 dB -11.98 dB 3:21 08-One In A Million
DR10 -0.09 dB -11.49 dB 3:52 09- Leave The Heartache
DR10 -0.22 dB -12.47 dB 4:27 10-Here For You
DR10 -0.09 dB -11.35 dB 3:49 11-Time In Our Hands
––––––––––––––––––––––––––––––––––––––––

Number of tracks: 11
Official DR value: DR10

Samplerate: 44100 Hz
Channels: 2
Bits per sample: 16
Bitrate: 988 kbps
Codec: FLAC
================================================================================

Thanks to alzal

password: BlondStyle