Subcategories

Jack Lee - Asianergy (2006) {Videoarts Japan}

Posted By: tiburon
Jack Lee - Asianergy (2006) {Videoarts Japan}

Jack Lee - Asianergy (2006) {Videoarts Japan}
EAC 0.99pb4 | FLAC Image level 8 | Cue+Log | Scans 300dpi | 349MB + 5% Recovery
MP3 CBR 320 Kbps | 138MB + 5% Recovery
Genre: Smooth-Jazz, Fusion

This is a masterclass in guitar and percussion all performed to an exceedingly high standard featuring a variety of talent from Bob James to Lewis Pragasam.
Track List
01.Scenes From The Past
02.An Episode Of Journey
03.Asian*ergy
04.Exotica
05.jeju Island(or jeju do)
06.Kamiyama
07.All Of Those Things
08.Sunrise In Mumbai
09.The Reason
10.Waiting In Rain

musicians
Jack Lee - all guitars
Dave Grusin - piano
Harvey Mason - drums
Melvin Davis - bass
Toninho Horta - percussion loops
Norihito Sumitomo - tenor sax, EWI, keyboards
Suphala - tabla, voices
Lewis Pragasam - drums, percussion
Bobby Singh - tabla and indian percussion
Charles Blenzig - piano, keyboards
Zai Lan - bass


Exact Audio Copy V0.99 prebeta 4 from 23. January 2008

Отчёт EAC об извлечении, выполненном 23. декабря 2010, 20:05

Jack Lee / Asian*ergy

Дисковод: _NEC DVD_RW ND-2510A Adapter: 1 ID: 0

Режим чтения : Достоверность
Использование точного потока : Да
Отключение кэша аудио : Да
Использование указателей C2 : Нет

Коррекция смещения при чтении : 48
Способность читать области Lead-in и Lead-out : Нет
Заполнение пропущенных сэмплов тишиной : Да
Удаление блоков с тишиной в начале и конце : Нет
При вычислениях CRC использовались нулевые сэмплы : Да
Интерфейс : Встроенный Win32-интерфейс для Win NT/2000

Выходной формат : Внутренние WAV-операции
Формат сэмплов : 44.100 Гц; 16 бит; стерео


TOC извлечённого CD

Трек | Старт | Длительность | Начальный сектор | Конечный сектор
––––––––––––––––––––––––––––––––––-
1 | 0:00.00 | 6:04.49 | 0 | 27348
2 | 6:04.49 | 6:13.22 | 27349 | 55345
3 | 12:17.71 | 5:26.46 | 55346 | 79841
4 | 17:44.42 | 6:27.49 | 79842 | 108915
5 | 24:12.16 | 6:31.52 | 108916 | 138292
6 | 30:43.68 | 5:55.47 | 138293 | 164964
7 | 36:39.40 | 4:37.06 | 164965 | 185745
8 | 41:16.46 | 5:59.20 | 185746 | 212690
9 | 47:15.66 | 3:34.53 | 212691 | 228793
10 | 50:50.44 | 5:01.38 | 228794 | 251406


Характеристики диапазона извлечения и сообщения об ошибках

Выбранный диапазон

Имя файла E:\ПРОЕКТ\Jack lee-Asianergy 2006\Jack Lee - Asian ergy.wav

Пиковый уровень 94.4 %
Качество диапазона 100.0 %
CRC теста F5D6CB20
CRC копии F5D6CB20
Копирование… OK

Ошибок не произошло


AccurateRip: сводка

Трек 1 нет в базе данных
Трек 2 нет в базе данных
Трек 3 нет в базе данных
Трек 4 нет в базе данных
Трек 5 нет в базе данных
Трек 6 нет в базе данных
Трек 7 нет в базе данных
Трек 8 нет в базе данных
Трек 9 нет в базе данных
Трек 10 нет в базе данных

Ни одного трека нет в базе AccurateRip

Конец отчёта

Jack Lee - Asianergy (2006) {Videoarts Japan}


Thanks to the original ripper