Tags
Language
Tags

Jackson Browne - The Road East: Live In Japan (2017) {Japan Blu-Spec CD2}

Posted By: popsakov
Jackson Browne - The Road East: Live In Japan (2017) {Japan Blu-Spec CD2}

Jackson Browne - The Road East: Live In Japan (2017) {Japan Blu-Spec CD2}
EAC Rip | FLAC (Tracks) + Cue + m3u + Log ~ 383 Mb | MP3 CBR320 ~ 153 Mb
Full Scans ~ 152 Mb | RAR 5% Recovery
Classic Rock / Folk Rock / Soft Rock / Singer-Songwriter
Inside Recordings / Sony Music Labels #SICX 30050

Japanese original release. Jackson Browne brings a live album with tracks selected from his Japan tour in 2015, featuring a tight band of top-notch musicians. The songs are selected and mastered by Jackson Browne himself, including “These Days,” “The Crow on the Cradle,” and “Far From the Arms of Hunger.”

Clyde Jackson Browne is an American singer-songwriter and musician who has sold over 18 million albums in the United States. Coming to prominence in the 1970s, Browne has written and recorded songs such as "These Days", "The Pretender", "Running on Empty", "Lawyers in Love", "Doctor My Eyes", "Take It Easy", "For a Rocker", and "Somebody's Baby". In 2004, he was inducted into the Rock and Roll Hall of Fame in Cleveland, Ohio, and given an honorary doctorate of music by Occidental College in Los Angeles, California. In 2015, Rolling Stone listed him as the 37th greatest songwriter of all time in its list of "100 Greatest Songwriters of All Time".

***************

Jackson Browne - The Road East: Live In Japan (2017) {Japan Blu-Spec CD2}

Track List:

01. The Barricades of Heaven [10:34]
02. These Days [5:28]
03. Call It a Loan [5:38]
04. The Crow on the Cradle [6:34]
05. Looking East [6:59]
06. I'm Alive [5:11]
07. In the Shape of a Heart [6:45]
08. Lives in the Balance [5:59]
09. Far From the Arms of Hunger [5:03]
10. I Am a Patriot [5:20]

Personnel:
Jackson Browne - Acoustic, Electric Guitars, Vocals
Jeff Young - Hammond Organ, Keyboards, Vocals
Bob Glaub - Bass
Mauricio Lewak - Drums
Greg Leisz - Electric, Slide Gutars
Val McCallum - Electric Guitars
Chavonne Stewart - Vocals
Alethea Mills - Vocals

Exact Audio Copy V1.3 from 2. September 2016

EAC extraction logfile from 2. January 2019, 19:32

Jackson Browne / The Road East - Live in Japan

Used drive : ASUS BW-12D1S-U Adapter: 1 ID: 1

Read mode : Secure
Utilize accurate stream : Yes
Defeat audio cache : Yes
Make use of C2 pointers : No

Read offset correction : 667
Overread into Lead-In and Lead-Out : No
Fill up missing offset samples with silence : Yes
Delete leading and trailing silent blocks : No
Null samples used in CRC calculations : Yes
Used interface : Native Win32 interface for Win NT & 2000
Gap handling : Appended to previous track

Used output format : User Defined Encoder
Selected bitrate : 1024 kBit/s
Quality : High
Add ID3 tag : No
Command line compressor : C:\Program Files (x86)\Exact Audio Copy\FLAC\FLAC.EXE
Additional command line options : -V -8 -T "Genre=%genre%" -T "Artist=%artist%" -T "Title=%title%" -T "Album=%albumtitle%" -T "Date=%year%" -T "Tracknumber=%tracknr%" -T "Comment=%comment%" %source%


TOC of the extracted CD

Track | Start | Length | Start sector | End sector
––––––––––––––––––––––––––––-
1 | 0:00.00 | 10:34.35 | 0 | 47584
2 | 10:34.35 | 5:27.60 | 47585 | 72169
3 | 16:02.20 | 5:37.49 | 72170 | 97493
4 | 21:39.69 | 6:34.09 | 97494 | 127052
5 | 28:14.03 | 6:59.12 | 127053 | 158489
6 | 35:13.15 | 5:11.09 | 158490 | 181823
7 | 40:24.24 | 6:44.63 | 181824 | 212186
8 | 47:09.12 | 5:59.26 | 212187 | 239137
9 | 53:08.38 | 5:03.11 | 239138 | 261873
10 | 58:11.49 | 5:19.62 | 261874 | 285860


Track 1

Filename E:\Torrents of Autumn\Browne, Jackson [2017] The Road East~ Live in Japan (Blu-specCD2, Japan)\01. The Barricades of Heaven.wav

Pre-gap length 0:00:02.00

Peak level 99.0 %
Extraction speed 5.4 X
Track quality 99.9 %
Test CRC 48DA7140
Copy CRC 48DA7140
Accurately ripped (confidence 5) [2D2487B5] (AR v2)
Copy OK

Track 2

Filename E:\Torrents of Autumn\Browne, Jackson [2017] The Road East~ Live in Japan (Blu-specCD2, Japan)\02. These Days.wav

Peak level 99.1 %
Extraction speed 6.2 X
Track quality 100.0 %
Test CRC 40427AAE
Copy CRC 40427AAE
Accurately ripped (confidence 5) [7351830D] (AR v2)
Copy OK

Track 3

Filename E:\Torrents of Autumn\Browne, Jackson [2017] The Road East~ Live in Japan (Blu-specCD2, Japan)\03. Call It a Loan.wav

Peak level 99.4 %
Extraction speed 6.1 X
Track quality 99.9 %
Test CRC DF2EF5A3
Copy CRC DF2EF5A3
Accurately ripped (confidence 5) [457ADC70] (AR v2)
Copy OK

Track 4

Filename E:\Torrents of Autumn\Browne, Jackson [2017] The Road East~ Live in Japan (Blu-specCD2, Japan)\04. The Crow on the Cradle.wav

Peak level 97.7 %
Extraction speed 7.2 X
Track quality 100.0 %
Test CRC 2E4B42C8
Copy CRC 2E4B42C8
Accurately ripped (confidence 5) [AD897D9E] (AR v2)
Copy OK

Track 5

Filename E:\Torrents of Autumn\Browne, Jackson [2017] The Road East~ Live in Japan (Blu-specCD2, Japan)\05. Looking East.wav

Peak level 98.4 %
Extraction speed 7.6 X
Track quality 100.0 %
Test CRC 4D9ADEE1
Copy CRC 4D9ADEE1
Accurately ripped (confidence 5) [D365CD2C] (AR v2)
Copy OK

Track 6

Filename E:\Torrents of Autumn\Browne, Jackson [2017] The Road East~ Live in Japan (Blu-specCD2, Japan)\06. I'm Alive.wav

Peak level 100.0 %
Extraction speed 7.8 X
Track quality 100.0 %
Test CRC C97315C2
Copy CRC C97315C2
Accurately ripped (confidence 5) [C7BC9C4A] (AR v2)
Copy OK

Track 7

Filename E:\Torrents of Autumn\Browne, Jackson [2017] The Road East~ Live in Japan (Blu-specCD2, Japan)\07. In the Shape of a Heart.wav

Peak level 99.1 %
Extraction speed 8.3 X
Track quality 100.0 %
Test CRC 651E9193
Copy CRC 651E9193
Accurately ripped (confidence 5) [F6B80903] (AR v2)
Copy OK

Track 8

Filename E:\Torrents of Autumn\Browne, Jackson [2017] The Road East~ Live in Japan (Blu-specCD2, Japan)\08. Lives in the Balance.wav

Peak level 100.0 %
Extraction speed 8.5 X
Track quality 100.0 %
Test CRC 6EA63444
Copy CRC 6EA63444
Accurately ripped (confidence 5) [C822144A] (AR v2)
Copy OK

Track 9

Filename E:\Torrents of Autumn\Browne, Jackson [2017] The Road East~ Live in Japan (Blu-specCD2, Japan)\09. Far From the Arms of Hunger.wav

Peak level 88.9 %
Extraction speed 8.6 X
Track quality 100.0 %
Test CRC 7474828F
Copy CRC 7474828F
Accurately ripped (confidence 5) [15450A77] (AR v2)
Copy OK

Track 10

Filename E:\Torrents of Autumn\Browne, Jackson [2017] The Road East~ Live in Japan (Blu-specCD2, Japan)\10. I Am a Patriot.wav

Peak level 100.0 %
Extraction speed 8.9 X
Track quality 100.0 %
Test CRC 5B36BBA0
Copy CRC 5B36BBA0
Accurately ripped (confidence 5) [1DC4B448] (AR v2)
Copy OK


All tracks accurately ripped

No errors occurred

End of status report

–– CUETools DB Plugin V2.1.6

[CTDB TOCID: k1hVgYc3Qc_.NLcVHe6Ip2IR.rY-] found
Submit result: k1hVgYc3Qc_.NLcVHe6Ip2IR.rY- has been confirmed
Track | CTDB Status
1 | (24/24) Accurately ripped
2 | (24/24) Accurately ripped
3 | (24/24) Accurately ripped
4 | (24/24) Accurately ripped
5 | (24/24) Accurately ripped
6 | (24/24) Accurately ripped
7 | (24/24) Accurately ripped
8 | (24/24) Accurately ripped
9 | (24/24) Accurately ripped
10 | (23/24) Accurately ripped


==== Log checksum 2C719D15104633121EED7EA9B5DAF231FBBFB529F8B436B153AD31A99FAF457B ====

Jackson Browne - The Road East: Live In Japan (2017) {Japan Blu-Spec CD2}

All thanks go to DoobieBro

>>> My Blog <<<

Download from icerbox.com: