Subcategories

Jacques Loussier Trio - The Brandenburgs (2006) {Repost}

Posted By: luckburz
Jacques Loussier Trio - The Brandenburgs (2006) {Repost}

Jacques Loussier Trio - The Brandenburgs
EAC+LOG+CUE | FLAC: 287 MB | Full Artwork | 5% Recovery Info
Label/Cat#: Telarc Jazz # CD-83644 | Country/Year: Europe 2006
Genre: Jazz, Classical | Style: Crossover

MD5 [X] CUE [X] LOG [X] INFO TEXT [X] ARTWORK [X]

selfrip [X] not my rip []

Jacques Loussier Trio - The Brandenburgs (2006) {Repost}


Exact Audio Copy V1.0 beta 3 from 29. August 2011

EAC extraction logfile from 23. June 2012, 21:36

Jacques Loussier Trio / Bach: The Brandenburgs

Used drive : PIONEER BD-RW BDR-206 Adapter: 2 ID: 3

Read mode : Secure
Utilize accurate stream : Yes
Defeat audio cache : Yes
Make use of C2 pointers : No

Read offset correction : 667
Overread into Lead-In and Lead-Out : No
Fill up missing offset samples with silence : Yes
Delete leading and trailing silent blocks : No
Null samples used in CRC calculations : Yes
Used interface : Native Win32 interface for Win NT & 2000

Used output format : User Defined Encoder
Selected bitrate : 896 kBit/s
Quality : High
Add ID3 tag : No
Command line compressor : C:\Program Files\FLAC\flac.exe
Additional command line options : -5 -T "Artist=%artist%" -T "Title=%title%" -T "Album=%albumtitle%" -T "Date=%year%" -T "Tracknumber=%tracknr%" -T "Genre=%genre%" %source% -o %dest%


TOC of the extracted CD

Track | Start | Length | Start sector | End sector
––––––––––––––––––––––––––––-
1 | 0:00.00 | 1:54.11 | 0 | 8560
2 | 1:54.11 | 2:57.54 | 8561 | 21889
3 | 4:51.65 | 2:33.59 | 21890 | 33423
4 | 7:25.49 | 2:39.09 | 33424 | 45357
5 | 10:04.58 | 3:10.43 | 45358 | 59650
6 | 13:15.26 | 3:02.58 | 59651 | 73358
7 | 16:18.09 | 2:30.10 | 73359 | 84618
8 | 18:48.19 | 1:53.68 | 84619 | 93161
9 | 20:42.12 | 2:19.04 | 93162 | 103590
10 | 23:01.16 | 4:53.43 | 103591 | 125608
11 | 27:54.59 | 3:16.37 | 125609 | 140345
12 | 31:11.21 | 2:38.44 | 140346 | 152239
13 | 33:49.65 | 6:19.03 | 152240 | 180667
14 | 40:08.68 | 5:36.40 | 180668 | 205907
15 | 45:45.33 | 7:09.47 | 205908 | 238129
16 | 52:55.05 | 2:14.58 | 238130 | 248237
17 | 55:09.63 | 3:17.71 | 248238 | 263083
18 | 58:27.59 | 1:50.28 | 263084 | 271361


Range status and errors

Selected range

Filename I:\=== VINYL RIPS ===\=== EAC===\X FRESH RIP\Jacques Loussier Trio - Bach- The Brandenburgs.wav

Peak level 100.0 %
Extraction speed 7.3 X
Range quality 99.9 %
Test CRC 44298F38
Copy CRC 44298F38
Copy OK

No errors occurred


AccurateRip summary

Track 1 accurately ripped (confidence 14) [FDE68FED] (AR v1)
Track 2 accurately ripped (confidence 14) [E79B6203] (AR v1)
Track 3 accurately ripped (confidence 14) [A750103A] (AR v1)
Track 4 accurately ripped (confidence 14) [24278EA5] (AR v1)
Track 5 accurately ripped (confidence 14) [2C90B774] (AR v1)
Track 6 accurately ripped (confidence 14) [CD23CE91] (AR v1)
Track 7 accurately ripped (confidence 13) [DFAAF687] (AR v1)
Track 8 accurately ripped (confidence 13) [778634D3] (AR v1)
Track 9 accurately ripped (confidence 13) [11390B83] (AR v1)
Track 10 accurately ripped (confidence 13) [F4C4C6E1] (AR v1)
Track 11 accurately ripped (confidence 13) [BA2BE303] (AR v1)
Track 12 accurately ripped (confidence 13) [33945866] (AR v1)
Track 13 accurately ripped (confidence 13) [5F9DB426] (AR v1)
Track 14 accurately ripped (confidence 13) [2C47F21F] (AR v1)
Track 15 accurately ripped (confidence 12) [107EBBFD] (AR v1)
Track 16 accurately ripped (confidence 12) [1C194A66] (AR v1)
Track 17 accurately ripped (confidence 13) [A9D9DB72] (AR v1)
Track 18 accurately ripped (confidence 13) [8EBE1AA5] (AR v1)

All tracks accurately ripped

End of status report

–– CUETools DB Plugin V2.1.3

[CTDB TOCID: dTm.ZhonkD5Qm.WVsZ598.ZHo1M-] found, Submit result: dTm.ZhonkD5Qm.WVsZ598.ZHo1M- has been confirmed
[cd7f49b1] (4/4) Accurately ripped


==== Log checksum 73E505EB887865510E0FCF62477B8941396D25518BEBA6C36758B02A8771F4A4 ====

foobar2000 1.1.7 / Dynamic Range Meter 1.1.1
log date: 2012-06-25 11:21:18

––––––––––––––––––––––––––––––––––––––––
Analyzed: Jacques Loussier Trio / Bach: The Brandenburgs
––––––––––––––––––––––––––––––––––––––––

DR Peak RMS Duration Track
––––––––––––––––––––––––––––––––––––––––
DR11 0.00 dB -12.95 dB 1:54 01-Concerto No. 1 in F major: I. (Allegro)
DR15 0.00 dB -19.75 dB 2:58 02-Concerto No. 1 in F major: II. Adagio
DR9 0.00 dB -11.50 dB 2:34 03-Concerto No. 1 in F major: III. Allegro
DR11 0.00 dB -12.67 dB 2:39 04-Concerto No. 2 in F major: I. (Allegro)
DR13 -2.51 dB -19.59 dB 3:11 05-Concerto No. 2 in F major: II. Andante
DR9 0.00 dB -11.47 dB 3:03 06-Concerto No. 2 in F major: III. Allegro assai
DR12 0.00 dB -14.00 dB 2:30 07-Concerto No. 3 in G major: I. (Allegro)
DR15 -3.70 dB -21.78 dB 1:54 08-Concerto No. 3 in G major: II. Adagio
DR12 0.00 dB -15.10 dB 2:19 09-Concerto No. 3 in G major: III. Allegro
DR13 -1.77 dB -19.31 dB 4:54 10-Concerto No. 4 in G major: I. Allegro
DR14 -4.91 dB -22.27 dB 3:16 11-Concerto No. 4 in G major: II. Andante
DR13 0.00 dB -15.76 dB 2:39 12-Concerto No. 4 in G major: III. Presto
DR10 0.00 dB -12.22 dB 6:19 13-Concerto No. 5 in D major: I. Allegro
DR14 0.00 dB -18.31 dB 5:37 14-Concerto No. 5 in D major: II. Affettuoso
DR9 0.00 dB -12.71 dB 7:10 15-Concerto No. 5 in D major: III. Allegro
DR11 0.00 dB -13.07 dB 2:15 16-Concerto No. 6 in B-flat major: I. (Allegro)
DR14 0.00 dB -16.61 dB 3:18 17-Concerto No. 6 in B-flat major: II. Allegro
DR13 0.00 dB -15.67 dB 1:50 18-Concerto No. 6 in B-flat major: III. Adagio ma non tanto
––––––––––––––––––––––––––––––––––––––––

Number of tracks: 18
Official DR value: DR12

Samplerate: 44100 Hz
Channels: 2
Bits per sample: 16
Bitrate: 667 kbps
Codec: FLAC
================================================================================



CD Info:

Jacques Loussier Trio - Bach- The Brandenburgs

Label: Telarc Jazz
Catalog#: CD-83644
Format: CD, Album
Country: Europe
Released: 2006
Genre: Jazz, Classical

Tracklist:

01. Concerto No. 1 in F major: I. (Allegro) 1:54
02. Concerto No. 1 in F major: II. Adagio 2:57
03. Concerto No. 1 in F major: III. Allegro 2:33
04. Concerto No. 2 in F major: I. (Allegro) 2:39
05. Concerto No. 2 in F major: II. Andante 3:10
06. Concerto No. 2 in F major: III. Allegro assai 3:02
07. Concerto No. 3 in G major: I. (Allegro) 2:30
08. Concerto No. 3 in G major: II. Adagio 1:53
09. Concerto No. 3 in G major: III. Allegro 2:19
10. Concerto No. 4 in G major: I. Allegro 4:53
11. Concerto No. 4 in G major: II. Andante 3:16
12. Concerto No. 4 in G major: III. Presto 2:38
13. Concerto No. 5 in D major: I. Allegro 6:19
14. Concerto No. 5 in D major: II. Affettuoso 5:36
15. Concerto No. 5 in D major: III. Allegro 7:09
16. Concerto No. 6 in B-flat major: I. (Allegro) 2:14
17. Concerto No. 6 in B-flat major: II. Allegro 3:17
18. Concerto No. 6 in B-flat major: III. Adagio ma non tanto 1:50

Jacques Loussier Trio - The Brandenburgs (2006) {Repost}


It was in 1959 that French pianist Loussier combined his interests in both jazz and J.S. Bach to create his Play Bach Trio and the first of a long series of successful records – initially with Decca and lately with Telarc. He has also been involved in other projects over the years exploring the areas between jazz and classical, even getting into the rock-fusion realm. Among his 14 discings for Telarc have been versions of Vivaldi’s Four Seasons, music of Erik Satie, Ravel’s Bolero, Handel’s Water Music, Beethoven’s Seventh Symphony, Mozart Piano Concertos and Impressions of Chopin’s Nocturnes.

The new CD is a return to the Trio’s roots in Bach via a new jazz interpretation of the entire six Brandenburg Concertos, in order. But this time a rather new approach is in the works. As described by Loussier himself: “Whereas my older recordings were about adding to Bach, this record is about reducing his music to its essence, taking the main themes and working with them as any jazz musician might in playing a theme, an improvisation, and a return to the theme.”

The Brandenburgs are a perfect choice for the Play Bach treatment since they are already about the jazziest of Bach’s works. I recall as an adolescent not being that interested in Bach until I got the Brandenburg concertos (on an early prerecorded tape). Then I sat up and took notice. Loussier started with the Concerto No. 5 because it is really a harpsichord concerto. The trio had worked over this concerto in live performance for many years, and the rethinking of the original is more extensive and imaginative than many of the past Play Bach treatments. Just one example is the hypnotic drum and bass beat in the last movement of Concerto No. 2, which sounds almost like Ravel’s Bolero.

If I were a big MP3/AAC person, I would put together a “mix tape” of each movement of the Brandenburg concertos – first from the fine Martin Pearlman/Boston Baroque CD on Telarc, and then from Jacques Loussier’s new CD.

- John Sunier Audiophile Audition


Jacques Loussier Trio - The Brandenburgs (2006) {Repost}

// classical music \\

// all of my uploads \\
________________

Download:

FLAC

Artwork
________________