Jade Warrior - Way Of The Sun (1978)

Posted By: v3122
Jade Warrior - Way Of The Sun (1978)

Jade Warrior - Way Of The Sun (1978)
EAC | Flac(Image) + Cue + Log & MP3 CBR 320Kbps
2010 | Esoteric Recordings, ECLEC2198 | ~ 224 or 98 Mb | Scans(jpg) -> 21 Mb
Progressive Rock

Each of Jade Warrior's Island albums was a revelation, both musically and thematically. Floating World's exploration of the Japanese philosophy of Ukiyo, Waves' oceanic voyage, the ninth century Buddhist monk whose story is told on the B-side of Kites (and who takes airy flight across the flip) – all were extraordinary expeditions into the Orient. Having conquered the East, Warrior now turned their Jade eye westward, toward Latin America. By this time, Jade were already moving toward a more orchestral sound, as Kites had evidenced, but Way of the Sun was positively cinematic. Within, the duo – aided by a host of guest musicians – created an incredibly vibrant set that quivers with emotion and life itself. Dawn announces itself with a clap of thunder on "Sun Ra," waking the earth's denizens from their slumbers. Birds soar into the sky, creatures large and small scamper through the meadows and woods, while overhead the sun majestically rises, all of which Jade bring to vivid life across both "Sun Ra" and "Sun Child." "Heaven Stone" and the title track are similarly interconnected, both thematically and musically, and tied to the spiritual beliefs of the continent's indigenous peoples, while broadly hinting at the coming of the conquistadors and their conquering culture. But even as the Spanish laid waste to the land and its peoples, they too would be changed by them, which is reflected by "Carnival" and "Dance of the Sun," songs melding together indigenous and Spanish traditions. The album ends with the haunting "Death of Ra," as the sun sinks below the horizon. Although Latin styles predominate across the set, Warrior weave in myriad other musical threads – Eastern, jazz, surf, and more. The album itself was arguably Jade Warrior's best, their apotheosis, or at least their grand finale, for after its release, Island promptly dumped the duo. Drummers John Dentith and Graham Morgan now went their separate ways, and the Warrior were no more.

by Jo-Ann Greene, allmusic
Jade Warrior - Way Of The Sun (1978)


Jade Warrior - Way Of The Sun (1978):

Jade Warrior - Way Of The Sun (1978)

Tracklist:

1. Sun Ra 3:32
2. Sun Child 2:44
3. Moontears 4:04
4. Heaven Stone 5:27
5. Way Of The Sun 6:02
6. River Song 5:04
7. Carnival 2:17
8. Dance Of The Sun 4:55
9. Death Of Ra 7:24

Exact Audio Copy V1.0 beta 3 from 29. August 2011

EAC extraction logfile from 7. October 2013, 9:43

Jade Warrior / Way Of The Sun

Used drive : HL-DT-STBDDVDRW GBC-H20N Adapter: 1 ID: 0

Read mode : Secure
Utilize accurate stream : Yes
Defeat audio cache : Yes
Make use of C2 pointers : No

Read offset correction : 667
Overread into Lead-In and Lead-Out : No
Fill up missing offset samples with silence : Yes
Delete leading and trailing silent blocks : No
Null samples used in CRC calculations : Yes
Used interface : Native Win32 interface for Win NT & 2000

Used output format : User Defined Encoder
Selected bitrate : 1024 kBit/s
Quality : High
Add ID3 tag : No
Command line compressor : C:\Program Files\Exact Audio Copy\wavpack.exe
Additional command line options : -hm %source% %dest%


TOC of the extracted CD

Track | Start | Length | Start sector | End sector
––––––––––––––––––––––––––––-
1 | 0:00.00 | 3:31.62 | 0 | 15886
2 | 3:31.62 | 2:44.02 | 15887 | 28188
3 | 6:15.64 | 4:04.01 | 28189 | 46489
4 | 10:19.65 | 5:27.31 | 46490 | 71045
5 | 15:47.21 | 6:02.13 | 71046 | 98208
6 | 21:49.34 | 5:03.43 | 98209 | 120976
7 | 26:53.02 | 2:17.30 | 120977 | 131281
8 | 29:10.32 | 4:55.20 | 131282 | 153426
9 | 34:05.52 | 7:23.56 | 153427 | 186707


Range status and errors

Selected range

Filename C:\Users\ProgDog\Music\ZALIVKI\Canterbury Scene\Jade Warrior\09 - 1978 - Way Of The Sun\Jade Warrior - Way Of The Sun.wav

Peak level 98.8 %
Extraction speed 5.0 X
Range quality 100.0 %
Test CRC 67722BF1
Copy CRC 67722BF1
Copy OK

No errors occurred


AccurateRip summary

Track 1 accurately ripped (confidence 3) [3A4155E1] (AR v2)
Track 2 accurately ripped (confidence 3) [C270392A] (AR v2)
Track 3 accurately ripped (confidence 3) [D903FD4D] (AR v2)
Track 4 accurately ripped (confidence 3) [52F20B48] (AR v2)
Track 5 accurately ripped (confidence 3) [A2104989] (AR v2)
Track 6 accurately ripped (confidence 3) [4C3BBC44] (AR v2)
Track 7 accurately ripped (confidence 3) [CEC31373] (AR v2)
Track 8 accurately ripped (confidence 3) [28337F52] (AR v2)
Track 9 accurately ripped (confidence 3) [18B5DB89] (AR v2)

All tracks accurately ripped

End of status report

–– CUETools DB Plugin V2.1.3

[CTDB TOCID: k7DgM2KCvDpPtwctwaxSj3zdrf0-] found, Submit result: k7DgM2KCvDpPtwctwaxSj3zdrf0- has been confirmed
[9f243b06] (1/1) Accurately ripped


==== Log checksum 4B5FA3A42BA6507D3C383E3BB0890AC859989EA923D612DD4F8EB9927F604803 ====


foobar2000 1.2.9 / Dynamic Range Meter 1.1.1
log date: 2017-03-05 14:43:23

––––––––––––––––––––––––––––––––––––––––
Analyzed: Jade Warrior / Way Of The Sun
––––––––––––––––––––––––––––––––––––––––

DR Peak RMS Duration Track
––––––––––––––––––––––––––––––––––––––––
DR10 -1.06 dB -15.93 dB 3:32 01-Sun Ra
DR12 -0.96 dB -19.99 dB 2:44 02-Sun Child
DR10 -1.34 dB -15.33 dB 4:04 03-Moontears
DR13 -1.19 dB -17.88 dB 5:27 04-Heaven Stone
DR9 -0.10 dB -12.43 dB 6:02 05-Way Of The Sun
DR12 -0.49 dB -15.32 dB 5:04 06-River Song
DR10 -0.10 dB -12.17 dB 2:17 07-Carnival
DR10 -0.10 dB -12.74 dB 4:55 08-Dance Of The Sun
DR12 -0.10 dB -15.58 dB 7:24 09-Death Of Ra
––––––––––––––––––––––––––––––––––––––––

Number of tracks: 9
Official DR value: DR11

Samplerate: 44100 Hz
Channels: 2
Bits per sample: 16
Bitrate: 731 kbps
Codec: FLAC

[CUETools log; Date: 05.03.2017 14:43:13; Version: 2.1.4]
[CTDB TOCID: k7DgM2KCvDpPtwctwaxSj3zdrf0-] found.
Track | CTDB Status
1 | (12/12) Accurately ripped
2 | (12/12) Accurately ripped
3 | (12/12) Accurately ripped
4 | (12/12) Accurately ripped
5 | (12/12) Accurately ripped
6 | (12/12) Accurately ripped
7 | (12/12) Accurately ripped
8 | (12/12) Accurately ripped
9 | (12/12) Accurately ripped
[AccurateRip ID: 000d00f7-006187fc-6709b909] found.
Track [ CRC | V2 ] Status
01 [13ca95bc|3a4155e1] (03+07/12) Accurately ripped
02 [93d4de4c|c270392a] (03+07/12) Accurately ripped
03 [6339f6db|d903fd4d] (03+07/12) Accurately ripped
04 [45df5c00|52f20b48] (03+07/12) Accurately ripped
05 [bd4c7a0f|a2104989] (03+07/12) Accurately ripped
06 [d3261a81|4c3bbc44] (03+07/12) Accurately ripped
07 [a0097ffa|cec31373] (03+07/12) Accurately ripped
08 [223a5d98|28337f52] (03+07/12) Accurately ripped
09 [5fca2793|18b5db89] (03+07/12) Accurately ripped
Offsetted by -48:
01 [1426d144] (02/12) Accurately ripped
02 [e17087da] (02/12) Accurately ripped
03 [48e55df8] (02/12) Accurately ripped
04 [a1ee10ea] (02/12) Accurately ripped
05 [cebf5a07] (02/12) Accurately ripped
06 [dabd5763] (02/12) Accurately ripped
07 [77febb61] (02/12) Accurately ripped
08 [83b11604] (02/12) Accurately ripped
09 [9848c675] (02/12) Accurately ripped

Track Peak [ CRC32 ] [W/O NULL] [ LOG ]
– 98,8 [67722BF1] [D012EF8E] CRC32
01 88,5 [5C5B2BB9] [12E807F9]
02 89,5 [35B28EB4] [568DEB0D]
03 85,6 [216AADD9] [F688990E]
04 87,1 [E3AF771C] [7800A7C4]
05 98,8 [397F62C1] [781603B9]
06 94,4 [2EA0EA3D] [D2579D58]
07 98,8 [7F57CE73] [BCEA3CFE]
08 98,8 [393B9C16] [102232A9]
09 98,8 [2259F48D] [7D055653]

Jade Warrior - Way Of The Sun (1978)

All thanks go to arizona–dream

Jade Warrior in my Blog

Download Jade Warrior - Way Of The Sun (1978):