Subcategories
Tags
Language
Tags

Jadis - Across The Water (1994) {1996, Japanese Edition}

Posted By: popsakov
Jadis - Across The Water (1994) {1996, Japanese Edition}

Jadis - Across The Water (1994) {1996, Japanese Edition}
EAC Rip | FLAC (Img) + Cue + Log ~ 321 Mb | MP3 CBR320 ~ 117 Mb
Covers Included | 00:46:11 | RAR 5% Recovery
Giant Electric Pea #GEPCD 1009 / Belle Antique #MAR 96266
Progressive Rock | Nimbus Pressing

Gary Chandler (guitar and vocals) and Stephen Christey (drums and percussion) founded English neo-progressive rockers Jadis in the late 80's and quickly scored some prestigious opening slots, including a coveted stint supporting progressive rock giants Marillion on their 1988 tour. The following year found them headlining London's legendary Marquee Club and recording their first demos with the help of Marillion guitarist Steve Rothery, but repeated line-up changes would force them to wait two more years before beginning work on their debut album, More than Meets the Eye. Released in 1992 by independent label Giant Electric Pea, the L.P. counted with guests appearances from fellow proggies I.Q.'s Martin Orford (keyboards and flute) and John Jowitt (bass). The following year's Once upon a Time E.P. paved the way to 1994's acclaimed sophomore album Across the Water, which the band supported with lengthy tours throughout the U.K. and Europe. 1996's Once or Twice E.P. introduced stand-in musicians Mike Torr (keyboards) and Steve Hunt, who stepped in while Orford and Jowitt toured with progressive rock icon John Wetton, and also performed on Jadis's next album Somersault, as well as 1998's As Daylight Fades live opus. Two years of silence would ensue, but 2000's Understand would reward patient fans by reuniting the band's ‘classic' line-up once again for extensive touring engagements. Subsequent Jadis releases have included 2001's Medium Rare ‘odds & sods' collection, 2002's Alive Outside live set and their fifth studio album in 2003's Fanatic.

~ Eduardo Rivadavia, All Music

***************

Jadis - Across The Water (1994) {1996, Japanese Edition}

Jadis - Across The Water (1994) {1996, Japanese Edition}

Track List:

01. Touch [0:06:01.03]
02. In Isolation [0:06:39.47]
03. Daylight Fades [0:07:48.68]
04. Everywhere I Turn [0:06:16.35]
05. A Life Is All You Need [0:04:22.55]
06. The World On Your Side [0:07:07.15]
07. No Sacrifice [0:07:54.45]

Personnel:
Bass Guitar – John Jowitt
Drums, Percussion – Stephen Christey
Keyboards, Backing Vocals, Flute – Martin Orford
Lead Vocals, Electric Guitar, Acoustic Guitar – Gary Chandler

Additional Musicians:
Backing Vocals – Ken Bundy
Cor Anglais, Oboe, Backing Vocals – Josien Obers

Exact Audio Copy V1.3 from 2. September 2016

EAC extraction logfile from 17. August 2019, 14:52

Jadis / Across The Water [MAR 96266]

Used drive : HL-DT-STBD-RE BH10LS38 Adapter: 1 ID: 0

Read mode : Secure
Utilize accurate stream : Yes
Defeat audio cache : Yes
Make use of C2 pointers : No

Read offset correction : 667
Overread into Lead-In and Lead-Out : No
Fill up missing offset samples with silence : Yes
Delete leading and trailing silent blocks : No
Null samples used in CRC calculations : Yes
Used interface : Native Win32 interface for Win NT & 2000

Used output format : User Defined Encoder
Selected bitrate : 128 kBit/s
Quality : High
Add ID3 tag : No
Command line compressor : C:\Program Files (x86)\Exact Audio Copy\Flac\flac.exe
Additional command line options : -V -8 -T "Date=%year%" -T "Genre=%genre%" %source%


TOC of the extracted CD

Track | Start | Length | Start sector | End sector
––––––––––––––––––––––––––––-
1 | 0:00.32 | 6:01.03 | 32 | 27109
2 | 6:01.35 | 6:39.47 | 27110 | 57081
3 | 12:41.07 | 7:48.68 | 57082 | 92249
4 | 20:30.00 | 6:16.35 | 92250 | 120484
5 | 26:46.35 | 4:22.55 | 120485 | 140189
6 | 31:09.15 | 7:07.15 | 140190 | 172229
7 | 38:16.30 | 7:54.45 | 172230 | 207824


Range status and errors

Selected range

Filename D:\Rips by Alder\Jadis - Across The Water [MAR 96266].wav

Peak level 98.5 %
Extraction speed 2.0 X
Range quality 100.0 %
Test CRC 0152A61B
Copy CRC 0152A61B
Copy OK

No errors occurred


AccurateRip summary

Track 1 accurately ripped (confidence 4) [53DBDAF6] (AR v2)
Track 2 accurately ripped (confidence 4) [E7F842FC] (AR v2)
Track 3 accurately ripped (confidence 4) [32BC0E07] (AR v2)
Track 4 accurately ripped (confidence 4) [3726EEDB] (AR v2)
Track 5 accurately ripped (confidence 4) [23486D83] (AR v2)
Track 6 accurately ripped (confidence 4) [2B67ECBD] (AR v2)
Track 7 accurately ripped (confidence 4) [BE7BCA75] (AR v2)

All tracks accurately ripped

End of status report

–– CUETools DB Plugin V2.1.6

[CTDB TOCID: iMX7MRaB7OgjhXpZ.VJcGzPFqLY-] found
Submit result: iMX7MRaB7OgjhXpZ.VJcGzPFqLY- has been confirmed
Track | CTDB Status
1 | (23/23) Accurately ripped
2 | (23/23) Accurately ripped
3 | (23/23) Accurately ripped
4 | (23/23) Accurately ripped
5 | (23/23) Accurately ripped
6 | (23/23) Accurately ripped
7 | (23/23) Accurately ripped


==== Log checksum 616F03BB10A57D2AA2402C1D2D8D1A961BD9EF485602BD28363D5D690B7E988C ====

[CUETools log; Date: 24.08.2019 2:43:46; Version: 2.1.6]
Pregap length 00:00:32.
[CTDB TOCID: iMX7MRaB7OgjhXpZ.VJcGzPFqLY-] found.
Track | CTDB Status
1 | (25/25) Accurately ripped
2 | (25/25) Accurately ripped
3 | (25/25) Accurately ripped
4 | (25/25) Accurately ripped
5 | (25/25) Accurately ripped
6 | (25/25) Accurately ripped
7 | (25/25) Accurately ripped
[AccurateRip ID: 000c7834-004add21-5b0ad307] found.
Track [ CRC | V2 ] Status
01 [5396d550|53dbdaf6] (06+04/30) Accurately ripped
02 [ae0959af|e7f842fc] (06+04/30) Accurately ripped
03 [a0460d52|32bc0e07] (06+04/30) Accurately ripped
04 [25c75172|3726eedb] (06+04/30) Accurately ripped
05 [7ce87362|23486d83] (06+04/30) Accurately ripped
06 [7f6c086f|2b67ecbd] (06+04/29) Accurately ripped
07 [3b845c2d|be7bca75] (06+04/30) Accurately ripped
Offsetted by -664:
01 [f6112c23] (04/30) Accurately ripped
02 [359591cd] (04/30) Accurately ripped
03 [1f5640b1] (04/30) Accurately ripped
04 [3792caea] (04/30) Accurately ripped
05 [33239919] (04/30) Accurately ripped
06 [c5b940ba] (04/29) Accurately ripped
07 [6963211b] (04/30) Accurately ripped
Offsetted by 106:
01 [d8d7ae64] (09/30) Accurately ripped
02 [af323a2a] (09/30) Accurately ripped
03 [6094cd13] (09/30) Accurately ripped
04 [f66053a2] (09/30) Accurately ripped
05 [e04ff86e] (09/30) Accurately ripped
06 [ed0c4ae2] (09/29) Accurately ripped
07 [d9e41936] (09/30) Accurately ripped
Offsetted by -682:
01 [bbfff9ad] (00/30) No match (V2 was not tested)
02 [746c34b6] (00/30) No match (V2 was not tested)
03 [8b404b97] (00/30) No match (V2 was not tested)
04 [40cedcea] (00/30) No match (V2 was not tested)
05 [3e35f242] (00/30) No match (V2 was not tested)
06 [917683dc] (00/29) No match (V2 was not tested)
07 [c98bcc9f] (00/30) No match (V2 was not tested)
Offsetted by 1474:
01 [94dcc515] (00/30) No match (V2 was not tested)
02 [b42d1d7a] (00/30) No match (V2 was not tested)
03 [3ec94e73] (00/30) No match (V2 was not tested)
04 [9795b042] (00/30) No match (V2 was not tested)
05 [70a17fcc] (00/30) No match (V2 was not tested)
06 [39867263] (00/29) No match (V2 was not tested)
07 [9979320a] (00/30) No match (V2 was not tested)

Track Peak [ CRC32 ] [W/O NULL] [ LOG ]
– 98,5 [0152A61B] [E84F4A91] CRC32
01 98,5 [525A07A0] [BBDC39B3]
02 92,8 [9B880D83] [19EFAD03]
03 94,0 [936B4CFF] [A044BE7B]
04 87,3 [F344D6E7] [E8E9502B]
05 62,4 [FACB3DC3] [F785F6B5]
06 90,1 [0C995649] [0D6463AF]
07 93,1 [CB612AE9] [42ECB734]

Jadis - Across The Water (1994) {1996, Japanese Edition}


All thanks go to Alder

>>> My Blog <<<

DOWNLOAD: