Tags
Language
Tags

James Booker - Classified (1982) Remixed And Expanded 2013

Posted By: Designol
James Booker - Classified (1982) Remixed And Expanded 2013

James Booker - Classified (1982) Remixed And Expanded 2013
XLD | FLAC | Tracks (Cue&Log) ~ 408 Mb | Mp3 (CBR320) ~ 181 Mb | Scans included
Label: Rounder Records | # 11661-9175-2 | Time: 01:13:02
New Orleans Blues, Boogie-Woogie, Rhythm & Blues, Jazz-Blues

One of the great blues albums of the early '80s, Classified captures the legendary New Orleans pianist James Booker not long before his premature death at the age of 43 on November 8, 1983. Recorded in a series of sometimes problematic sessions in 1982 – producer Scott Billington details them in his terrific liner notes on the 2013 reissue of the record, which is remixed and expanded – Classified appeared just a few months before Booker's death, so it's hard not to read it as something of a final statement. That said, Booker's recording career was, shall we say, erratic, consisting of many sessions and live records but only a handful of full-fledged, big-budget albums along the lines of Classified (1976's Junco Partner and the 1977 live set New Orleans Piano Wizard are the only ones that qualify). The pianist didn't intend this to be some kind of grand statement, but Billington was intent on getting a good, solid, New Orleans R&B record from Booker, pushing him through sessions that were often difficult and unfocused. That all changed on the last day, when Booker arrived fresh and recharged and proceeded to plow through a bunch of solo performances that form the bulk of the album and are even more prominent on the reissue. A few full-band songs followed but that was it – Booker took his $3000 check and left the studio, not to be seen again for several weeks. What he left Billington with is as close to a definitive studio album as we could get from the wildly inventive pianist. In the expanded edition, there is more room for detours and Booker takes them, playing "Warsaw Concerto" and "Theme from the Godfather," which gives a great idea of his sense of melody and space, but elsewhere this is firmly rooted in New Orleans, and his takes on "Lawdy Miss Clawdy," "Lonely Avenue," "All Around the World," and a Professor Longhair Medley of "Tipitina" and "Bald Head," all showcase his idiosyncrasies; how he simultaneously builds on tradition while playing with it. All this was present on the original incarnation of Classified, but in its expanded 2013 edition, there's simply more space to showcase every one of James Booker's quirks, and that freedom is why the album remains the definitive Booker LP – it's just even more definitive in this incarnation.

Review by Stephen Thomas Erlewine, Allmusic.com

James Booker - Classified (1982) Remixed And Expanded 2013



Tracklist:

01. Classified (4:03)
02. If You're Lonely (2:58)
03. Warsaw Concerto (2:47)
04. Lawdy Miss Clawdy (Solo Piano Alternate Take) (1:52)
05. Medley: Tico Tico / Papa Was a Rascal / So Swell When You're Well (4:54)
06. All Around The World (3:36)
07. Angel Eyes (3:46)
08. Lonely Avenue (3:37)
09. Professor Longhair Medley: Tipitina/Bald Head (3:40)
10. King Of The Road (3:11)
11. Theme From The Godfather (1:45)
12. Lawdy Miss Clawdy (3:29)
13. I'm Not Sayin' (5:17)
14. Hound Dog (2:30)
15. All These Things (2:43)
16. Yes Sir, That's My Baby (3:34)
17. Baby Face (3:21)
18. If You're Lonely (Solo Piano Alternate Take) (3:05)
19. Madame X (2:11)
20. One For The Highway (2:34)
21. Three Keys (3:21)
22. Amen (4:46)


X Lossless Decoder version 20131102 (145.0)

XLD extraction logfile from 2013-11-29 17:33:12 -0600

James Booker / Classified: Remixed And Expanded

Used drive : MATSHITA DVD-R UJ-8A8 (revision HB14)
Media type : Pressed CD

Ripper mode : XLD Secure Ripper
Disable audio cache : OK for the drive with a cache less than 1375KiB
Make use of C2 pointers : NO
Read offset correction : 102
Max retry count : 100
Gap status : Analyzed, Appended (except HTOA)

TOC of the extracted CD
Track | Start | Length | Start sector | End sector
––––––––––––––––––––––––––––-
1 | 00:00:00 | 04:02:62 | 0 | 18211
2 | 04:02:62 | 02:58:11 | 18212 | 31572
3 | 07:00:73 | 02:47:35 | 31573 | 44132
4 | 09:48:33 | 01:51:64 | 44133 | 52521
5 | 11:40:22 | 04:53:72 | 52522 | 74568
6 | 16:34:19 | 03:36:20 | 74569 | 90788
7 | 20:10:39 | 03:46:21 | 90789 | 107759
8 | 23:56:60 | 03:37:26 | 107760 | 124060
9 | 27:34:11 | 03:39:62 | 124061 | 140547
10 | 31:13:73 | 03:10:42 | 140548 | 154839
11 | 34:24:40 | 01:44:50 | 154840 | 162689
12 | 36:09:15 | 03:29:06 | 162690 | 178370
13 | 39:38:21 | 05:17:02 | 178371 | 202147
14 | 44:55:23 | 02:30:00 | 202148 | 213397
15 | 47:25:23 | 02:42:65 | 213398 | 225612
16 | 50:08:13 | 03:34:29 | 225613 | 241691
17 | 53:42:42 | 03:20:50 | 241692 | 256741
18 | 57:03:17 | 03:05:32 | 256742 | 270648
19 | 60:08:49 | 02:11:24 | 270649 | 280497
20 | 62:19:73 | 02:34:30 | 280498 | 292077
21 | 64:54:28 | 03:21:02 | 292078 | 307154
22 | 68:15:30 | 04:46:18 | 307155 | 328622

AccurateRip Summary
Disc not found in AccurateRip DB.

All Tracks
Album gain : -5.77 dB
Peak : 0.985870
Statistics
Read error : 0
Jitter error (maybe fixed) : 0
Retry sector count : 0
Damaged sector count : 0

Track 01
Filename : /Volumes/Audio and Video/James Booker - Classifiedпјљ Remixed And Expanded (2013) [FLAC (level 8)]/01 - Classified.flac
/Volumes/Audio and Video/James Booker - Classifiedпјљ Remixed And Expanded (2013) [LAME MP3 (V0)]/01 - Classified.mp3
/Volumes/Audio and Video/James Booker - Classifiedпјљ Remixed And Expanded (2013) [LAME MP3 (CBR 320kbps)]/01 - Classified.mp3
/Volumes/Audio and Video/James Booker - Classifiedпјљ Remixed And Expanded (2013) [LAME MP3 (V2)]/01 - Classified.mp3
Pre-gap length : 00:02:00

Track gain : -6.21 dB
Peak : 0.977264
CRC32 hash (test run) : EFFAF2E0
CRC32 hash : EFFAF2E0
CRC32 hash (skip zero) : 58103CB4
AccurateRip v1 signature : 0FD32320
AccurateRip v2 signature : 4B3FC97A
->Track not present in AccurateRip database.
Statistics
Read error : 0
Jitter error (maybe fixed) : 0
Retry sector count : 0
Damaged sector count : 0

Track 02
Filename : /Volumes/Audio and Video/James Booker - Classifiedпјљ Remixed And Expanded (2013) [FLAC (level 8)]/02 - If You're Lonely.flac
/Volumes/Audio and Video/James Booker - Classifiedпјљ Remixed And Expanded (2013) [LAME MP3 (V0)]/02 - If You're Lonely.mp3
/Volumes/Audio and Video/James Booker - Classifiedпјљ Remixed And Expanded (2013) [LAME MP3 (CBR 320kbps)]/02 - If You're Lonely.mp3
/Volumes/Audio and Video/James Booker - Classifiedпјљ Remixed And Expanded (2013) [LAME MP3 (V2)]/02 - If You're Lonely.mp3

Track gain : -6.18 dB
Peak : 0.976898
CRC32 hash (test run) : 5FB1EE25
CRC32 hash : 5FB1EE25
CRC32 hash (skip zero) : B0DCF855
AccurateRip v1 signature : A48BF11F
AccurateRip v2 signature : 65EDDECB
->Track not present in AccurateRip database.
Statistics
Read error : 0
Jitter error (maybe fixed) : 0
Retry sector count : 0
Damaged sector count : 0

Track 03
Filename : /Volumes/Audio and Video/James Booker - Classifiedпјљ Remixed And Expanded (2013) [FLAC (level 8)]/03 - Warsaw Concerto.flac
/Volumes/Audio and Video/James Booker - Classifiedпјљ Remixed And Expanded (2013) [LAME MP3 (V0)]/03 - Warsaw Concerto.mp3
/Volumes/Audio and Video/James Booker - Classifiedпјљ Remixed And Expanded (2013) [LAME MP3 (CBR 320kbps)]/03 - Warsaw Concerto.mp3
/Volumes/Audio and Video/James Booker - Classifiedпјљ Remixed And Expanded (2013) [LAME MP3 (V2)]/03 - Warsaw Concerto.mp3

Track gain : -2.58 dB
Peak : 0.974976
CRC32 hash (test run) : 6980DB8D
CRC32 hash : 6980DB8D
CRC32 hash (skip zero) : D68548AC
AccurateRip v1 signature : 2F90E816
AccurateRip v2 signature : 77E67694
->Track not present in AccurateRip database.
Statistics
Read error : 0
Jitter error (maybe fixed) : 0
Retry sector count : 0
Damaged sector count : 0

Track 04
Filename : /Volumes/Audio and Video/James Booker - Classifiedпјљ Remixed And Expanded (2013) [FLAC (level 8)]/04 - Lawdy Miss Clawdy (Solo Piano Alternate Take).flac
/Volumes/Audio and Video/James Booker - Classifiedпјљ Remixed And Expanded (2013) [LAME MP3 (V0)]/04 - Lawdy Miss Clawdy (Solo Piano Alternate Take).mp3
/Volumes/Audio and Video/James Booker - Classifiedпјљ Remixed And Expanded (2013) [LAME MP3 (CBR 320kbps)]/04 - Lawdy Miss Clawdy (Solo Piano Alternate Take).mp3
/Volumes/Audio and Video/James Booker - Classifiedпјљ Remixed And Expanded (2013) [LAME MP3 (V2)]/04 - Lawdy Miss Clawdy (Solo Piano Alternate Take).mp3

Track gain : -6.79 dB
Peak : 0.979889
CRC32 hash (test run) : CCF78FCE
CRC32 hash : CCF78FCE
CRC32 hash (skip zero) : 6DDAB06F
AccurateRip v1 signature : 95B5A79B
AccurateRip v2 signature : 8CA8E3AC
->Track not present in AccurateRip database.
Statistics
Read error : 0
Jitter error (maybe fixed) : 0
Retry sector count : 0
Damaged sector count : 0

Track 05
Filename : /Volumes/Audio and Video/James Booker - Classifiedпјљ Remixed And Expanded (2013) [FLAC (level 8)]/05 - Medleyпјљ Tico Tico пјЏ Papa Was a Rascal пјЏ So Swell When You're Well.flac
/Volumes/Audio and Video/James Booker - Classifiedпјљ Remixed And Expanded (2013) [LAME MP3 (V0)]/05 - Medleyпјљ Tico Tico пјЏ Papa Was a Rascal пјЏ So Swell When You're Well.mp3
/Volumes/Audio and Video/James Booker - Classifiedпјљ Remixed And Expanded (2013) [LAME MP3 (CBR 320kbps)]/05 - Medleyпјљ Tico Tico пјЏ Papa Was a Rascal пјЏ So Swell When You're Well.mp3
/Volumes/Audio and Video/James Booker - Classifiedпјљ Remixed And Expanded (2013) [LAME MP3 (V2)]/05 - Medleyпјљ Tico Tico пјЏ Papa Was a Rascal пјЏ So Swell When You're Well.mp3

Track gain : -4.61 dB
Peak : 0.977448
CRC32 hash (test run) : DDDA1F8E
CRC32 hash : DDDA1F8E
CRC32 hash (skip zero) : D262C9C9
AccurateRip v1 signature : A9AC9CF2
AccurateRip v2 signature : 7DC63341
->Track not present in AccurateRip database.
Statistics
Read error : 0
Jitter error (maybe fixed) : 0
Retry sector count : 0
Damaged sector count : 0

Track 06
Filename : /Volumes/Audio and Video/James Booker - Classifiedпјљ Remixed And Expanded (2013) [FLAC (level 8)]/06 - All Around The World.flac
/Volumes/Audio and Video/James Booker - Classifiedпјљ Remixed And Expanded (2013) [LAME MP3 (V0)]/06 - All Around The World.mp3
/Volumes/Audio and Video/James Booker - Classifiedпјљ Remixed And Expanded (2013) [LAME MP3 (CBR 320kbps)]/06 - All Around The World.mp3
/Volumes/Audio and Video/James Booker - Classifiedпјљ Remixed And Expanded (2013) [LAME MP3 (V2)]/06 - All Around The World.mp3

Track gain : -5.93 dB
Peak : 0.976013
CRC32 hash (test run) : 78167CE2
CRC32 hash : 78167CE2
CRC32 hash (skip zero) : A5DD4933
AccurateRip v1 signature : D4316C6A
AccurateRip v2 signature : 165F138D
->Track not present in AccurateRip database.
Statistics
Read error : 0
Jitter error (maybe fixed) : 0
Retry sector count : 0
Damaged sector count : 0

Track 07
Filename : /Volumes/Audio and Video/James Booker - Classifiedпјљ Remixed And Expanded (2013) [FLAC (level 8)]/07 - Angel Eyes.flac
/Volumes/Audio and Video/James Booker - Classifiedпјљ Remixed And Expanded (2013) [LAME MP3 (V0)]/07 - Angel Eyes.mp3
/Volumes/Audio and Video/James Booker - Classifiedпјљ Remixed And Expanded (2013) [LAME MP3 (CBR 320kbps)]/07 - Angel Eyes.mp3
/Volumes/Audio and Video/James Booker - Classifiedпјљ Remixed And Expanded (2013) [LAME MP3 (V2)]/07 - Angel Eyes.mp3

Track gain : -4.11 dB
Peak : 0.977478
CRC32 hash (test run) : B6FEC8EE
CRC32 hash : B6FEC8EE
CRC32 hash (skip zero) : 7C9526E0
AccurateRip v1 signature : FCFE7007
AccurateRip v2 signature : 427AB3C2
->Track not present in AccurateRip database.
Statistics
Read error : 0
Jitter error (maybe fixed) : 0
Retry sector count : 0
Damaged sector count : 0

Track 08
Filename : /Volumes/Audio and Video/James Booker - Classifiedпјљ Remixed And Expanded (2013) [FLAC (level 8)]/08 - Lonely Avenue.flac
/Volumes/Audio and Video/James Booker - Classifiedпјљ Remixed And Expanded (2013) [LAME MP3 (V0)]/08 - Lonely Avenue.mp3
/Volumes/Audio and Video/James Booker - Classifiedпјљ Remixed And Expanded (2013) [LAME MP3 (CBR 320kbps)]/08 - Lonely Avenue.mp3
/Volumes/Audio and Video/James Booker - Classifiedпјљ Remixed And Expanded (2013) [LAME MP3 (V2)]/08 - Lonely Avenue.mp3

Track gain : -5.79 dB
Peak : 0.984131
CRC32 hash (test run) : F586A4B7
CRC32 hash : F586A4B7
CRC32 hash (skip zero) : 2DC1B4F6
AccurateRip v1 signature : 1D859F9F
AccurateRip v2 signature : 6C0FCA54
->Track not present in AccurateRip database.
Statistics
Read error : 0
Jitter error (maybe fixed) : 0
Retry sector count : 0
Damaged sector count : 0

Track 09
Filename : /Volumes/Audio and Video/James Booker - Classifiedпјљ Remixed And Expanded (2013) [FLAC (level 8)]/09 - Professor Longhair Medleyпјљ TipitinaпјЏBald Head.flac
/Volumes/Audio and Video/James Booker - Classifiedпјљ Remixed And Expanded (2013) [LAME MP3 (V0)]/09 - Professor Longhair Medleyпјљ TipitinaпјЏBald Head.mp3
/Volumes/Audio and Video/James Booker - Classifiedпјљ Remixed And Expanded (2013) [LAME MP3 (CBR 320kbps)]/09 - Professor Longhair Medleyпјљ TipitinaпјЏBald Head.mp3
/Volumes/Audio and Video/James Booker - Classifiedпјљ Remixed And Expanded (2013) [LAME MP3 (V2)]/09 - Professor Longhair Medleyпјљ TipitinaпјЏBald Head.mp3

Track gain : -2.40 dB
Peak : 0.975189
CRC32 hash (test run) : 4FA5725F
CRC32 hash : 4FA5725F
CRC32 hash (skip zero) : 8F621485
AccurateRip v1 signature : 0283D30F
AccurateRip v2 signature : 29EDD436
->Track not present in AccurateRip database.
Statistics
Read error : 0
Jitter error (maybe fixed) : 0
Retry sector count : 0
Damaged sector count : 0

Track 10
Filename : /Volumes/Audio and Video/James Booker - Classifiedпјљ Remixed And Expanded (2013) [FLAC (level 8)]/10 - King Of The Road.flac
/Volumes/Audio and Video/James Booker - Classifiedпјљ Remixed And Expanded (2013) [LAME MP3 (V0)]/10 - King Of The Road.mp3
/Volumes/Audio and Video/James Booker - Classifiedпјљ Remixed And Expanded (2013) [LAME MP3 (CBR 320kbps)]/10 - King Of The Road.mp3
/Volumes/Audio and Video/James Booker - Classifiedпјљ Remixed And Expanded (2013) [LAME MP3 (V2)]/10 - King Of The Road.mp3

Track gain : -7.12 dB
Peak : 0.977417
CRC32 hash (test run) : 3935098E
CRC32 hash : 3935098E
CRC32 hash (skip zero) : A5DEF85E
AccurateRip v1 signature : BE987EF5
AccurateRip v2 signature : 210CFC59
->Track not present in AccurateRip database.
Statistics
Read error : 0
Jitter error (maybe fixed) : 0
Retry sector count : 0
Damaged sector count : 0

Track 11
Filename : /Volumes/Audio and Video/James Booker - Classifiedпјљ Remixed And Expanded (2013) [FLAC (level 8)]/11 - Theme From The Godfather.flac
/Volumes/Audio and Video/James Booker - Classifiedпјљ Remixed And Expanded (2013) [LAME MP3 (V0)]/11 - Theme From The Godfather.mp3
/Volumes/Audio and Video/James Booker - Classifiedпјљ Remixed And Expanded (2013) [LAME MP3 (CBR 320kbps)]/11 - Theme From The Godfather.mp3
/Volumes/Audio and Video/James Booker - Classifiedпјљ Remixed And Expanded (2013) [LAME MP3 (V2)]/11 - Theme From The Godfather.mp3

Track gain : -3.27 dB
Peak : 0.974701
CRC32 hash (test run) : 68DE07E5
CRC32 hash : 68DE07E5
CRC32 hash (skip zero) : B91C1572
AccurateRip v1 signature : 95F628D8
AccurateRip v2 signature : 6EFB5647
->Track not present in AccurateRip database.
Statistics
Read error : 0
Jitter error (maybe fixed) : 0
Retry sector count : 0
Damaged sector count : 0

Track 12
Filename : /Volumes/Audio and Video/James Booker - Classifiedпјљ Remixed And Expanded (2013) [FLAC (level 8)]/12 - Lawdy Miss Clawdy.flac
/Volumes/Audio and Video/James Booker - Classifiedпјљ Remixed And Expanded (2013) [LAME MP3 (V0)]/12 - Lawdy Miss Clawdy.mp3
/Volumes/Audio and Video/James Booker - Classifiedпјљ Remixed And Expanded (2013) [LAME MP3 (CBR 320kbps)]/12 - Lawdy Miss Clawdy.mp3
/Volumes/Audio and Video/James Booker - Classifiedпјљ Remixed And Expanded (2013) [LAME MP3 (V2)]/12 - Lawdy Miss Clawdy.mp3

Track gain : -7.65 dB
Peak : 0.984467
CRC32 hash (test run) : F046F8AD
CRC32 hash : F046F8AD
CRC32 hash (skip zero) : 6F30BCCF
AccurateRip v1 signature : 0149CAE1
AccurateRip v2 signature : 46DCCD04
->Track not present in AccurateRip database.
Statistics
Read error : 0
Jitter error (maybe fixed) : 0
Retry sector count : 0
Damaged sector count : 0

Track 13
Filename : /Volumes/Audio and Video/James Booker - Classifiedпјљ Remixed And Expanded (2013) [FLAC (level 8)]/13 - I'm Not Sayin'.flac
/Volumes/Audio and Video/James Booker - Classifiedпјљ Remixed And Expanded (2013) [LAME MP3 (V0)]/13 - I'm Not Sayin'.mp3
/Volumes/Audio and Video/James Booker - Classifiedпјљ Remixed And Expanded (2013) [LAME MP3 (CBR 320kbps)]/13 - I'm Not Sayin'.mp3
/Volumes/Audio and Video/James Booker - Classifiedпјљ Remixed And Expanded (2013) [LAME MP3 (V2)]/13 - I'm Not Sayin'.mp3

Track gain : -2.85 dB
Peak : 0.976044
CRC32 hash (test run) : F00AA805
CRC32 hash : F00AA805
CRC32 hash (skip zero) : A72C4186
AccurateRip v1 signature : 2E5C35C2
AccurateRip v2 signature : 3096D67C
->Track not present in AccurateRip database.
Statistics
Read error : 0
Jitter error (maybe fixed) : 0
Retry sector count : 0
Damaged sector count : 0

Track 14
Filename : /Volumes/Audio and Video/James Booker - Classifiedпјљ Remixed And Expanded (2013) [FLAC (level 8)]/14 - Hound Dog.flac
/Volumes/Audio and Video/James Booker - Classifiedпјљ Remixed And Expanded (2013) [LAME MP3 (V0)]/14 - Hound Dog.mp3
/Volumes/Audio and Video/James Booker - Classifiedпјљ Remixed And Expanded (2013) [LAME MP3 (CBR 320kbps)]/14 - Hound Dog.mp3
/Volumes/Audio and Video/James Booker - Classifiedпјљ Remixed And Expanded (2013) [LAME MP3 (V2)]/14 - Hound Dog.mp3

Track gain : -6.62 dB
Peak : 0.976807
CRC32 hash (test run) : A31CC87B
CRC32 hash : A31CC87B
CRC32 hash (skip zero) : 1937EC0D
AccurateRip v1 signature : EDE6545D
AccurateRip v2 signature : 04A3B812
->Track not present in AccurateRip database.
Statistics
Read error : 0
Jitter error (maybe fixed) : 0
Retry sector count : 0
Damaged sector count : 0

Track 15
Filename : /Volumes/Audio and Video/James Booker - Classifiedпјљ Remixed And Expanded (2013) [FLAC (level 8)]/15 - All These Things.flac
/Volumes/Audio and Video/James Booker - Classifiedпјљ Remixed And Expanded (2013) [LAME MP3 (V0)]/15 - All These Things.mp3
/Volumes/Audio and Video/James Booker - Classifiedпјљ Remixed And Expanded (2013) [LAME MP3 (CBR 320kbps)]/15 - All These Things.mp3
/Volumes/Audio and Video/James Booker - Classifiedпјљ Remixed And Expanded (2013) [LAME MP3 (V2)]/15 - All These Things.mp3

Track gain : -3.49 dB
Peak : 0.974304
CRC32 hash (test run) : 39081493
CRC32 hash : 39081493
CRC32 hash (skip zero) : 73EC4820
AccurateRip v1 signature : 27D07269
AccurateRip v2 signature : EA227193
->Track not present in AccurateRip database.
Statistics
Read error : 0
Jitter error (maybe fixed) : 0
Retry sector count : 0
Damaged sector count : 0

Track 16
Filename : /Volumes/Audio and Video/James Booker - Classifiedпјљ Remixed And Expanded (2013) [FLAC (level 8)]/16 - Yes Sir, That's My Baby.flac
/Volumes/Audio and Video/James Booker - Classifiedпјљ Remixed And Expanded (2013) [LAME MP3 (V0)]/16 - Yes Sir, That's My Baby.mp3
/Volumes/Audio and Video/James Booker - Classifiedпјљ Remixed And Expanded (2013) [LAME MP3 (CBR 320kbps)]/16 - Yes Sir, That's My Baby.mp3
/Volumes/Audio and Video/James Booker - Classifiedпјљ Remixed And Expanded (2013) [LAME MP3 (V2)]/16 - Yes Sir, That's My Baby.mp3

Track gain : -4.17 dB
Peak : 0.980927
CRC32 hash (test run) : 15785210
CRC32 hash : 15785210
CRC32 hash (skip zero) : 08AE1509
AccurateRip v1 signature : 735C562F
AccurateRip v2 signature : 1763D201
->Track not present in AccurateRip database.
Statistics
Read error : 0
Jitter error (maybe fixed) : 0
Retry sector count : 0
Damaged sector count : 0

Track 17
Filename : /Volumes/Audio and Video/James Booker - Classifiedпјљ Remixed And Expanded (2013) [FLAC (level 8)]/17 - Baby Face.flac
/Volumes/Audio and Video/James Booker - Classifiedпјљ Remixed And Expanded (2013) [LAME MP3 (V0)]/17 - Baby Face.mp3
/Volumes/Audio and Video/James Booker - Classifiedпјљ Remixed And Expanded (2013) [LAME MP3 (CBR 320kbps)]/17 - Baby Face.mp3
/Volumes/Audio and Video/James Booker - Classifiedпјљ Remixed And Expanded (2013) [LAME MP3 (V2)]/17 - Baby Face.mp3

Track gain : -6.21 dB
Peak : 0.976776
CRC32 hash (test run) : 0D1201F1
CRC32 hash : 0D1201F1
CRC32 hash (skip zero) : E0B868EC
AccurateRip v1 signature : 6DFD3CBB
AccurateRip v2 signature : 7450D89A
->Track not present in AccurateRip database.
Statistics
Read error : 0
Jitter error (maybe fixed) : 0
Retry sector count : 0
Damaged sector count : 0

Track 18
Filename : /Volumes/Audio and Video/James Booker - Classifiedпјљ Remixed And Expanded (2013) [FLAC (level 8)]/18 - If You're Lonely (Solo Piano Alternate Take).flac
/Volumes/Audio and Video/James Booker - Classifiedпјљ Remixed And Expanded (2013) [LAME MP3 (V0)]/18 - If You're Lonely (Solo Piano Alternate Take).mp3
/Volumes/Audio and Video/James Booker - Classifiedпјљ Remixed And Expanded (2013) [LAME MP3 (CBR 320kbps)]/18 - If You're Lonely (Solo Piano Alternate Take).mp3
/Volumes/Audio and Video/James Booker - Classifiedпјљ Remixed And Expanded (2013) [LAME MP3 (V2)]/18 - If You're Lonely (Solo Piano Alternate Take).mp3

Track gain : -6.45 dB
Peak : 0.976990
CRC32 hash (test run) : B1F7A840
CRC32 hash : B1F7A840
CRC32 hash (skip zero) : 53B36738
AccurateRip v1 signature : 23E5CD87
AccurateRip v2 signature : 20BCAFDB
->Track not present in AccurateRip database.
Statistics
Read error : 0
Jitter error (maybe fixed) : 0
Retry sector count : 0
Damaged sector count : 0

Track 19
Filename : /Volumes/Audio and Video/James Booker - Classifiedпјљ Remixed And Expanded (2013) [FLAC (level 8)]/19 - Madame X.flac
/Volumes/Audio and Video/James Booker - Classifiedпјљ Remixed And Expanded (2013) [LAME MP3 (V0)]/19 - Madame X.mp3
/Volumes/Audio and Video/James Booker - Classifiedпјљ Remixed And Expanded (2013) [LAME MP3 (CBR 320kbps)]/19 - Madame X.mp3
/Volumes/Audio and Video/James Booker - Classifiedпјљ Remixed And Expanded (2013) [LAME MP3 (V2)]/19 - Madame X.mp3

Track gain : -3.19 dB
Peak : 0.975677
CRC32 hash (test run) : 1183ABC2
CRC32 hash : 1183ABC2
CRC32 hash (skip zero) : A7248120
AccurateRip v1 signature : D5EB5453
AccurateRip v2 signature : 5F24B1C0
->Track not present in AccurateRip database.
Statistics
Read error : 0
Jitter error (maybe fixed) : 0
Retry sector count : 0
Damaged sector count : 0

Track 20
Filename : /Volumes/Audio and Video/James Booker - Classifiedпјљ Remixed And Expanded (2013) [FLAC (level 8)]/20 - One For The Highway.flac
/Volumes/Audio and Video/James Booker - Classifiedпјљ Remixed And Expanded (2013) [LAME MP3 (V0)]/20 - One For The Highway.mp3
/Volumes/Audio and Video/James Booker - Classifiedпјљ Remixed And Expanded (2013) [LAME MP3 (CBR 320kbps)]/20 - One For The Highway.mp3
/Volumes/Audio and Video/James Booker - Classifiedпјљ Remixed And Expanded (2013) [LAME MP3 (V2)]/20 - One For The Highway.mp3

Track gain : -7.37 dB
Peak : 0.985870
CRC32 hash (test run) : 82FE1B7B
CRC32 hash : 82FE1B7B
CRC32 hash (skip zero) : 009D060E
AccurateRip v1 signature : A1FD2A4D
AccurateRip v2 signature : 25BA9021
->Track not present in AccurateRip database.
Statistics
Read error : 0
Jitter error (maybe fixed) : 0
Retry sector count : 0
Damaged sector count : 0

Track 21
Filename : /Volumes/Audio and Video/James Booker - Classifiedпјљ Remixed And Expanded (2013) [FLAC (level 8)]/21 - Three Keys.flac
/Volumes/Audio and Video/James Booker - Classifiedпјљ Remixed And Expanded (2013) [LAME MP3 (V0)]/21 - Three Keys.mp3
/Volumes/Audio and Video/James Booker - Classifiedпјљ Remixed And Expanded (2013) [LAME MP3 (CBR 320kbps)]/21 - Three Keys.mp3
/Volumes/Audio and Video/James Booker - Classifiedпјљ Remixed And Expanded (2013) [LAME MP3 (V2)]/21 - Three Keys.mp3

Track gain : -2.28 dB
Peak : 0.860809
CRC32 hash (test run) : ABC31839
CRC32 hash : ABC31839
CRC32 hash (skip zero) : 16749DA7
AccurateRip v1 signature : D58A635A
AccurateRip v2 signature : C9A4467D
->Track not present in AccurateRip database.
Statistics
Read error : 0
Jitter error (maybe fixed) : 0
Retry sector count : 0
Damaged sector count : 0

Track 22
Filename : /Volumes/Audio and Video/James Booker - Classifiedпјљ Remixed And Expanded (2013) [FLAC (level 8)]/22 - Amen.flac
/Volumes/Audio and Video/James Booker - Classifiedпјљ Remixed And Expanded (2013) [LAME MP3 (V0)]/22 - Amen.mp3
/Volumes/Audio and Video/James Booker - Classifiedпјљ Remixed And Expanded (2013) [LAME MP3 (CBR 320kbps)]/22 - Amen.mp3
/Volumes/Audio and Video/James Booker - Classifiedпјљ Remixed And Expanded (2013) [LAME MP3 (V2)]/22 - Amen.mp3

Track gain : -4.51 dB
Peak : 0.975647
CRC32 hash (test run) : 00390213
CRC32 hash : 00390213
CRC32 hash (skip zero) : D773EBD9
AccurateRip v1 signature : 4CE3BE22
AccurateRip v2 signature : DE1DABCF
->Track not present in AccurateRip database.
Statistics
Read error : 0
Jitter error (maybe fixed) : 0
Retry sector count : 0
Damaged sector count : 0

No errors occurred

End of status report

––-BEGIN XLD SIGNATURE––-
NoplVJrZ0SHqnHH_jL8810K21vthnEOUR_Le5W35Fegk6HcRLsCFr7W5Qr5zCYJUo_QMN.WIi3Xgf3SmVrMSsjyAuajbQapA9oXOzgO
––-END XLD SIGNATURE––-

[CUETools log; Date: 14.10.2018 22:13:24; Version: 2.1.4]
[CTDB TOCID: GJ_RdNoYX1ptTdFCxdnH7ROQAeQ-] found.
Track | CTDB Status
1 | (15/15) Accurately ripped
2 | (15/15) Accurately ripped
3 | (15/15) Accurately ripped
4 | (15/15) Accurately ripped
5 | (15/15) Accurately ripped
6 | (15/15) Accurately ripped
7 | (15/15) Accurately ripped
8 | (15/15) Accurately ripped
9 | (15/15) Accurately ripped
10 | (15/15) Accurately ripped
11 | (15/15) Accurately ripped
12 | (15/15) Accurately ripped
13 | (15/15) Accurately ripped
14 | (15/15) Accurately ripped
15 | (15/15) Accurately ripped
16 | (15/15) Accurately ripped
17 | (15/15) Accurately ripped
18 | (15/15) Accurately ripped
19 | (15/15) Accurately ripped
20 | (15/15) Accurately ripped
21 | (15/15) Accurately ripped
22 | (15/15) Accurately ripped
[AccurateRip ID: 0039f688-039c7179-38111d16] found.
Track [ CRC | V2 ] Status
01 [0fd32320|4b3fc97a] (00+20/20) Accurately ripped
02 [a48bf11f|65eddecb] (00+20/20) Accurately ripped
03 [2f90e816|77e67694] (00+20/20) Accurately ripped
04 [95b5a79b|8ca8e3ac] (00+20/20) Accurately ripped
05 [a9ac9cf2|7dc63341] (00+20/20) Accurately ripped
06 [d4316c6a|165f138d] (00+20/20) Accurately ripped
07 [fcfe7007|427ab3c2] (00+20/20) Accurately ripped
08 [1d859f9f|6c0fca54] (00+20/20) Accurately ripped
09 [0283d30f|29edd436] (00+20/20) Accurately ripped
10 [be987ef5|210cfc59] (00+20/20) Accurately ripped
11 [95f628d8|6efb5647] (00+20/20) Accurately ripped
12 [0149cae1|46dccd04] (00+20/20) Accurately ripped
13 [2e5c35c2|3096d67c] (00+20/20) Accurately ripped
14 [ede6545d|04a3b812] (00+20/20) Accurately ripped
15 [27d07269|ea227193] (00+20/20) Accurately ripped
16 [735c562f|1763d201] (00+20/20) Accurately ripped
17 [6dfd3cbb|7450d89a] (00+20/20) Accurately ripped
18 [23e5cd87|20bcafdb] (00+20/20) Accurately ripped
19 [d5eb5453|5f24b1c0] (00+20/20) Accurately ripped
20 [a1fd2a4d|25ba9021] (00+20/20) Accurately ripped
21 [d58a635a|c9a4467d] (00+20/20) Accurately ripped
22 [4ce3be22|de1dabcf] (00+19/19) Accurately ripped

Track Peak [ CRC32 ] [W/O NULL]
– 98,5 [107F3102] [2BDF8C58]
01 97,7 [EFFAF2E0] [58103CB4]
02 97,6 [5FB1EE25] [B0DCF855]
03 97,4 [6980DB8D] [D68548AC]
04 97,9 [CCF78FCE] [6DDAB06F]
05 97,7 [DDDA1F8E] [D262C9C9]
06 97,6 [78167CE2] [A5DD4933]
07 97,7 [B6FEC8EE] [7C9526E0]
08 98,4 [F586A4B7] [2DC1B4F6]
09 97,5 [4FA5725F] [8F621485]
10 97,7 [3935098E] [A5DEF85E]
11 97,4 [68DE07E5] [B91C1572]
12 98,4 [F046F8AD] [6F30BCCF]
13 97,6 [F00AA805] [A72C4186]
14 97,6 [A31CC87B] [1937EC0D]
15 97,4 [39081493] [73EC4820]
16 98,0 [15785210] [08AE1509]
17 97,6 [0D1201F1] [E0B868EC]
18 97,7 [B1F7A840] [53B36738]
19 97,5 [1183ABC2] [A7248120]
20 98,5 [82FE1B7B] [009D060E]
21 86,0 [ABC31839] [16749DA7]
22 97,5 [00390213] [D773EBD9]

foobar2000 1.2 / Dynamic Range Meter 1.1.1
log date: 2018-10-14 22:15:28

––––––––––––––––––––––––––––––––––––––––
Analyzed: James Booker / Classified: Remixed And Expanded
––––––––––––––––––––––––––––––––––––––––

DR Peak RMS Duration Track
––––––––––––––––––––––––––––––––––––––––
DR11 -0.20 dB -13.26 dB 4:03 01-Classified
DR11 -0.20 dB -13.60 dB 2:58 02-If You're Lonely
DR13 -0.22 dB -17.40 dB 2:47 03-Warsaw Concerto
DR10 -0.18 dB -12.58 dB 1:52 04-Lawdy Miss Clawdy (Solo Piano Alternate Take)
DR11 -0.20 dB -13.23 dB 4:54 05-Medley: Tico Tico / Papa Was a Rascal / So Swell When You're Well
DR11 -0.21 dB -13.59 dB 3:36 06-All Around The World
DR12 -0.20 dB -15.25 dB 3:46 07-Angel Eyes
DR11 -0.14 dB -13.21 dB 3:37 08-Lonely Avenue
DR13 -0.22 dB -16.18 dB 3:40 09-Professor Longhair Medley: Tipitina/Bald Head
DR10 -0.20 dB -13.53 dB 3:11 10-King Of The Road
DR13 -0.22 dB -15.47 dB 1:45 11-Theme From The Godfather
DR9 -0.14 dB -11.18 dB 3:29 12-Lawdy Miss Clawdy
DR14 -0.21 dB -16.26 dB 5:17 13-I'm Not Sayin'
DR11 -0.20 dB -13.14 dB 2:30 14-Hound Dog
DR13 -0.23 dB -15.88 dB 2:43 15-All These Things
DR13 -0.17 dB -15.08 dB 3:34 16-Yes Sir, That's My Baby
DR10 -0.20 dB -12.63 dB 3:21 17-Baby Face
DR11 -0.20 dB -15.15 dB 3:05 18-If You're Lonely (Solo Piano Alternate Take)
DR12 -0.21 dB -16.20 dB 2:11 19-Madame X
DR10 -0.12 dB -11.31 dB 2:34 20-One For The Highway
DR11 -1.30 dB -14.77 dB 3:21 21-Three Keys
DR13 -0.21 dB -15.72 dB 4:46 22-Amen
––––––––––––––––––––––––––––––––––––––––

Number of tracks: 22
Official DR value: DR11

Samplerate: 44100 Hz
Channels: 2
Bits per sample: 16
Bitrate: 700 kbps
Codec: FLAC
================================================================================

James Booker - Classified (1982) Remixed And Expanded 2013

All thanks to original releaser - crackmoney

More interesting music in My Blog