Tags
Language
Tags

James Horner - Apollo 13 (Original Motion Picture Soundtrack) (Expanded) (2019)

Posted By: Rtax
James Horner - Apollo 13 (Original Motion Picture Soundtrack) (Expanded) (2019)

James Horner - Apollo 13 (Original Motion Picture Soundtrack) (Expanded) (2019)
EAC Rip | FLAC (tracks, cue, log) - 616 MB
2:14:53 | Score, Soundtrack | Label: Intrada

World premiere 2-CD release of James Horner score for Oscar-nominated Ron Howard film! Highly regarded, award-laden film chronicles eventful Apollo 13 mission to the moon, heartbreakingly aborted late during trip due to an explosion aboard command module that jeopardized lives of crew and their ability to return safely back to earth.

Universal releases, Imagine Entertainment presents, Tom Hanks, Kevin Bacon, Bill Paxton, Ed Harris, Gary Sinise, Kathleen Quinlan give top-notch portrayals, Dean Cundey photographs, Brian Grazer produces, Ron Howard directs. Film is drawn from Astronaut Jim Lovell’s book “Lost Moon”, written with Jeffrey Kluger. Hanks plays Lovell in nine-time Academy Award-nominated film, including nominations for Picture and James Horner score, winning Oscars for sound and film editing. Director Howard describes film not as one of action or distress but of “absolutely brilliant professionalism and quiet nobility”. Though Howard championed two separate albums for release from the soundtrack, incredibly just a “souvenir” release featuring the songs, dialog highlights, sound effects and limited selections from Horner’s score became commercially available through the MCA label. Horner did prepare a disc of 59 minutes of his music for internal Academy Award consideration but it never saw commercial release. Subsequently a special “Gold” edition of the soundtrack was issued but it remained the song and dialog album. Finally, through the combined cooperation of UMG, Universal Studios and Imagine Entertainment, Intrada proudly presents for the first time ever the entire score by Horner, both in the versions heard in the film lasting 76 minutes on CD 1, and in the selections Horner prepared for promotional purposes running 59 minutes which included several alternate versions and different performances of certain cues on CD 2. Album producer Mike Matessino has also assembled the 9 minutes of music Horner scored for electronics, following the orchestral score on CD 1. The number of highlights in this important work are numerous but easily commanding a spotlight is the rich Americana flavor throughout, movingly provided by elegiac trumpet work from acclaimed soloist Tim Morrison. Lengthy musical journey includes moments of stunning power such as 10-minute “All Systems Go - The Launch”, terror (“Master Alarm”, “Manual Burn”), dynamic “Re-Entry And Splashdown”. Special mention is due Horner’s brilliant musical architecture, opening with trumpet and snares, then mirroring variety of dramatic onscreen events with emotionally overwhelming music before finally cadencing all with haunting simplicity of just solo trumpet alone. Poetic and sublime! Graphic design by Kay Marshall features flipper covers showcasing both film’s striking advance key art campaign, subsequent release style with star Hanks. Detailed notes from John Takis plus “tech talk” from producer Matessino bring additional weight to dramatic package. Horner’s gift for writing magnificent, emotionally rich music has never been on better display. Shawn Murphy records at Todd-AO, Steve Bramson & Horner orchestrate, Annie Lennox provides haunting wordless “End Credits” vocal, James Horner composes, conducts. Intrada Special Collection 2-CD release available while quantities and interest remain!

Tracklist
CD 1
ORCHESTRAL FILM SCORE
01. Main Title (Film Version) (1:53)
02. Lunar Dreams (2:40)
03. A Son's Worries And Simulator Crash (4:37)
04. Night Visitors (1:08)
05. All Systems Go – The Launch (10:19)
06. Docking (2:26)
07. Master Alarm (Film Version) (3:31)
08. Into The L.E.M. (Film Version) (5:10)
09. The Dark Side Of The Moon (5:18)
10. Carbon Dioxide (5:45)
11. Manual Burn (1:56)
12. A War Story (1:06)
13. Four More Amps (3:22)
14. L.E.M. Jettison (1:37)
15. Re-Entry And Splashdown (Film Version) (9:15)
16. End Credits (Film Version) (6:55)

ELECTRONIC CUES
17. Marilyn’s Nightmare (0:58)
18. Canister Explosion (0:24)
19. Reactant Valves (1:09)
20. Out Of Control (1:08)
21. Power Off (0:57)
22. A Square Peg (3:49)
23. Cosmic Connection (0:44)

CD 2
COMPOSER’S SOUNDTRACK ASSEMBLY
01. Main Title (2:40)
02. Lunar Dreams (2:41)
03. All Systems Go – The Launch (10:21)
04. Docking (2:26)
05. Master Alarm (3:06)
06. Into the L.E.M. (5:10)
07. The Dark Side Of The Moon (5:17)
08. Carbon Dioxide (5:45)
09. Manual Burn (1:57)
10. Four More Amps (3:20)
11. Re-Entry And Splashdown (9:15)
12. End Credits (6:59)
Exact Audio Copy V1.3 from 2. September 2016

EAC extraction logfile from 19. January 2019, 17:26

James Horner / Apollo 13 [CD 1]

Used drive : HL-DT-STBDDVDRW CH30N Adapter: 1 ID: 0

Read mode : Secure
Utilize accurate stream : Yes
Defeat audio cache : Yes
Make use of C2 pointers : No

Read offset correction : 6
Overread into Lead-In and Lead-Out : No
Fill up missing offset samples with silence : Yes
Delete leading and trailing silent blocks : No
Null samples used in CRC calculations : Yes
Used interface : Native Win32 interface for Win NT & 2000
Gap handling : Appended to previous track

Used output format : User Defined Encoder
Selected bitrate : 1024 kBit/s
Quality : High
Add ID3 tag : No
Command line compressor : C:\Program Files (x86)\Exact Audio Copy\Flac\flac.exe
Additional command line options : -8 -V -T "artist=%artist%" -T "title=%title%" -T "album=%albumtitle%" -T "date=%year%" -T "tracknumber=%tracknr%" -T "genre=%genre%" %source%


TOC of the extracted CD

Track | Start | Length | Start sector | End sector
––––––––––––––––––––––––––––-
1 | 0:00.00 | 1:50.52 | 0 | 8301
2 | 1:50.52 | 2:41.15 | 8302 | 20391
3 | 4:31.67 | 4:38.04 | 20392 | 41245
4 | 9:09.71 | 1:06.14 | 41246 | 46209
5 | 10:16.10 | 10:19.06 | 46210 | 92640
6 | 20:35.16 | 2:27.45 | 92641 | 103710
7 | 23:02.61 | 3:30.65 | 103711 | 119525
8 | 26:33.51 | 5:09.17 | 119526 | 142717
9 | 31:42.68 | 5:19.15 | 142718 | 166657
10 | 37:02.08 | 5:44.70 | 166658 | 192527
11 | 42:47.03 | 1:55.47 | 192528 | 201199
12 | 44:42.50 | 1:06.14 | 201200 | 206163
13 | 45:48.64 | 3:21.74 | 206164 | 221312
14 | 49:10.63 | 1:36.51 | 221313 | 228563
15 | 50:47.39 | 9:13.13 | 228564 | 270051
16 | 60:00.52 | 7:01.00 | 270052 | 301626
17 | 67:01.52 | 0:52.66 | 301627 | 305592
18 | 67:54.43 | 0:23.06 | 305593 | 307323
19 | 68:17.49 | 1:08.41 | 307324 | 312464
20 | 69:26.15 | 1:09.18 | 312465 | 317657
21 | 70:35.33 | 0:55.42 | 317658 | 321824
22 | 71:31.00 | 3:48.62 | 321825 | 338986
23 | 75:19.62 | 0:44.19 | 338987 | 342305


Track 1

Filename C:\James Horner - Apollo 13 (Intrada ISC 415) [FLAC]\CD 1\01. Main Title (Film Version).wav

Pre-gap length 0:00:02.00

Peak level 53.6 %
Extraction speed 0.9 X
Track quality 100.0 %
Test CRC 1B2F0833
Copy CRC 1B2F0833
Track not present in AccurateRip database
Copy OK

Track 2

Filename C:\James Horner - Apollo 13 (Intrada ISC 415) [FLAC]\CD 1\02. Lunar Dreams.wav

Peak level 19.3 %
Extraction speed 1.1 X
Track quality 100.0 %
Test CRC 919B427B
Copy CRC 919B427B
Track not present in AccurateRip database
Copy OK

Track 3

Filename C:\James Horner - Apollo 13 (Intrada ISC 415) [FLAC]\CD 1\03. A Son's Worries And Simulator Crash.wav

Pre-gap length 0:00:01.10

Peak level 67.1 %
Extraction speed 1.3 X
Track quality 100.0 %
Test CRC 0D117B95
Copy CRC 0D117B95
Track not present in AccurateRip database
Copy OK

Track 4

Filename C:\James Horner - Apollo 13 (Intrada ISC 415) [FLAC]\CD 1\04. Night Visitors.wav

Pre-gap length 0:00:02.14

Peak level 9.3 %
Extraction speed 1.0 X
Track quality 100.0 %
Test CRC 000B4452
Copy CRC 000B4452
Track not present in AccurateRip database
Copy OK

Track 5

Filename C:\James Horner - Apollo 13 (Intrada ISC 415) [FLAC]\CD 1\05. All Systems Go - The Launch.wav

Peak level 92.3 %
Extraction speed 1.6 X
Track quality 100.0 %
Test CRC 8296066C
Copy CRC 8296066C
Track not present in AccurateRip database
Copy OK

Track 6

Filename C:\James Horner - Apollo 13 (Intrada ISC 415) [FLAC]\CD 1\06. Docking.wav

Peak level 67.4 %
Extraction speed 1.4 X
Track quality 100.0 %
Test CRC BF65A53E
Copy CRC BF65A53E
Track not present in AccurateRip database
Copy OK

Track 7

Filename C:\James Horner - Apollo 13 (Intrada ISC 415) [FLAC]\CD 1\07. Master Alarm (Film Version).wav

Pre-gap length 0:00:01.45

Peak level 98.0 %
Extraction speed 1.6 X
Track quality 100.0 %
Test CRC 02B69571
Copy CRC 02B69571
Track not present in AccurateRip database
Copy OK

Track 8

Filename C:\James Horner - Apollo 13 (Intrada ISC 415) [FLAC]\CD 1\08. Into The L.E.M. (Film Version).wav

Pre-gap length 0:00:01.14

Peak level 97.4 %
Extraction speed 1.8 X
Track quality 100.0 %
Test CRC AB7D5787
Copy CRC AB7D5787
Track not present in AccurateRip database
Copy OK

Track 9

Filename C:\James Horner - Apollo 13 (Intrada ISC 415) [FLAC]\CD 1\09. The Dark Side Of The Moon.wav

Peak level 75.2 %
Extraction speed 1.9 X
Track quality 100.0 %
Test CRC 4FE37746
Copy CRC 4FE37746
Track not present in AccurateRip database
Copy OK

Track 10

Filename C:\James Horner - Apollo 13 (Intrada ISC 415) [FLAC]\CD 1\10. Carbon Dioxide.wav

Pre-gap length 0:00:01.43

Peak level 97.4 %
Extraction speed 1.8 X
Track quality 99.9 %
Test CRC 42A23083
Copy CRC 42A23083
Track not present in AccurateRip database
Copy OK

Track 11

Filename C:\James Horner - Apollo 13 (Intrada ISC 415) [FLAC]\CD 1\11. Manual Burn.wav

Pre-gap length 0:00:01.45

Peak level 98.0 %
Extraction speed 1.7 X
Track quality 100.0 %
Test CRC 5F5F2DF7
Copy CRC 5F5F2DF7
Track not present in AccurateRip database
Copy OK

Track 12

Filename C:\James Horner - Apollo 13 (Intrada ISC 415) [FLAC]\CD 1\12. A War Story.wav

Pre-gap length 0:00:01.27

Peak level 15.1 %
Extraction speed 1.5 X
Track quality 100.0 %
Test CRC EBC2FC13
Copy CRC EBC2FC13
Track not present in AccurateRip database
Copy OK

Track 13

Filename C:\James Horner - Apollo 13 (Intrada ISC 415) [FLAC]\CD 1\13. Four More Amps.wav

Pre-gap length 0:00:01.19

Peak level 97.2 %
Extraction speed 2.0 X
Track quality 100.0 %
Test CRC C8A0C67E
Copy CRC C8A0C67E
Track not present in AccurateRip database
Copy OK

Track 14

Filename C:\James Horner - Apollo 13 (Intrada ISC 415) [FLAC]\CD 1\14. L.E.M. Jettison.wav

Pre-gap length 0:00:01.45

Peak level 75.6 %
Extraction speed 1.7 X
Track quality 100.0 %
Test CRC 6105B66C
Copy CRC 6105B66C
Track not present in AccurateRip database
Copy OK

Track 15

Filename C:\James Horner - Apollo 13 (Intrada ISC 415) [FLAC]\CD 1\15. Re-Entry And Splashdown (Film Version).wav

Pre-gap length 0:00:01.04

Peak level 94.5 %
Extraction speed 2.3 X
Track quality 100.0 %
Test CRC 102A60B6
Copy CRC 102A60B6
Track not present in AccurateRip database
Copy OK

Track 16

Filename C:\James Horner - Apollo 13 (Intrada ISC 415) [FLAC]\CD 1\16. End Credits (Film Version).wav

Peak level 97.2 %
Extraction speed 2.4 X
Track quality 100.0 %
Test CRC F1944EF6
Copy CRC F1944EF6
Track not present in AccurateRip database
Copy OK

Track 17

Filename C:\James Horner - Apollo 13 (Intrada ISC 415) [FLAC]\CD 1\17. Marilyn's Nightmare.wav

Pre-gap length 0:00:05.70

Peak level 72.0 %
Extraction speed 1.6 X
Track quality 100.0 %
Test CRC 65E43F28
Copy CRC 65E43F28
Track not present in AccurateRip database
Copy OK

Track 18

Filename C:\James Horner - Apollo 13 (Intrada ISC 415) [FLAC]\CD 1\18. Canister Explosion.wav

Pre-gap length 0:00:01.08

Peak level 46.7 %
Extraction speed 1.0 X
Track quality 100.0 %
Test CRC 0A205E94
Copy CRC 0A205E94
Track not present in AccurateRip database
Copy OK

Track 19

Filename C:\James Horner - Apollo 13 (Intrada ISC 415) [FLAC]\CD 1\19. Reactant Valves.wav

Peak level 50.5 %
Extraction speed 1.7 X
Track quality 100.0 %
Test CRC 0A43AE6C
Copy CRC 0A43AE6C
Track not present in AccurateRip database
Copy OK

Track 20

Filename C:\James Horner - Apollo 13 (Intrada ISC 415) [FLAC]\CD 1\20. Out Of Control.wav

Peak level 81.9 %
Extraction speed 1.8 X
Track quality 100.0 %
Test CRC BF575E5D
Copy CRC BF575E5D
Track not present in AccurateRip database
Copy OK

Track 21

Filename C:\James Horner - Apollo 13 (Intrada ISC 415) [FLAC]\CD 1\21. Power Off.wav

Pre-gap length 0:00:01.04

Peak level 16.2 %
Extraction speed 1.6 X
Track quality 100.0 %
Test CRC 6D09FA5D
Copy CRC 6D09FA5D
Track not present in AccurateRip database
Copy OK

Track 22

Filename C:\James Horner - Apollo 13 (Intrada ISC 415) [FLAC]\CD 1\22. A Square Peg.wav

Peak level 30.6 %
Extraction speed 2.3 X
Track quality 100.0 %
Test CRC 55CC3307
Copy CRC 55CC3307
Track not present in AccurateRip database
Copy OK

Track 23

Filename C:\James Horner - Apollo 13 (Intrada ISC 415) [FLAC]\CD 1\23. Cosmic Connection.wav

Peak level 10.6 %
Extraction speed 1.5 X
Track quality 100.0 %
Test CRC 4A1A30FE
Copy CRC 4A1A30FE
Track not present in AccurateRip database
Copy OK


None of the tracks are present in the AccurateRip database

No errors occurred

End of status report

–– CUETools DB Plugin V2.1.6

[CTDB TOCID: Eo0dS2SrBD0ukVchWAbL8Pe.kf4-] found
Submit result: Eo0dS2SrBD0ukVchWAbL8Pe.kf4- has been confirmed
Track | CTDB Status
1 | (3/3) Accurately ripped
2 | (3/3) Accurately ripped
3 | (3/3) Accurately ripped
4 | (3/3) Accurately ripped
5 | (3/3) Accurately ripped
6 | (3/3) Accurately ripped
7 | (3/3) Accurately ripped
8 | (3/3) Accurately ripped
9 | (3/3) Accurately ripped
10 | (3/3) Accurately ripped
11 | (3/3) Accurately ripped
12 | (3/3) Accurately ripped
13 | (3/3) Accurately ripped
14 | (3/3) Accurately ripped
15 | (3/3) Accurately ripped
16 | (3/3) Accurately ripped
17 | (3/3) Accurately ripped
18 | (3/3) Accurately ripped
19 | (3/3) Accurately ripped
20 | (3/3) Accurately ripped
21 | (3/3) Accurately ripped
22 | (3/3) Accurately ripped
23 | (3/3) Accurately ripped


==== Log checksum B805921169912FCC0CB5B748FFD624CA016A746F6655C41F8AEF23D8D5616CB4 ====


Exact Audio Copy V1.3 from 2. September 2016

EAC extraction logfile from 19. January 2019, 19:52

James Horner / Apollo 13 [CD 2]

Used drive : HL-DT-STBDDVDRW CH30N Adapter: 1 ID: 0

Read mode : Secure
Utilize accurate stream : Yes
Defeat audio cache : Yes
Make use of C2 pointers : No

Read offset correction : 6
Overread into Lead-In and Lead-Out : No
Fill up missing offset samples with silence : Yes
Delete leading and trailing silent blocks : No
Null samples used in CRC calculations : Yes
Used interface : Native Win32 interface for Win NT & 2000
Gap handling : Appended to previous track

Used output format : User Defined Encoder
Selected bitrate : 1024 kBit/s
Quality : High
Add ID3 tag : No
Command line compressor : C:\Program Files (x86)\Exact Audio Copy\Flac\flac.exe
Additional command line options : -8 -V -T "artist=%artist%" -T "title=%title%" -T "album=%albumtitle%" -T "date=%year%" -T "tracknumber=%tracknr%" -T "genre=%genre%" %source%


TOC of the extracted CD

Track | Start | Length | Start sector | End sector
––––––––––––––––––––––––––––-
1 | 0:00.00 | 2:38.47 | 0 | 11896
2 | 2:38.47 | 2:42.27 | 11897 | 24073
3 | 5:20.74 | 10:19.15 | 24074 | 70513
4 | 15:40.14 | 2:27.44 | 70514 | 81582
5 | 18:07.58 | 3:05.19 | 81583 | 95476
6 | 21:13.02 | 5:09.15 | 95477 | 118666
7 | 26:22.17 | 5:19.18 | 118667 | 142609
8 | 31:41.35 | 5:44.67 | 142610 | 168476
9 | 37:26.27 | 1:54.70 | 168477 | 177096
10 | 39:21.22 | 3:21.17 | 177097 | 192188
11 | 42:42.39 | 9:07.25 | 192189 | 233238
12 | 51:49.64 | 6:59.20 | 233239 | 264683


Track 1

Filename C:\James Horner - Apollo 13 (Intrada ISC 415) [FLAC]\CD 2\01. Main Title.wav

Pre-gap length 0:00:02.00

Peak level 59.5 %
Extraction speed 2.9 X
Track quality 100.0 %
Test CRC D5B49CEB
Copy CRC D5B49CEB
Track not present in AccurateRip database
Copy OK

Track 2

Filename C:\James Horner - Apollo 13 (Intrada ISC 415) [FLAC]\CD 2\02. Lunar Dreams.wav

Pre-gap length 0:00:01.05

Peak level 19.3 %
Extraction speed 0.8 X
Track quality 99.9 %
Test CRC 3BBDFCED
Copy CRC 3BBDFCED
Track not present in AccurateRip database
Copy OK

Track 3

Filename C:\James Horner - Apollo 13 (Intrada ISC 415) [FLAC]\CD 2\03. All Systems Go - The Launch.wav

Pre-gap length 0:00:02.21

Peak level 92.2 %
Extraction speed 1.3 X
Track quality 100.0 %
Test CRC 2A668A1E
Copy CRC 2A668A1E
Track not present in AccurateRip database
Copy OK

Track 4

Filename C:\James Horner - Apollo 13 (Intrada ISC 415) [FLAC]\CD 2\04. Docking.wav

Peak level 67.2 %
Extraction speed 1.3 X
Track quality 100.0 %
Test CRC D00097CC
Copy CRC D00097CC
Track not present in AccurateRip database
Copy OK

Track 5

Filename C:\James Horner - Apollo 13 (Intrada ISC 415) [FLAC]\CD 2\05. Master Alarm.wav

Pre-gap length 0:00:01.45

Peak level 95.1 %
Extraction speed 1.1 X
Track quality 99.9 %
Test CRC 9E71AEE6
Copy CRC 9E71AEE6
Track not present in AccurateRip database
Copy OK

Track 6

Filename C:\James Horner - Apollo 13 (Intrada ISC 415) [FLAC]\CD 2\06. Into The L.E.M..wav

Pre-gap length 0:00:01.14

Peak level 94.9 %
Extraction speed 1.6 X
Track quality 100.0 %
Test CRC 7C9535C8
Copy CRC 7C9535C8
Track not present in AccurateRip database
Copy OK

Track 7

Filename C:\James Horner - Apollo 13 (Intrada ISC 415) [FLAC]\CD 2\07. The Dark Side Of The Moon.wav

Peak level 75.3 %
Extraction speed 1.7 X
Track quality 100.0 %
Test CRC 4A36A03A
Copy CRC 4A36A03A
Track not present in AccurateRip database
Copy OK

Track 8

Filename C:\James Horner - Apollo 13 (Intrada ISC 415) [FLAC]\CD 2\08. Carbon Dioxide.wav

Pre-gap length 0:00:01.60

Peak level 97.4 %
Extraction speed 1.8 X
Track quality 100.0 %
Test CRC 6811EFA2
Copy CRC 6811EFA2
Track not present in AccurateRip database
Copy OK

Track 9

Filename C:\James Horner - Apollo 13 (Intrada ISC 415) [FLAC]\CD 2\09. Manual Burn.wav

Pre-gap length 0:00:01.44

Peak level 98.0 %
Extraction speed 1.6 X
Track quality 100.0 %
Test CRC 3CBC062B
Copy CRC 3CBC062B
Track not present in AccurateRip database
Copy OK

Track 10

Filename C:\James Horner - Apollo 13 (Intrada ISC 415) [FLAC]\CD 2\10. Four More Amps.wav

Peak level 97.4 %
Extraction speed 1.8 X
Track quality 100.0 %
Test CRC D296AE68
Copy CRC D296AE68
Track not present in AccurateRip database
Copy OK

Track 11

Filename C:\James Horner - Apollo 13 (Intrada ISC 415) [FLAC]\CD 2\11. Re-Entry And Splashdown.wav

Pre-gap length 0:00:01.09

Peak level 94.0 %
Extraction speed 2.1 X
Track quality 100.0 %
Test CRC C56B9930
Copy CRC C56B9930
Track not present in AccurateRip database
Copy OK

Track 12

Filename C:\James Horner - Apollo 13 (Intrada ISC 415) [FLAC]\CD 2\12. End Credits.wav

Peak level 97.2 %
Extraction speed 2.2 X
Track quality 100.0 %
Test CRC 7439AD04
Copy CRC 7439AD04
Track not present in AccurateRip database
Copy OK


None of the tracks are present in the AccurateRip database

No errors occurred

End of status report

–– CUETools DB Plugin V2.1.6

[CTDB TOCID: SLwqohG2r6ueKUuCkFE0_8c0F1Y-] found
Submit result: SLwqohG2r6ueKUuCkFE0_8c0F1Y- has been confirmed
Track | CTDB Status
1 | (3/3) Accurately ripped
2 | (3/3) Accurately ripped
3 | (3/3) Accurately ripped
4 | (3/3) Accurately ripped
5 | (3/3) Accurately ripped
6 | (3/3) Accurately ripped
7 | (3/3) Accurately ripped
8 | (3/3) Accurately ripped
9 | (3/3) Accurately ripped
10 | (3/3) Accurately ripped
11 | (3/3) Accurately ripped
12 | (3/3) Accurately ripped


==== Log checksum 0F92F1678AC1EAF5E6531C0457554D169D0A9926A46F06CB028E9F69883B046E ====