Subcategories

James Horner - Titanic: Music From The Motion Picture (1997) 4CD Box Set, 20th Anniversary Expanded Limited Edition 2017

Posted By: Efgrapha
James Horner - Titanic: Music From The Motion Picture (1997) 4CD Box Set, 20th Anniversary Expanded Limited Edition 2017

James Horner - Titanic: Music From The Motion Picture (1997)
4CD Box Set, 20th Anniversary Expanded Limited Edition 2017

EAC | FLAC (Image) + cue.+log ~ 1.21 Gb | Scans ~ 313 Mb | 04:22:42
Soundtrack, Score | Label: La-La Land | # LLLCD 1446

La-La Land Records, Paramount Pictures and Sony Music proudly present TITANIC – 20th ANNIVERSARY EDITION, a special limited, remastered and expanded 4-CD re-issue of legendary composer James Horner’s (AVATAR, GLORY, ALIENS) Oscar®-Winning original motion picture score to the 1997 landmark Best Picture film, TITANIC, written and directed by James Cameron, and starring Leonardo DiCaprio, Kate Winslet and Gloria Stuart. Regarded as one of the composer’s finest achievements, this deluxe presentation showcases a comprehensive assembly of Horner’s deeply emotional, romantic and thrilling iconic score on both Discs One and Two, while additional music and alternate cues are featured on Disc Three, and the film’s period source music is housed on Disc Four. Produced by Mike Matessino and Neil S. Bulk, with the approval of the James Horner Estate and Lightstorm Entertainment, and mastered by Matessino from studio vault elements, this sumptuous, stellar-sounding reissue is limited to 5000 units. Writer Jeff Bond’s exclusive liner notes, as presented within a sleek 36-page booklet, take you deep inside the production of the epic and its music, while Dan Goldwasser’s sharp art design celebrates the cinematic experience that is TITANIC. Let maestro Horner sweep you away like never before, with this knockout presentation of one of the most notable scores of our time!

“Titanic” is a 1997 American epic romance-disaster film directed, written, co-produced and co-edited by James Cameron. A fictionalized account of the sinking of the RMS Titanic, it stars Leonardo DiCaprio and Kate Winslet as members of different social classes who fall in love aboard the ship during its ill-fated maiden voyage.mCameron’s inspiration for the film came from his fascination with shipwrecks; he felt a love story interspersed with the human loss would be essential to convey the emotional impact of the disaster. The plot is that A seventeen-year-old aristocrat falls in love with a kind but poor artist aboard the luxurious, ill-fated R.M.S. Titanic.

“Titanic”…”My heart will go on” sung by Celine Dion…two of the most recognisable and affecting elements of the past couple of decades. James Horner wrote that song that became legendary and this score has been one of his most appreciated and sought after. Even if James Horner is not my favourite composer of all times (he’s third, but for different reasons) there is no composer who can pull on my emotional chords like him. His music is the one which has the biggest emotional impact on me; scores like “Braveheart” or “Legends of the fall” leave me emotionally charged and then drained and, yes, they make me cry. No other composer can get to me, plain and simple, like James Horner does. His music is my weak spot, my Achille’s he

I couldn’t wait for this type of release for “Titanic”, the complete form that La La Land presents now. They did the same with “Braveheart” a couple of years ago and that release shot right at the top of my all time ranks. It’s about time I discovered “Titanic” in the same way and it’s actually the right time since it took me 20 years to finally see the movie. I will not go into details but I saw the movie for the first time in 2017, a couple of months ago, at the suggestion of my love and it simply blew me away; I’ve always been a James Cameron fan so I should have trusted him. From the visuals to the story to the intensity and to the music, this is a masterpiece and I am glad I saw it before 20 more years passed. The movie really had an impact on me and watching with somebody who was a big fan certainly helped.

James Horner was one of the best composers in film music history and this is not news to anyone; as it’s very well known that he was master of self sampling, of reusing his motifs, of having recurring themes and sounds through different scores and he was that good that this not only didn’t bother anybody but it was welcomed. When the music is perfect, I don’t mind hearing it reused over and over again. These thoughts come back to me as I hear the opening musings from “Titanic” since the Celtic motif that blends into the humming of the main theme could have very well been present on the “Braveheart” score. I like it that right from the beginning of this expanded edition we get one of the trademark over 10 minutes long Horner suites in “2-1,2 Miles down”. This piece is as dark as the deep end of the ocean with no trace of the melodic magic that made James Horner a legend. This is mystery music as its best as the subtle vocal insert swims like a mermaid through this theme before taking over and replacing mystery with awe; it’s the perfect cue to start a long adventure. I am fascinated how these opening cues set the ocean atmosphere with soft and whimsical tones, with broad yet minimalistic motifs punctuated every now and then by explosions of melody that to me evoke magnificent landscapes. The string of cues until “Southampton”, the ones that play over the initial part of the movie before the memories start, could very well be present on a sea documentary where images do all the talking and, in a way, this is the case here.

“Southampton” opens the past period of the movie and it’s that optimistic and carefree sound that James Horner can do so well by using a few instruments and voices that once again give the feeling of a fairytale to the score. The choral motif that appears here for the first time serves as a secondary theme for “Titanic” and I associate it with Leonardo DiCaprio’s character and with the starry eyed awe of being part of such a journey. There is a bit of an electronic vibe in this score that firmly places it in the 1990s as Horner often employed this technique in the 80s and 90s.

As I said before James Horner is the master of emotional manipulation and if composers like James Newton Howard or John Williams can write perfectly for a particular range of emotions, Horner is the one composer that can cover the entire spectre and who knows when it’s time for light and when it’s time for heavy; as I listen to that choral motif joyfully gleaming again in “Take her to see, Mr Murdoch” and I realise how similar it sounds to the other James Horner ocean disaster score “The perfect storm” I like the subdued emotion, that feeling that there is still a lot of place for the sound to go deeper. The movie builds up over 3 hours though and the score follows the same steps without piling it all up on us from the beginning. I am also discovering a more complex weaving with these minimalistic, darker tones I didn’t expect to find so carefully crafted on this score.

This is also the way to even further enhance the impact of the magnificent and immortal “Rose” theme that shines even brightly on that darker background even when it’s not presented in full force but subtly at first in “Rose”. It’s right up there with the best themes Horner ever wrote; I have no idea how he managed to capture the essence of the character and, after all, of the love story from “Titanic” in such a stunningly simple and beautiful theme. You know it, you’ve heard it, you’ve dreamed on it, you’ve cried on it and that flute motif is something no other composer can write as well. Had I listened to this score without seeing the movie I wouldn’t have understood why the composer chose to drop emotion in lighter doses, like a soft rain, rather than his usual hurricane intensity. The love story is simple and innocent at first before the drama begins. It is also fascinating how good the music sounds even if, as was often the case with 90s Horner, it wasn’t perfectly polished or produced.

From “A building panic” the mood changes and the soft and dreamy sound is replaced with a louder one with a sense of urgency that matches the complexity of the movie; the transition is natural and I am sitting on the edge of my seat listening to this score as I did watching the movie; there is musical suspense and I feel like I am part of the story. There’s the “Braveheart” sound again in “Unable to stay / Unwilling to leave”. There are these magical moments within Titanic that work the best for me. I still strangely feel less emotionally connected and invested in the score than I did with the movie. The exaggerated suspense in the score tampers with the emotional intensity as I keep waiting for that cathartic cue that captures what the movie transmitted me. For once James Horner focused on the tension more than anything else and this keeps the score from being perfect in my book; I think “Avatar” is where he got the balance right as if you take out the sublime main theme, the two scores are closest in tone and construction.

I admit I was expecting more of a punch from the climatic string of cues “The sinking / Death of Titanic / A promise kept”. In the movie the scenes were vivid, rich, intense and the music somehow only focuses on the fear and emptiness, it focuses on what was missing rather than what was present. This makes “Titanic” fall short by comparison to scores like “Braveheart” or “Legends of the fall” where emotion was unleashed. Maybe it’s just the way the movie felt for me but there are moments when the score fails to capture the magnitude of James Cameron’s story. By any other standards this is an exceptional score, just that for me the James Horner scale is different so I am left with a bit of a longing once it’s over. I think that he chose to make his score feel elegiac and respectful above anything else, making the ship and the memory of it all the main characters of his composition. Of course, I can’t argue with the main theme or the way it bled throughout the score; it remains one of a kind.

Mihnea Manduteanu, SoundtrackDreams.com

James Horner - Titanic: Music From The Motion Picture (1997) 4CD Box Set, 20th Anniversary Expanded Limited Edition 2017


~ James Horner at Allmusic
~ James Horner at Wiki

~ Film at IMDB
~ Film at Wiki

Tracklist:

CD1 (58:27) - Score Presentation

01. Logo / Main Title (2:26)
02. 2-1/2 Miles Down (10:33)
03. To the Keldysh / Rose Revealed (1:43)
04. Distant Memories (2:24)
05. My Drawing / Relics & Treasures (1:52)
06. Southampton (4:00)
07. Leaving Port (3:27)
08. Take Her to Sea, Mr. Murdoch (4:32)
09. First Sighting / Rose's Suicide Attempt (3:03)
10. Jack Saves Rose (1:42)
11. The Promenade / Butterfly Comb (2:40)
12. Rose (2:54)
13. The Portrait (1:58)
14. Lovejoy Chases Jack and Rose (2:24)
15. Lovemaking (2:26)
16. Hard to Starboard (Extended Version) (7:42)
17. Rose Frees Jack (2:41)


CD2 (54:57) - Score Presentation

01. A Building Panic (Film Version) (7:24)
02. Unable to Stay, Unwilling to Leave (3:57)
03. Trapped on 'D' Deck (8:45)
04. Murdoch's Suicide (0:37)
05. The Sinking (5:06)
06. Death of Titanic (8:25)
07. A Promise Kept (6:04)
08. A Life So Changed (2:14)
09. A Woman's Heart is a Deep Ocean of Secrets (1:43)
10. An Ocean of Memories (8:01)
11. Post (2:42)


CD3 (1:12:50) - Additional Music And Alternatives

01. Never an Absolution (3:04)
02. Trailer (4:14)
03. The Portrait (4:42)
04. Logo (Alternate Extended Version) (2:10)
05. 2-1/2 Miles Down (Alternate) (1:36)
06. Southampton (Alternate) (3:04)
07. Leaving Port (with Alternate Ending) (3:00)
08. Leaving Port (Alternate) (2:15)
09. Take Her to Sea, Mr. Murdoch (Alternate) (4:31)
10. Rose (Alternate) (2:56)
11. Piano Theme - The Portrait (5:00)
12. Lovejoy Chases Jack (Alternate) (1:55)
13. Hard to Starboard (Alternate) (6:50)
14. A Buidling Panic (8:08)
15. Death of Titanic (Alternate) (8:27)
16. A Promise Kept (Alternate) (4:31)
17. Hymn to the Sea (6:26)


CD4 (1:16:28) - Source Music

01. Valse Septembre (3:41)
02. Marguerite Waltz (2:34)
03. Wedding Dance (2:30)
04. Poet and Peasant (6:48)
05. Blue Danube (6:55)
06. Song Without Words (2:37)
07. Estudiantina (3:11)
08. Oh, You Beautiful Doll (2:14)
09. Blarney Pilgrims (2:09)
10. John Ryan's Polka (2:53)
11. Kesh Jig (1:59)
12. Drowsy Maggie Dance (1:24)
13. Come Josephine in My Flying Machine (1:44)
14. The Merry Widow (1:30)
15. Meditation De Thais (4:25)
16. Vision of Salome (2:42)
17. Titsy Bitsy Girl (1:35)
18. Alexander's Ragtime Band (2:28)
19. Sphinx (3:48)
20. Barcarole (3:31)
21. Orpheus (8:40)
22. Song of Autumn (3:53)
23. Nearer My God to Thee (Extended Version) (3:14)


Exact Audio Copy V1.1 from 23. June 2015

Отчёт EAC об извлечении, выполненном 11. марта 2018, 21:13

James Horner / Titanic (20th Anniversary Expanded Soundtrack) Disc 1

Дисковод: Optiarc DVD RW AD-7261S Adapter: 1 ID: 1

Режим чтения : Достоверность
Использование точного потока : Да
Отключение кэша аудио : Да
Использование указателей C2 : Нет

Коррекция смещения при чтении : 48
Способность читать области Lead-in и Lead-out : Нет
Заполнение пропущенных сэмплов тишиной : Да
Удаление блоков с тишиной в начале и конце : Нет
При вычислениях CRC использовались нулевые сэмплы : Да
Интерфейс : Встроенный Win32-интерфейс для Win NT/2000

Выходной формат : Пользовательский кодировщик
Выбранный битрейт : 896 kBit/s
Качество : Высокий
Добавление ID3-тега : Нет
Утилита сжатия : C:\Program Files (x86)\Exact Audio Copy\FLAC\FLAC.EXE
Дополнительные параметры : -V -8 -T "Date=%year%" -T "Genre=%genre%" %source%


TOC извлечённого CD

Трек | Старт | Длительность | Начальный сектор | Конечный сектор
––––––––––––––––––––––––––––––––––-
1 | 0:00.00 | 2:25.56 | 0 | 10930
2 | 2:25.56 | 10:32.68 | 10931 | 58398
3 | 12:58.49 | 1:43.18 | 58399 | 66141
4 | 14:41.67 | 2:24.04 | 66142 | 76945
5 | 17:05.71 | 1:51.69 | 76946 | 85339
6 | 18:57.65 | 4:00.25 | 85340 | 103364
7 | 22:58.15 | 3:26.38 | 103365 | 118852
8 | 26:24.53 | 4:31.58 | 118853 | 139235
9 | 30:56.36 | 3:03.33 | 139236 | 152993
10 | 33:59.69 | 1:41.46 | 152994 | 160614
11 | 35:41.40 | 2:39.72 | 160615 | 172611
12 | 38:21.37 | 2:53.69 | 172612 | 185655
13 | 41:15.31 | 1:57.65 | 185656 | 194495
14 | 43:13.21 | 2:23.40 | 194496 | 205260
15 | 45:36.61 | 2:26.18 | 205261 | 216228
16 | 48:03.04 | 7:42.37 | 216229 | 250915
17 | 55:45.41 | 2:41.34 | 250916 | 263024


Характеристики диапазона извлечения и сообщения об ошибках

Выбранный диапазон

Имя файла H:\Titanic - Music from motion picture (20th anniversary edition)\James Horner - Titanic (20th Anniversary Expanded Soundtrack) Disc 1.wav

Пиковый уровень 99.6 %
Скорость извлечения 4.2 X
Качество диапазона 100.0 %
CRC копии 83B97D82
Копирование… OK

Ошибок не произошло


AccurateRip: сводка

Трек 1 : извлечено точно (доверие 9) [975951D0] (AR v2)
Трек 2 : извлечено точно (доверие 9) [4333D58B] (AR v2)
Трек 3 : извлечено точно (доверие 9) [D6825AA8] (AR v2)
Трек 4 : извлечено точно (доверие 9) [86C031B5] (AR v2)
Трек 5 : извлечено точно (доверие 9) [3526875A] (AR v2)
Трек 6 : извлечено точно (доверие 9) [E7E8945B] (AR v2)
Трек 7 : извлечено точно (доверие 9) [B2561D2E] (AR v2)
Трек 8 : извлечено точно (доверие 9) [76B2EF70] (AR v2)
Трек 9 : извлечено точно (доверие 9) [08258028] (AR v2)
Трек 10 : извлечено точно (доверие 9) [D908DA04] (AR v2)
Трек 11 : извлечено точно (доверие 9) [954E893B] (AR v2)
Трек 12 : извлечено точно (доверие 9) [DBC23428] (AR v2)
Трек 13 : извлечено точно (доверие 9) [579DFBCA] (AR v2)
Трек 14 : извлечено точно (доверие 9) [7AC7E01C] (AR v2)
Трек 15 : извлечено точно (доверие 9) [21CBC513] (AR v2)
Трек 16 : извлечено точно (доверие 9) [66CF493C] (AR v2)
Трек 17 : извлечено точно (доверие 8) [D2BC3687] (AR v2)

Все треки извлечены точно

Конец отчёта

==== Контрольная сумма отчёта 6CC04AC66B53DD181732777B6A37B36B51CD5607E0070EF93D1E11CCBE20AB89 ====

[CUETools log; Date: 28.03.2018 4:50:55; Version: 2.1.4]
[CTDB TOCID: EYDQqFCnc.g9yQ1wuyDFBIKdIGw-] found.
Track | CTDB Status
1 | (53/53) Accurately ripped
2 | (52/53) Accurately ripped
3 | (53/53) Accurately ripped
4 | (52/53) Accurately ripped
5 | (52/53) Accurately ripped
6 | (53/53) Accurately ripped
7 | (53/53) Accurately ripped
8 | (53/53) Accurately ripped
9 | (53/53) Accurately ripped
10 | (53/53) Accurately ripped
11 | (53/53) Accurately ripped
12 | (53/53) Accurately ripped
13 | (53/53) Accurately ripped
14 | (53/53) Accurately ripped
15 | (53/53) Accurately ripped
16 | (53/53) Accurately ripped
17 | (53/53) Accurately ripped
[AccurateRip ID: 00258d58-01cec8bf-fc0db311] found.
Track [ CRC | V2 ] Status
01 [5670dc99|975951d0] (0+9/9) Accurately ripped
02 [4155e751|4333d58b] (0+9/9) Accurately ripped
03 [992056d2|d6825aa8] (0+9/9) Accurately ripped
04 [20467853|86c031b5] (0+9/9) Accurately ripped
05 [3cc17142|3526875a] (0+9/9) Accurately ripped
06 [6320f81d|e7e8945b] (0+9/9) Accurately ripped
07 [561a1298|b2561d2e] (0+9/9) Accurately ripped
08 [04b7c178|76b2ef70] (0+9/9) Accurately ripped
09 [7949e50b|08258028] (0+9/9) Accurately ripped
10 [48b61fb8|d908da04] (0+9/9) Accurately ripped
11 [ea468f36|954e893b] (0+9/9) Accurately ripped
12 [b31149d3|dbc23428] (0+9/9) Accurately ripped
13 [9852f26a|579dfbca] (0+9/9) Accurately ripped
14 [dcd003bd|7ac7e01c] (0+9/9) Accurately ripped
15 [c982275c|21cbc513] (0+9/9) Accurately ripped
16 [8bfa8813|66cf493c] (0+9/9) Accurately ripped
17 [392babc0|d2bc3687] (0+8/8) Accurately ripped

Track Peak [ CRC32 ] [W/O NULL] [ LOG ]
– 99,6 [83B97D82] [E784C8FE] CRC32
01 51,9 [517D2DD4] [2B1A4E65]
02 98,6 [070AD647] [E57B7B7A]
03 97,9 [68DE726D] [7E3979FE]
04 94,6 [70DF3D6B] [CE6C45D4]
05 26,3 [8DBD0B33] [A3DE5688]
06 99,6 [56976F1C] [8D5A8119]
07 90,6 [CB722CD0] [97326758]
08 97,5 [29FE1396] [D4C8B93F]
09 98,6 [F31D2B7B] [807A0F48]
10 95,3 [114A08F8] [AAC8F545]
11 27,8 [267406A7] [3C37C1D3]
12 43,0 [710034B0] [73395FEB]
13 50,1 [12028188] [70E33C79]
14 69,7 [CF2BE661] [5DAF7B12]
15 50,0 [519F89BC] [C00F10F0]
16 95,7 [13F97B1F] [C05EE2BC]
17 24,9 [8C1365D8] [72460B12]

foobar2000 1.2 / Dynamic Range Meter 1.1.1
log date: 2018-03-28 05:48:05

––––––––––––––––––––––––––––––––––––––––
Analyzed: James Horner / Titanic (20th Anniversary Expanded Soundtrack) Disc 1
––––––––––––––––––––––––––––––––––––––––

DR Peak RMS Duration Track
––––––––––––––––––––––––––––––––––––––––
DR13 -5.68 dB -24.40 dB 2:26 01-Logo / Main Title
DR13 -0.11 dB -19.34 dB 10:33 02-2-1/2 Miles Down
DR14 -0.18 dB -23.01 dB 1:43 03-To the Keldysh / Rose Revealed
DR15 -0.48 dB -23.64 dB 2:24 04-Distant Memories
DR10 -11.59 dB -26.14 dB 1:52 05-My Drawing / Relics & Treasures
DR13 -0.03 dB -18.36 dB 4:00 06-Southampton
DR15 -0.85 dB -20.85 dB 3:27 07-Leaving Port
DR15 -0.22 dB -20.78 dB 4:32 08-Take Her to Sea, Mr. Murdoch
DR13 -0.12 dB -19.08 dB 3:03 09-First Sighting / Rose's Suicide Attempt
DR12 -0.42 dB -20.48 dB 1:42 10-Jack Saves Rose
DR13 -11.09 dB -30.33 dB 2:40 11-The Promenade / Butterfly Comb
DR11 -7.32 dB -23.62 dB 2:54 12-Rose
DR10 -5.99 dB -21.40 dB 1:58 13-The Portrait
DR13 -3.13 dB -20.42 dB 2:24 14-Lovejoy Chases Jack and Rose
DR10 -6.01 dB -24.25 dB 2:26 15-Lovemaking
DR13 -0.38 dB -18.27 dB 7:42 16-Hard to Starboard (Extended Version)
DR11 -12.06 dB -29.49 dB 2:41 17-Rose Frees Jack
––––––––––––––––––––––––––––––––––––––––

Number of tracks: 17
Official DR value: DR13

Samplerate: 44100 Hz
Channels: 2
Bits per sample: 16
Bitrate: 630 kbps
Codec: FLAC
================================================================================


Exact Audio Copy V1.1 from 23. June 2015

Отчёт EAC об извлечении, выполненном 11. марта 2018, 21:29

James Horner / Titanic (20th Anniversary Expanded Soundtrack) Disc 2

Дисковод: Optiarc DVD RW AD-7261S Adapter: 1 ID: 1

Режим чтения : Достоверность
Использование точного потока : Да
Отключение кэша аудио : Да
Использование указателей C2 : Нет

Коррекция смещения при чтении : 48
Способность читать области Lead-in и Lead-out : Нет
Заполнение пропущенных сэмплов тишиной : Да
Удаление блоков с тишиной в начале и конце : Нет
При вычислениях CRC использовались нулевые сэмплы : Да
Интерфейс : Встроенный Win32-интерфейс для Win NT/2000

Выходной формат : Пользовательский кодировщик
Выбранный битрейт : 896 kBit/s
Качество : Высокий
Добавление ID3-тега : Нет
Утилита сжатия : C:\Program Files (x86)\Exact Audio Copy\FLAC\FLAC.EXE
Дополнительные параметры : -V -8 -T "Date=%year%" -T "Genre=%genre%" %source%


TOC извлечённого CD

Трек | Старт | Длительность | Начальный сектор | Конечный сектор
––––––––––––––––––––––––––––––––––-
1 | 0:00.00 | 7:23.52 | 0 | 33276
2 | 7:23.52 | 3:56.66 | 33277 | 51042
3 | 11:20.43 | 8:45.07 | 51043 | 90424
4 | 20:05.50 | 0:37.24 | 90425 | 93223
5 | 20:42.74 | 5:05.48 | 93224 | 116146
6 | 25:48.47 | 8:25.09 | 116147 | 154030
7 | 34:13.56 | 6:04.12 | 154031 | 181342
8 | 40:17.68 | 2:13.48 | 181343 | 191365
9 | 42:31.41 | 1:43.33 | 191366 | 199123
10 | 44:14.74 | 8:00.43 | 199124 | 235166
11 | 52:15.42 | 2:41.67 | 235167 | 247308


Характеристики диапазона извлечения и сообщения об ошибках

Выбранный диапазон

Имя файла H:\Titanic - Music from motion picture (20th anniversary edition)\James Horner - Titanic (20th Anniversary Expanded Soundtrack) Disc 2.wav

Пиковый уровень 99.8 %
Скорость извлечения 4.1 X
Качество диапазона 99.9 %
CRC копии 7BEA4278
Копирование… OK

Ошибок не произошло


AccurateRip: сводка

Трек 1 : извлечено точно (доверие 9) [658C55F9] (AR v2)
Трек 2 : извлечено точно (доверие 9) [70733063] (AR v2)
Трек 3 : извлечено точно (доверие 9) [4BEFA781] (AR v2)
Трек 4 : извлечено точно (доверие 9) [03D68532] (AR v2)
Трек 5 : извлечено точно (доверие 9) [811C8A86] (AR v2)
Трек 6 : извлечено точно (доверие 9) [842BEAD7] (AR v2)
Трек 7 : извлечено точно (доверие 9) [B66AE1A4] (AR v2)
Трек 8 : извлечено точно (доверие 9) [93D62DD7] (AR v2)
Трек 9 : извлечено точно (доверие 9) [689F6F6A] (AR v2)
Трек 10 : извлечено точно (доверие 9) [050BE9C1] (AR v2)
Трек 11 : извлечено точно (доверие 8) [C59E32F8] (AR v2)

Все треки извлечены точно

Конец отчёта

==== Контрольная сумма отчёта 36F3350FE9F130BD8127439927C5C0F5FC3F90BBB3E5315582CC1559207E1AFA ====

[CUETools log; Date: 28.03.2018 4:51:13; Version: 2.1.4]
[CTDB TOCID: o.nmSZCMNHbxVpUVOR4SQmOHaUc-] found.
Track | CTDB Status
1 | (51/51) Accurately ripped
2 | (51/51) Accurately ripped
3 | (51/51) Accurately ripped
4 | (51/51) Accurately ripped
5 | (51/51) Accurately ripped
6 | (51/51) Accurately ripped
7 | (51/51) Accurately ripped
8 | (51/51) Accurately ripped
9 | (51/51) Accurately ripped
10 | (51/51) Accurately ripped
11 | (51/51) Accurately ripped
[AccurateRip ID: 00184c88-00cea032-8b0ce10b] found.
Track [ CRC | V2 ] Status
01 [8c39e4d7|658c55f9] (0+9/9) Accurately ripped
02 [1b6e4473|70733063] (0+9/9) Accurately ripped
03 [f5bea54a|4befa781] (0+9/9) Accurately ripped
04 [ed100023|03d68532] (0+9/9) Accurately ripped
05 [d1d08f0f|811c8a86] (0+9/9) Accurately ripped
06 [2f1f0c79|842bead7] (0+9/9) Accurately ripped
07 [f2481765|b66ae1a4] (0+9/9) Accurately ripped
08 [10f44650|93d62dd7] (0+9/9) Accurately ripped
09 [54fadb02|689f6f6a] (0+9/9) Accurately ripped
10 [b2aa6ebf|050be9c1] (0+9/9) Accurately ripped
11 [ae4dbbad|c59e32f8] (0+8/8) Accurately ripped

Track Peak [ CRC32 ] [W/O NULL] [ LOG ]
– 99,8 [7BEA4278] [A0B9CE11] CRC32
01 99,3 [051919B4] [F4F4B27A]
02 85,7 [E48B45A3] [28312B70]
03 99,2 [DB0CDA7B] [7CD06A42]
04 26,2 [8AF6E293] [2BB41B72]
05 99,8 [7B8038DE] [314BA75C]
06 98,5 [AF77240A] [3A24D0B0]
07 40,2 [ACF1C713] [BD2BE246]
08 43,5 [3EA4A96F] [0454697A]
09 19,0 [A464BA02] [C35377AF]
10 55,3 [AEAF993B] [CD285615]
11 34,3 [1275AF6B] [50012ABF]

foobar2000 1.2 / Dynamic Range Meter 1.1.1
log date: 2018-03-28 05:48:40

––––––––––––––––––––––––––––––––––––––––
Analyzed: James Horner / Titanic (20th Anniversary Expanded Soundtrack) Disc 2
––––––––––––––––––––––––––––––––––––––––

DR Peak RMS Duration Track
––––––––––––––––––––––––––––––––––––––––
DR15 -0.06 dB -19.81 dB 7:24 01-A Building Panic (Film Version)
DR13 -1.33 dB -20.45 dB 3:57 02-Unable to Stay, Unwilling to Leave
DR15 -0.07 dB -19.38 dB 8:45 03-Trapped on 'D' Deck
DR10 -11.62 dB -26.63 dB 0:37 04-Murdoch's Suicide
DR14 -0.02 dB -17.41 dB 5:06 05-The Sinking
DR13 -0.13 dB -18.52 dB 8:25 06-Death of Titanic
DR14 -7.91 dB -28.44 dB 6:04 07-A Promise Kept
DR10 -7.21 dB -22.63 dB 2:14 08-A Life So Changed
DR10 -14.42 dB -29.81 dB 1:43 09-A Woman's Heart is a Deep Ocean of Secrets
DR13 -5.14 dB -24.35 dB 8:01 10-An Ocean of Memories
DR11 -9.29 dB -26.52 dB 2:42 11-Post
––––––––––––––––––––––––––––––––––––––––

Number of tracks: 11
Official DR value: DR12

Samplerate: 44100 Hz
Channels: 2
Bits per sample: 16
Bitrate: 662 kbps
Codec: FLAC
================================================================================


Exact Audio Copy V1.1 from 23. June 2015

Отчёт EAC об извлечении, выполненном 11. марта 2018, 21:47

James Horner / Titanic (20th Anniversary Expanded Soundtrack) Disc 3

Дисковод: Optiarc DVD RW AD-7261S Adapter: 1 ID: 1

Режим чтения : Достоверность
Использование точного потока : Да
Отключение кэша аудио : Да
Использование указателей C2 : Нет

Коррекция смещения при чтении : 48
Способность читать области Lead-in и Lead-out : Нет
Заполнение пропущенных сэмплов тишиной : Да
Удаление блоков с тишиной в начале и конце : Нет
При вычислениях CRC использовались нулевые сэмплы : Да
Интерфейс : Встроенный Win32-интерфейс для Win NT/2000

Выходной формат : Пользовательский кодировщик
Выбранный битрейт : 896 kBit/s
Качество : Высокий
Добавление ID3-тега : Нет
Утилита сжатия : C:\Program Files (x86)\Exact Audio Copy\FLAC\FLAC.EXE
Дополнительные параметры : -V -8 -T "Date=%year%" -T "Genre=%genre%" %source%


TOC извлечённого CD

Трек | Старт | Длительность | Начальный сектор | Конечный сектор
––––––––––––––––––––––––––––––––––-
1 | 0:00.00 | 3:04.14 | 0 | 13813
2 | 3:04.14 | 4:14.02 | 13814 | 32865
3 | 7:18.16 | 4:42.22 | 32866 | 54037
4 | 12:00.38 | 2:09.66 | 54038 | 63778
5 | 14:10.29 | 1:36.23 | 63779 | 71001
6 | 15:46.52 | 3:03.44 | 71002 | 84770
7 | 18:50.21 | 2:59.69 | 84771 | 98264
8 | 21:50.15 | 2:14.70 | 98265 | 108384
9 | 24:05.10 | 4:31.27 | 108385 | 128736
10 | 28:36.37 | 2:56.28 | 128737 | 141964
11 | 31:32.65 | 4:59.41 | 141965 | 164430
12 | 36:32.31 | 1:55.23 | 164431 | 173078
13 | 38:27.54 | 6:50.34 | 173079 | 203862
14 | 45:18.13 | 8:07.64 | 203863 | 240451
15 | 53:26.02 | 8:27.02 | 240452 | 278478
16 | 61:53.04 | 4:30.45 | 278479 | 298773
17 | 66:23.49 | 6:26.26 | 298774 | 327749


Характеристики диапазона извлечения и сообщения об ошибках

Выбранный диапазон

Имя файла H:\Titanic - Music from motion picture (20th anniversary edition)\James Horner - Titanic (20th Anniversary Expanded Soundtrack) Disc 3.wav

Пиковый уровень 99.6 %
Скорость извлечения 4.5 X
Качество диапазона 100.0 %
CRC копии 2DA46263
Копирование… OK

Ошибок не произошло


AccurateRip: сводка

Трек 1 : извлечено точно (доверие 9) [7ADAEE60] (AR v2)
Трек 2 : извлечено точно (доверие 9) [4203BB7C] (AR v2)
Трек 3 : извлечено точно (доверие 9) [DB3BEDF7] (AR v2)
Трек 4 : извлечено точно (доверие 9) [96469C76] (AR v2)
Трек 5 : извлечено точно (доверие 9) [99F37B6A] (AR v2)
Трек 6 : извлечено точно (доверие 9) [23117658] (AR v2)
Трек 7 : извлечено точно (доверие 9) [C64F5969] (AR v2)
Трек 8 : извлечено точно (доверие 9) [1B9480BB] (AR v2)
Трек 9 : извлечено точно (доверие 9) [DDE3D4DF] (AR v2)
Трек 10 : извлечено точно (доверие 9) [E572B0D8] (AR v2)
Трек 11 : извлечено точно (доверие 9) [E5A7CEE4] (AR v2)
Трек 12 : извлечено точно (доверие 9) [FAEC9B49] (AR v2)
Трек 13 : извлечено точно (доверие 9) [2BD01DC5] (AR v2)
Трек 14 : извлечено точно (доверие 9) [DCF9278E] (AR v2)
Трек 15 : извлечено точно (доверие 9) [F81817E4] (AR v2)
Трек 16 : извлечено точно (доверие 9) [3BD6DD24] (AR v2)
Трек 17 : извлечено точно (доверие 8) [9B348A50] (AR v2)

Все треки извлечены точно

Конец отчёта

==== Контрольная сумма отчёта 73A32018EC8BEF5795856F207C6520876B82FC96BDD8B239F8C40E08B789DE9E ====

[CUETools log; Date: 28.03.2018 4:51:31; Version: 2.1.4]
[CTDB TOCID: x00gan2SyuU4ea4o77M5dxoUQ6c-] found.
Track | CTDB Status
1 | (48/48) Accurately ripped
2 | (48/48) Accurately ripped
3 | (48/48) Accurately ripped
4 | (48/48) Accurately ripped
5 | (48/48) Accurately ripped
6 | (48/48) Accurately ripped
7 | (48/48) Accurately ripped
8 | (48/48) Accurately ripped
9 | (48/48) Accurately ripped
10 | (48/48) Accurately ripped
11 | (48/48) Accurately ripped
12 | (48/48) Accurately ripped
13 | (48/48) Accurately ripped
14 | (48/48) Accurately ripped
15 | (48/48) Accurately ripped
16 | (48/48) Accurately ripped
17 | (48/48) Accurately ripped
[AccurateRip ID: 0025e8e2-01ee8824-ec111211] found.
Track [ CRC | V2 ] Status
01 [11ad01b0|7adaee60] (0+9/9) Accurately ripped
02 [3560d7c5|4203bb7c] (0+9/9) Accurately ripped
03 [67aa9d6c|db3bedf7] (0+9/9) Accurately ripped
04 [77d3b576|96469c76] (0+9/9) Accurately ripped
05 [ad6dfa44|99f37b6a] (0+9/9) Accurately ripped
06 [3c9deca0|23117658] (0+9/9) Accurately ripped
07 [5a26005c|c64f5969] (0+9/9) Accurately ripped
08 [04de1e29|1b9480bb] (0+9/9) Accurately ripped
09 [da25b30a|dde3d4df] (0+9/9) Accurately ripped
10 [a9059b54|e572b0d8] (0+9/9) Accurately ripped
11 [be958929|e5a7cee4] (0+9/9) Accurately ripped
12 [eb91bd66|faec9b49] (0+9/9) Accurately ripped
13 [f5a8604c|2bd01dc5] (0+9/9) Accurately ripped
14 [a00f7385|dcf9278e] (0+9/9) Accurately ripped
15 [a15cdcff|f81817e4] (0+9/9) Accurately ripped
16 [50cb4d33|3bd6dd24] (0+9/9) Accurately ripped
17 [69e15dfe|9b348a50] (0+8/8) Accurately ripped

Track Peak [ CRC32 ] [W/O NULL] [ LOG ]
– 99,6 [2DA46263] [956F0E36] CRC32
01 43,7 [7C18C732] [7656C56F]
02 93,2 [73567DDE] [BC3F3A3E]
03 32,5 [07611A2D] [54B44F23]
04 98,8 [074ED4EA] [733365F7]
05 46,3 [D1AE3DBB] [723539DA]
06 86,8 [DD120979] [BF1F6B10]
07 91,6 [50511DAA] [F3F3B6AB]
08 99,4 [391E6164] [2189FBA3]
09 99,5 [8CD72597] [73CBECA1]
10 53,3 [36224C6C] [0101D9C3]
11 47,4 [491E3A5F] [B7F5140E]
12 80,2 [0D2714A1] [988BF4A1]
13 96,5 [6C0CD679] [D19287D2]
14 92,2 [604BBD09] [1D91F461]
15 99,6 [81366DCB] [AD39FE93]
16 42,1 [769020EA] [85C08AF6]
17 60,0 [6F80287F] [56A70114]

foobar2000 1.2 / Dynamic Range Meter 1.1.1
log date: 2018-03-28 05:49:06

––––––––––––––––––––––––––––––––––––––––
Analyzed: James Horner / Titanic (20th Anniversary Expanded Soundtrack) Disc 3
––––––––––––––––––––––––––––––––––––––––

DR Peak RMS Duration Track
––––––––––––––––––––––––––––––––––––––––
DR10 -7.17 dB -23.75 dB 3:04 01-Never an Absolution
DR15 -0.60 dB -21.82 dB 4:14 02-Trailer
DR13 -9.76 dB -27.97 dB 4:42 03-The Portrait
DR13 -0.10 dB -22.32 dB 2:10 04-Logo (Alternate Extended Version)
DR8 -6.67 dB -19.39 dB 1:36 05-2-1/2 Miles Down (Alternate)
DR14 -1.22 dB -22.07 dB 3:04 06-Southampton (Alternate)
DR14 -0.76 dB -20.28 dB 3:00 07-Leaving Port (with Alternate Ending)
DR13 -0.05 dB -18.37 dB 2:15 08-Leaving Port (Alternate)
DR15 -0.04 dB -20.17 dB 4:31 09-Take Her to Sea, Mr. Murdoch (Alternate)
DR12 -5.46 dB -22.90 dB 2:56 10-Rose (Alternate)
DR13 -6.48 dB -23.11 dB 5:00 11-Piano Theme - The Portrait
DR14 -1.91 dB -20.35 dB 1:55 12-Lovejoy Chases Jack (Alternate)
DR14 -0.30 dB -19.47 dB 6:50 13-Hard to Starboard (Alternate)
DR15 -0.70 dB -20.97 dB 8:08 14-A Buidling Panic
DR15 -0.03 dB -20.79 dB 8:27 15-Death of Titanic (Alternate)
DR13 -7.51 dB -26.12 dB 4:31 16-A Promise Kept (Alternate)
DR11 -4.43 dB -20.43 dB 6:26 17-Hymn to the Sea
––––––––––––––––––––––––––––––––––––––––

Number of tracks: 17
Official DR value: DR13

Samplerate: 44100 Hz
Channels: 2
Bits per sample: 16
Bitrate: 663 kbps
Codec: FLAC
================================================================================


Exact Audio Copy V1.1 from 23. June 2015

Отчёт EAC об извлечении, выполненном 11. марта 2018, 22:06

James Horner / Titanic (20th Anniversary Expanded Soundtrack) Disc 4

Дисковод: Optiarc DVD RW AD-7261S Adapter: 1 ID: 1

Режим чтения : Достоверность
Использование точного потока : Да
Отключение кэша аудио : Да
Использование указателей C2 : Нет

Коррекция смещения при чтении : 48
Способность читать области Lead-in и Lead-out : Нет
Заполнение пропущенных сэмплов тишиной : Да
Удаление блоков с тишиной в начале и конце : Нет
При вычислениях CRC использовались нулевые сэмплы : Да
Интерфейс : Встроенный Win32-интерфейс для Win NT/2000

Выходной формат : Пользовательский кодировщик
Выбранный битрейт : 896 kBit/s
Качество : Высокий
Добавление ID3-тега : Нет
Утилита сжатия : C:\Program Files (x86)\Exact Audio Copy\FLAC\FLAC.EXE
Дополнительные параметры : -V -8 -T "Date=%year%" -T "Genre=%genre%" %source%


TOC извлечённого CD

Трек | Старт | Длительность | Начальный сектор | Конечный сектор
––––––––––––––––––––––––––––––––––-
1 | 0:00.00 | 3:40.72 | 0 | 16571
2 | 3:40.72 | 2:34.17 | 16572 | 28138
3 | 6:15.14 | 2:30.06 | 28139 | 39394
4 | 8:45.20 | 6:48.21 | 39395 | 70015
5 | 15:33.41 | 6:55.22 | 70016 | 101162
6 | 22:28.63 | 2:37.30 | 101163 | 112967
7 | 25:06.18 | 3:10.54 | 112968 | 127271
8 | 28:16.72 | 2:14.32 | 127272 | 137353
9 | 30:31.29 | 2:08.62 | 137354 | 147015
10 | 32:40.16 | 2:52.44 | 147016 | 159959
11 | 35:32.60 | 1:59.37 | 159960 | 168921
12 | 37:32.22 | 1:24.31 | 168922 | 175252
13 | 38:56.53 | 1:44.09 | 175253 | 183061
14 | 40:40.62 | 1:30.22 | 183062 | 189833
15 | 42:11.09 | 4:25.02 | 189834 | 209710
16 | 46:36.11 | 2:42.35 | 209711 | 221895
17 | 49:18.46 | 1:35.04 | 221896 | 229024
18 | 50:53.50 | 2:27.57 | 229025 | 240106
19 | 53:21.32 | 3:48.11 | 240107 | 257217
20 | 57:09.43 | 3:31.33 | 257218 | 273075
21 | 60:41.01 | 8:40.28 | 273076 | 312103
22 | 69:21.29 | 3:53.03 | 312104 | 329581
23 | 73:14.32 | 3:13.43 | 329582 | 344099


Характеристики диапазона извлечения и сообщения об ошибках

Выбранный диапазон

Имя файла H:\Titanic - Music from motion picture (20th anniversary edition)\James Horner - Titanic (20th Anniversary Expanded Soundtrack) Disc 4.wav

Пиковый уровень 98.7 %
Скорость извлечения 4.5 X
Качество диапазона 100.0 %
CRC копии 7AC71770
Копирование… OK

Ошибок не произошло


AccurateRip: сводка

Трек 1 : извлечено точно (доверие 9) [058BA913] (AR v2)
Трек 2 : извлечено точно (доверие 9) [5DEBD200] (AR v2)
Трек 3 : извлечено точно (доверие 9) [D1677AD4] (AR v2)
Трек 4 : извлечено точно (доверие 9) [8E8AB768] (AR v2)
Трек 5 : извлечено точно (доверие 9) [15040F86] (AR v2)
Трек 6 : извлечено точно (доверие 9) [3C460259] (AR v2)
Трек 7 : извлечено точно (доверие 9) [00EC2FC5] (AR v2)
Трек 8 : извлечено точно (доверие 9) [CA870558] (AR v2)
Трек 9 : извлечено точно (доверие 9) [C6D689FA] (AR v2)
Трек 10 : извлечено точно (доверие 9) [4A127B94] (AR v2)
Трек 11 : извлечено точно (доверие 9) [D98DDF01] (AR v2)
Трек 12 : извлечено точно (доверие 9) [826B7A2E] (AR v2)
Трек 13 : извлечено точно (доверие 9) [66DB04E2] (AR v2)
Трек 14 : извлечено точно (доверие 9) [C5B8B59A] (AR v2)
Трек 15 : извлечено точно (доверие 9) [533D7EB6] (AR v2)
Трек 16 : извлечено точно (доверие 9) [A205A6CA] (AR v2)
Трек 17 : извлечено точно (доверие 9) [3A371D23] (AR v2)
Трек 18 : извлечено точно (доверие 9) [EB6D5825] (AR v2)
Трек 19 : извлечено точно (доверие 9) [ABF1C299] (AR v2)
Трек 20 : извлечено точно (доверие 9) [FA14732F] (AR v2)
Трек 21 : извлечено точно (доверие 9) [97E88B2A] (AR v2)
Трек 22 : извлечено точно (доверие 9) [F62BFDC7] (AR v2)
Трек 23 : извлечено точно (доверие 9) [85E6DC65] (AR v2)

Все треки извлечены точно

Конец отчёта

==== Контрольная сумма отчёта 45D359BA82B0530C5F546FD12BD866FA9124DA67084E0B941224D483F1B16832 ====

[CUETools log; Date: 28.03.2018 4:51:50; Version: 2.1.4]
[CTDB TOCID: eiHbAsPTSbi6qD06mx901o.9k2w-] found.
Track | CTDB Status
1 | (48/48) Accurately ripped
2 | (48/48) Accurately ripped
3 | (48/48) Accurately ripped
4 | (48/48) Accurately ripped
5 | (48/48) Accurately ripped
6 | (48/48) Accurately ripped
7 | (48/48) Accurately ripped
8 | (48/48) Accurately ripped
9 | (48/48) Accurately ripped
10 | (48/48) Accurately ripped
11 | (48/48) Accurately ripped
12 | (48/48) Accurately ripped
13 | (48/48) Accurately ripped
14 | (48/48) Accurately ripped
15 | (48/48) Accurately ripped
16 | (48/48) Accurately ripped
17 | (48/48) Accurately ripped
18 | (48/48) Accurately ripped
19 | (48/48) Accurately ripped
20 | (48/48) Accurately ripped
21 | (48/48) Accurately ripped
22 | (48/48) Accurately ripped
23 | (48/48) Accurately ripped
[AccurateRip ID: 003e2911-03f8861e-4811ec17] found.
Track [ CRC | V2 ] Status
01 [c221565b|058ba913] (0+9/9) Accurately ripped
02 [e6672142|5debd200] (0+9/9) Accurately ripped
03 [49d5fc13|d1677ad4] (0+9/9) Accurately ripped
04 [0e518887|8e8ab768] (0+9/9) Accurately ripped
05 [bdcde6c0|15040f86] (0+9/9) Accurately ripped
06 [66a844db|3c460259] (0+9/9) Accurately ripped
07 [93d9e38b|00ec2fc5] (0+9/9) Accurately ripped
08 [ae14b7f3|ca870558] (0+9/9) Accurately ripped
09 [85df9e95|c6d689fa] (0+9/9) Accurately ripped
10 [517ee335|4a127b94] (0+9/9) Accurately ripped
11 [cc387acf|d98ddf01] (0+9/9) Accurately ripped
12 [574c911f|826b7a2e] (0+9/9) Accurately ripped
13 [be2cda6c|66db04e2] (0+9/9) Accurately ripped
14 [92995a07|c5b8b59a] (0+9/9) Accurately ripped
15 [529f1fce|533d7eb6] (0+9/9) Accurately ripped
16 [c1968d25|a205a6ca] (0+9/9) Accurately ripped
17 [6415ee50|3a371d23] (0+9/9) Accurately ripped
18 [60251e1f|eb6d5825] (0+9/9) Accurately ripped
19 [3bd35f94|abf1c299] (0+9/9) Accurately ripped
20 [87136720|fa14732f] (0+9/9) Accurately ripped
21 [0cf9ca1a|97e88b2a] (0+9/9) Accurately ripped
22 [9e8d1f20|f62bfdc7] (0+9/9) Accurately ripped
23 [30280758|85e6dc65] (0+9/9) Accurately ripped

Track Peak [ CRC32 ] [W/O NULL] [ LOG ]
– 98,7 [7AC71770] [511B3E80] CRC32
01 95,1 [72C50760] [39B12EF9]
02 88,8 [F6B71014] [890D877F]
03 75,3 [FE05B50D] [9F6ADD35]
04 95,9 [E25A0124] [36384178]
05 95,4 [6C55F816] [3494222A]
06 74,0 [43328810] [5613E1FA]
07 79,4 [7FCAC8EF] [3D2872F1]
08 92,9 [38B55F17] [496A187B]
09 86,1 [6B9481F6] [32211233]
10 84,8 [B632BFF4] [4D0299FB]
11 98,7 [8A8C455B] [4B623BA6]
12 97,7 [59FABA05] [80E5EF3B]
13 82,7 [4DAFAF9B] [3D525C90]
14 63,2 [F10FCADA] [8EB97585]
15 98,3 [4A0721D0] [9F035025]
16 73,4 [BE07185B] [05C094B5]
17 95,7 [A5F6271B] [CFE88452]
18 58,6 [FEB4DF13] [2282F17A]
19 96,8 [177ADD6D] [08F1029C]
20 59,7 [DCA9EC6B] [128D5AA2]
21 94,3 [2E55F18D] [8D0EFBD8]
22 60,7 [AC468178] [3C50B8F8]
23 38,7 [D49D4FE5] [12555449]

foobar2000 1.2 / Dynamic Range Meter 1.1.1
log date: 2018-03-28 05:49:10

––––––––––––––––––––––––––––––––––––––––
Analyzed: Gaelic Storm / Titanic (20th Anniversary Expanded Soundtrack) Disc 4
––––––––––––––––––––––––––––––––––––––––

DR Peak RMS Duration Track
––––––––––––––––––––––––––––––––––––––––
DR15 -1.29 dB -19.08 dB 2:09 09-Blarney Pilgrims
DR14 -1.43 dB -17.56 dB 2:53 10-John Ryan's Polka
DR15 -0.11 dB -18.34 dB 1:59 11-Kesh Jig
DR15 -0.20 dB -18.83 dB 1:24 12-Drowsy Maggie Dance
––––––––––––––––––––––––––––––––––––––––

Number of tracks: 4
Official DR value: DR15

Samplerate: 44100 Hz
Channels: 2
Bits per sample: 16
Bitrate: 673 kbps
Codec: FLAC
================================================================================

––––––––––––––––––––––––––––––––––––––––
Statistics for: 04-Poet and Peasant
Number of samples: 18005148
Duration: 6:48
––––––––––––––––––––––––––––––––––––––––

Left Right

Peak Value: -0.36 dB –- -0.80 dB
Avg RMS: -17.13 dB –- -17.88 dB
DR channel: 12.39 dB –- 12.55 dB
––––––––––––––––––––––––––––––––––––––––

Official DR Value: DR12

Samplerate: 44100 Hz
Channels: 2
Bits per sample: 16
Bitrate: 673 kbps
Codec: FLAC
================================================================================
––––––––––––––––––––––––––––––––––––––––
Analyzed: I Salonisti / Titanic (20th Anniversary Expanded Soundtrack) Disc 4
––––––––––––––––––––––––––––––––––––––––

DR Peak RMS Duration Track
––––––––––––––––––––––––––––––––––––––––
DR13 -0.43 dB -19.22 dB 3:41 01-Valse Septembre
DR13 -1.02 dB -19.22 dB 2:34 02-Marguerite Waltz
DR12 -2.46 dB -18.56 dB 2:30 03-Wedding Dance
DR13 -0.40 dB -18.87 dB 6:55 05-Blue Danube
DR12 -2.61 dB -19.38 dB 2:37 06-Song Without Words
DR12 -2.00 dB -19.39 dB 3:11 07-Estudiantina
DR15 -0.14 dB -22.33 dB 4:25 15-Meditation De Thais
DR11 -2.68 dB -18.71 dB 2:42 16-Vision of Salome
DR11 -0.37 dB -14.49 dB 1:35 17-Titsy Bitsy Girl
DR13 -4.63 dB -20.77 dB 2:28 18-Alexander's Ragtime Band
DR11 -0.28 dB -17.64 dB 3:48 19-Sphinx
DR13 -4.47 dB -24.34 dB 3:31 20-Barcarole
DR12 -0.50 dB -18.30 dB 8:40 21-Orpheus
DR11 -4.33 dB -20.29 dB 3:53 22-Song of Autumn
DR10 -8.24 dB -26.52 dB 3:14 23-Nearer My God to Thee (Extended Version)
––––––––––––––––––––––––––––––––––––––––

Number of tracks: 15
Official DR value: DR12

Samplerate: 44100 Hz
Channels: 2
Bits per sample: 16
Bitrate: 673 kbps
Codec: FLAC
================================================================================

––––––––––––––––––––––––––––––––––––––––
Analyzed: James Horner / Titanic (20th Anniversary Expanded Soundtrack) Disc 4
––––––––––––––––––––––––––––––––––––––––

DR Peak RMS Duration Track
––––––––––––––––––––––––––––––––––––––––
DR13 -0.63 dB -17.21 dB 2:14 08-Oh, You Beautiful Doll
DR13 -1.64 dB -17.15 dB 1:44 13-Come Josephine in My Flying Machine
DR13 -3.98 dB -21.16 dB 1:30 14-The Merry Widow
––––––––––––––––––––––––––––––––––––––––

Number of tracks: 3
Official DR value: DR13

Samplerate: 44100 Hz
Channels: 2
Bits per sample: 16
Bitrate: 673 kbps
Codec: FLAC
================================================================================

James Horner - Titanic: Music From The Motion Picture (1997) 4CD Box Set, 20th Anniversary Expanded Limited Edition 2017