Subcategories

James Moody - The Chronological James Moody 1951-1954 (2006) [Classics 1410]

Posted By: Designol
James Moody - The Chronological James Moody 1951-1954 (2006) [Classics 1410]

James Moody - The Chronological James Moody 1951-1954 (2006)
EAC | FLAC | Tracks (Cue&Log) ~ 328 Mb | Mp3 (CBR320) ~ 166 Mb | Scans included
Bop, Hard Bop, Saxophone Jazz | Label: Classics | # 1410 | Time: 01:10:53

Back in New York after three years spent gigging and recording in Europe, a mature and rejuvenated James Moody resumed the endless North American scuffle to get by as a contemporary jazz musician. Volume five in the Classics James Moody chronology presents 16 rare Mercury recordings made between October 1951 and June 1953, followed by eight Prestige titles from January and April, 1954. The first four tracks feature baritone saxophonist Cecil Payne; high points include the rowdy, bristling "Moody's Home" and "Wiggle Waggle," an R&B rocker that sounds like something right up out of the King record catalog. Beginning with the material recorded on May 21, 1952, Moody is heard leading a group largely composed of players who, like him, had worked in Dizzy Gillespie's big band. Two of these individuals – trumpeter Dave Burns and baritone saxophonist Numa "Pee Wee" Moore – show up regularly in the front line of Moody's excellent recording ensembles between 1952 and 1955. Special mention should be made of pianist Sadik Hakim as well as hip vocalists Iona Wade, Babs Gonzales, and the amazing Eddie Jefferson, who also served as Moody's band boss and road manager. If the Mercury titles are uniformly excellent, early modern jazz, James Moody's 1954 Prestige recordings, particularly his gorgeous rendition of "Over the Rainbow" and the breathtakingly vivid, dangerously danceable "Mambo With Moody" are enduring masterworks that warrant repeated listening.

Review by arwulf arwulf, Allmusic.com

James Moody - The Chronological James Moody 1951-1954 (2006) [Classics 1410]



Tracklist:

01. Serenade in Blue (3:09)
02. Margie (3:03)
03. Moody's Home (2:47)
04. Wiggle Waggle (2:35)
05. Until the Real Thing Comes Along (2:38)
06. Hey Jim (3:08)
07. Moody's Theme (2:29)
08. My Ideal (2:55)
09. The Bite (2:42)
10. Poor Butterfly (3:03)
11. My Ideal (2:34)
12. St Louis Blues (2:35)
13. The James Moody Story (2:29)
14. And Now Moody Speaks (2:29)
15. Feelin' Low (3:15)
16. Wail Bait (3:05)
17. N.J.R. (I'm Gone) (3:25)
18. A Hundred Years from Today (2:50)
19. Keepin' Up with Jonesy (3:19)
20. Workshop (3:15)
21. That Man O'Mine (3:02)
22. Over the Rainbow (3:09)
23. Jack Raggs (2:45)
24. Mambo with Moody (4:10)


Exact Audio Copy V1.3 from 2. September 2016

EAC extraction logfile from 20. August 2017, 16:18

James Moody / 1951-1954 (The Chronological Classics 1410)

Used drive : HL-DT-STDVDRAM GH24NS95 Adapter: 1 ID: 0

Read mode : Secure
Utilize accurate stream : Yes
Defeat audio cache : Yes
Make use of C2 pointers : No

Read offset correction : 6
Overread into Lead-In and Lead-Out : No
Fill up missing offset samples with silence : Yes
Delete leading and trailing silent blocks : No
Null samples used in CRC calculations : Yes
Used interface : Native Win32 interface for Win NT & 2000
Gap handling : Appended to previous track

Used output format : User Defined Encoder
Selected bitrate : 128 kBit/s
Quality : High
Add ID3 tag : No
Command line compressor : C:\Program Files (x86)\Exact Audio Copy\Flac\flac.exe
Additional command line options : -8 -e -p -V -T "ARTIST=%artist%" -T "TITLE=%title%" -T "ALBUM=%albumtitle%" -T "DATE=%year%" -T "TRACKNUMBER=%tracknr%" -T "GENRE=%genre%" -T "PERFORMER=%albuminterpret%" -T "COMPOSER=%composer%" %haslyrics%–tag-from-file=LYRICS="%lyricsfile%"%haslyrics% -T "ALBUMARTIST=%albumartist%" -T "DISCNUMBER=%cdnumber%" -T "TOTALDISCS=%totalcds%" -T "TOTALTRACKS=%numtracks%" -T "COMMENT=%comment%" %source% -o %dest%


TOC of the extracted CD

Track | Start | Length | Start sector | End sector
––––––––––––––––––––––––––––-
1 | 0:00.00 | 3:09.07 | 0 | 14181
2 | 3:09.07 | 3:02.52 | 14182 | 27883
3 | 6:11.59 | 2:47.21 | 27884 | 40429
4 | 8:59.05 | 2:34.46 | 40430 | 52025
5 | 11:33.51 | 2:38.34 | 52026 | 63909
6 | 14:12.10 | 3:08.30 | 63910 | 78039
7 | 17:20.40 | 2:29.36 | 78040 | 89250
8 | 19:50.01 | 2:54.40 | 89251 | 102340
9 | 22:44.41 | 2:42.32 | 102341 | 114522
10 | 25:26.73 | 3:03.24 | 114523 | 128271
11 | 28:30.22 | 2:33.45 | 128272 | 139791
12 | 31:03.67 | 2:34.71 | 139792 | 151412
13 | 33:38.63 | 2:28.72 | 151413 | 162584
14 | 36:07.60 | 2:29.22 | 162585 | 173781
15 | 38:37.07 | 3:15.28 | 173782 | 188434
16 | 41:52.35 | 3:05.01 | 188435 | 202310
17 | 44:57.36 | 3:25.10 | 202311 | 217695
18 | 48:22.46 | 2:49.61 | 217696 | 230431
19 | 51:12.32 | 3:19.30 | 230432 | 245386
20 | 54:31.62 | 3:14.43 | 245387 | 259979
21 | 57:46.30 | 3:02.18 | 259980 | 273647
22 | 60:48.48 | 3:09.13 | 273648 | 287835
23 | 63:57.61 | 2:44.62 | 287836 | 300197
24 | 66:42.48 | 4:10.33 | 300198 | 318980


Track 1

Filename C:\1951-1954 (The Chronological Classics 1410)\01 - Serenade In Blue.wav

Pre-gap length 0:00:02.00

Peak level 100.0 %
Extraction speed 4.1 X
Track quality 100.0 %
Test CRC B2EB084C
Copy CRC B2EB084C
Accurately ripped (confidence 1) [16D85E61] (AR v2)
Copy OK

Track 2

Filename C:\1951-1954 (The Chronological Classics 1410)\02 - Margie.wav

Pre-gap length 0:00:02.13

Peak level 100.0 %
Extraction speed 4.5 X
Track quality 100.0 %
Test CRC 5EC1BF40
Copy CRC 5EC1BF40
Accurately ripped (confidence 1) [E7DAA336] (AR v2)
Copy OK

Track 3

Filename C:\1951-1954 (The Chronological Classics 1410)\03 - Moody's Home.wav

Pre-gap length 0:00:02.13

Peak level 100.0 %
Extraction speed 2.5 X
Track quality 99.9 %
Test CRC 8015D7AB
Copy CRC 8015D7AB
Accurately ripped (confidence 1) [E8DF8336] (AR v2)
Copy OK

Track 4

Filename C:\1951-1954 (The Chronological Classics 1410)\04 - Wiggle Waggle.wav

Pre-gap length 0:00:02.13

Peak level 100.0 %
Extraction speed 4.7 X
Track quality 100.0 %
Test CRC 65E7C079
Copy CRC 65E7C079
Accurately ripped (confidence 1) [A795A227] (AR v2)
Copy OK

Track 5

Filename C:\1951-1954 (The Chronological Classics 1410)\05 - Until The Real Thing Comes Along.wav

Pre-gap length 0:00:02.13

Peak level 100.0 %
Extraction speed 5.1 X
Track quality 100.0 %
Test CRC E137FCA5
Copy CRC E137FCA5
Accurately ripped (confidence 1) [C6E606AD] (AR v2)
Copy OK

Track 6

Filename C:\1951-1954 (The Chronological Classics 1410)\06 - Hey Jim.wav

Pre-gap length 0:00:02.13

Peak level 100.0 %
Extraction speed 5.4 X
Track quality 100.0 %
Test CRC E79B7B95
Copy CRC E79B7B95
Accurately ripped (confidence 1) [8C07E0D0] (AR v2)
Copy OK

Track 7

Filename C:\1951-1954 (The Chronological Classics 1410)\07 - Moody's Theme.wav

Pre-gap length 0:00:02.13

Peak level 100.0 %
Extraction speed 4.2 X
Track quality 100.0 %
Test CRC 5CE47562
Copy CRC 5CE47562
Accurately ripped (confidence 1) [F0BF5BDF] (AR v2)
Copy OK

Track 8

Filename C:\1951-1954 (The Chronological Classics 1410)\08 - My Ideal.wav

Pre-gap length 0:00:02.13

Peak level 100.0 %
Extraction speed 5.7 X
Track quality 100.0 %
Test CRC 451068D7
Copy CRC 451068D7
Accurately ripped (confidence 1) [C897AA7E] (AR v2)
Copy OK

Track 9

Filename C:\1951-1954 (The Chronological Classics 1410)\09 - The Bite.wav

Pre-gap length 0:00:02.13

Peak level 100.0 %
Extraction speed 1.5 X
Track quality 100.0 %
Test CRC AF010155
Copy CRC AF010155
Accurately ripped (confidence 1) [5F3DDFA2] (AR v2)
Copy OK

Track 10

Filename C:\1951-1954 (The Chronological Classics 1410)\10 - Poor Butterfly.wav

Pre-gap length 0:00:02.13

Peak level 100.0 %
Extraction speed 1.6 X
Track quality 100.0 %
Test CRC D2498F66
Copy CRC D2498F66
Accurately ripped (confidence 1) [1CF7DCC5] (AR v2)
Copy OK

Track 11

Filename C:\1951-1954 (The Chronological Classics 1410)\11 - My Ideal.wav

Pre-gap length 0:00:02.13

Peak level 100.0 %
Extraction speed 1.5 X
Track quality 100.0 %
Test CRC EA6946A6
Copy CRC EA6946A6
Accurately ripped (confidence 1) [F4A513AD] (AR v2)
Copy OK

Track 12

Filename C:\1951-1954 (The Chronological Classics 1410)\12 - St. Louis Blues.wav

Pre-gap length 0:00:02.13

Peak level 100.0 %
Extraction speed 1.6 X
Track quality 100.0 %
Test CRC 8B5057FA
Copy CRC 8B5057FA
Accurately ripped (confidence 1) [30D88C18] (AR v2)
Copy OK

Track 13

Filename C:\1951-1954 (The Chronological Classics 1410)\13 - The James Moody Story.wav

Pre-gap length 0:00:02.13

Peak level 100.0 %
Extraction speed 1.6 X
Track quality 100.0 %
Test CRC 224EAE56
Copy CRC 224EAE56
Accurately ripped (confidence 1) [01D9DA77] (AR v2)
Copy OK

Track 14

Filename C:\1951-1954 (The Chronological Classics 1410)\14 - And Now Moody Speaks.wav

Pre-gap length 0:00:02.13

Peak level 100.0 %
Extraction speed 1.7 X
Track quality 100.0 %
Test CRC B58E86F8
Copy CRC B58E86F8
Accurately ripped (confidence 1) [AF7401D8] (AR v2)
Copy OK

Track 15

Filename C:\1951-1954 (The Chronological Classics 1410)\15 - Feelin' Low.wav

Pre-gap length 0:00:02.13

Peak level 100.0 %
Extraction speed 1.8 X
Track quality 100.0 %
Test CRC 36CE8285
Copy CRC 36CE8285
Accurately ripped (confidence 1) [CA099E47] (AR v2)
Copy OK

Track 16

Filename C:\1951-1954 (The Chronological Classics 1410)\16 - Wail Bait.wav

Pre-gap length 0:00:02.13

Peak level 100.0 %
Extraction speed 1.9 X
Track quality 100.0 %
Test CRC 1EA6BDFE
Copy CRC 1EA6BDFE
Accurately ripped (confidence 1) [6F6AE8C3] (AR v2)
Copy OK

Track 17

Filename C:\1951-1954 (The Chronological Classics 1410)\17 - N.J.R. (I'm Gone).wav

Pre-gap length 0:00:02.13

Peak level 100.0 %
Extraction speed 1.9 X
Track quality 100.0 %
Test CRC 15C0C1F0
Copy CRC 15C0C1F0
Accurately ripped (confidence 1) [9A1D7345] (AR v2)
Copy OK

Track 18

Filename C:\1951-1954 (The Chronological Classics 1410)\18 - A Hundred Years From Today.wav

Pre-gap length 0:00:02.13

Peak level 100.0 %
Extraction speed 1.9 X
Track quality 100.0 %
Test CRC B091BE11
Copy CRC B091BE11
Accurately ripped (confidence 1) [D459E141] (AR v2)
Copy OK

Track 19

Filename C:\1951-1954 (The Chronological Classics 1410)\19 - Keepin' Up With The Jonesy.wav

Pre-gap length 0:00:02.13

Peak level 100.0 %
Extraction speed 2.0 X
Track quality 100.0 %
Test CRC 88385B54
Copy CRC 88385B54
Accurately ripped (confidence 1) [3CA166F9] (AR v2)
Copy OK

Track 20

Filename C:\1951-1954 (The Chronological Classics 1410)\20 - Workshop.wav

Pre-gap length 0:00:02.13

Peak level 100.0 %
Extraction speed 2.0 X
Track quality 100.0 %
Test CRC 1FE8CF73
Copy CRC 1FE8CF73
Accurately ripped (confidence 1) [5DA11F8F] (AR v2)
Copy OK

Track 21

Filename C:\1951-1954 (The Chronological Classics 1410)\21 - That Man O' Mine.wav

Pre-gap length 0:00:02.13

Peak level 100.0 %
Extraction speed 1.8 X
Track quality 99.9 %
Test CRC 82A3F7F2
Copy CRC 82A3F7F2
Accurately ripped (confidence 1) [DA6F738B] (AR v2)
Copy OK

Track 22

Filename C:\1951-1954 (The Chronological Classics 1410)\22 - Over The Rainbow.wav

Pre-gap length 0:00:02.13

Peak level 100.0 %
Extraction speed 2.1 X
Track quality 100.0 %
Test CRC 3B6F4D4B
Copy CRC 3B6F4D4B
Accurately ripped (confidence 1) [4806EF9E] (AR v2)
Copy OK

Track 23

Filename C:\1951-1954 (The Chronological Classics 1410)\23 - Jack Raggs.wav

Pre-gap length 0:00:02.13

Peak level 100.0 %
Extraction speed 2.1 X
Track quality 100.0 %
Test CRC 7F5E07D9
Copy CRC 7F5E07D9
Accurately ripped (confidence 1) [DA2860D8] (AR v2)
Copy OK

Track 24

Filename C:\1951-1954 (The Chronological Classics 1410)\24 - Mambo With Moody.wav

Pre-gap length 0:00:02.13

Peak level 100.0 %
Extraction speed 2.3 X
Track quality 100.0 %
Test CRC 15196A2E
Copy CRC 15196A2E
Accurately ripped (confidence 1) [F4904E8A] (AR v2)
Copy OK


All tracks accurately ripped

No errors occurred

End of status report

–– CUETools DB Plugin V2.1.6

[CTDB TOCID: twH.Xy_9RE4WW2eqeP74ak_rxGs-] found
Submit result: twH.Xy_9RE4WW2eqeP74ak_rxGs- has been confirmed
Track | CTDB Status
1 | (1/1) Accurately ripped
2 | (1/1) Accurately ripped
3 | (1/1) Accurately ripped
4 | (1/1) Accurately ripped
5 | (1/1) Accurately ripped
6 | (1/1) Accurately ripped
7 | (1/1) Accurately ripped
8 | (1/1) Accurately ripped
9 | (1/1) Accurately ripped
10 | (1/1) Accurately ripped
11 | (1/1) Accurately ripped
12 | (1/1) Accurately ripped
13 | (1/1) Accurately ripped
14 | (1/1) Accurately ripped
15 | (1/1) Accurately ripped
16 | (1/1) Accurately ripped
17 | (1/1) Accurately ripped
18 | (1/1) Accurately ripped
19 | (1/1) Accurately ripped
20 | (1/1) Accurately ripped
21 | (1/1) Accurately ripped
22 | (1/1) Accurately ripped
23 | (1/1) Accurately ripped
24 | (1/1) Accurately ripped


==== Log checksum 9684B793BFCD503EEE8D9673807B3B795311C08108F9B2EB2C3B5B996519DDB7 ====

foobar2000 1.2 / Dynamic Range Meter 1.1.1
log date: 2017-12-13 05:58:28

––––––––––––––––––––––––––––––––––––––––
Analyzed: James Moody / 1951-1954
––––––––––––––––––––––––––––––––––––––––

DR Peak RMS Duration Track
––––––––––––––––––––––––––––––––––––––––
DR8 0.00 dB -9.92 dB 3:09 01-Serenade in Blue
DR8 0.00 dB -9.90 dB 3:03 02-Margie
DR8 0.00 dB -9.87 dB 2:47 03-Moody's Home
DR10 0.00 dB -11.91 dB 2:35 04-Wiggle Waggle
DR7 0.00 dB -8.72 dB 2:38 05-Until the Real Thing Comes Along
DR7 0.00 dB -8.39 dB 3:08 06-Hey Jim
DR8 0.00 dB -9.54 dB 2:29 07-Moody's Theme
DR6 0.00 dB -7.73 dB 2:55 08-My Ideal
DR9 0.00 dB -11.23 dB 2:42 09-The Bite
DR10 0.00 dB -12.15 dB 3:03 10-Poor Butterfly
DR8 0.00 dB -9.79 dB 2:34 11-My Ideal
DR9 0.00 dB -10.67 dB 2:35 12-St Louis Blues
DR10 0.00 dB -11.23 dB 2:29 13-The James Moody Story
DR9 0.00 dB -10.83 dB 2:29 14-And Now Moody Speaks
DR8 0.00 dB -10.20 dB 3:15 15-Feelin' Low
DR8 0.00 dB -9.65 dB 3:05 16-Wail Bait
DR11 0.00 dB -12.61 dB 3:25 17-N.J.R. (I'm Gone)
DR9 0.00 dB -10.54 dB 2:50 18-A Hundred Years from Today
DR11 0.00 dB -12.11 dB 3:19 19-Keepin' Up with Jonesy
DR10 0.00 dB -13.18 dB 3:15 20-Workshop
DR9 0.00 dB -11.43 dB 3:02 21-That Man O'Mine
DR11 0.00 dB -13.74 dB 3:09 22-Over the Rainbow
DR9 0.00 dB -10.43 dB 2:45 23-Jack Raggs
DR9 0.00 dB -10.38 dB 4:10 24-Mambo with Moody
––––––––––––––––––––––––––––––––––––––––

Number of tracks: 24
Official DR value: DR9

Samplerate: 44100 Hz
Channels: 2
Bits per sample: 16
Bitrate: 769 kbps
Codec: FLAC
================================================================================

James Moody - The Chronological James Moody 1951-1954 (2006) [Classics 1410]

James Moody - The Chronological James Moody 1951-1954 (2006) [Classics 1410]

All thanks to original releaser - sushi

More interesting music in My Blog