Tags
Language
Tags

James Cotton, Junior Wells, Carey Bell, Billy Branch - Harp Attack! (1990)

Posted By: gribovar
James Cotton, Junior Wells, Carey Bell, Billy Branch - Harp Attack! (1990)

James Cotton, Junior Wells, Carey Bell, Billy Branch - Harp Attack! (1990)
EAC Rip | FLAC (image+.cue+log) - 332 MB | Covers (6 MB) included
Genre: Blues | RAR 3% Rec. | Label: Alligator Records (ALCD 4790)

Four Chicago harmonica greats, one eminently solid album. Teamed with Junior Wells, Billy Branch, and Carey Bell, Cotton sings Willie Love's Delta classic "Little Car Blues" and Charles Brown's "Black Night." Wells trades harp solos and vocals, standing front and center on a fine rendition of Sonny Boy II's "Keep Your Hands Out of My Pockets" and the tailor-made "Somebody Changed the Lock" and "Broke and Hungry," obviously relishing the camaraderie between himself and his fellow harmonica giants. Meanwhile, Branch's showcases are the apt original "New Kid on the Block" and a deft cover of Little Walter's "Who."
Tracklist:
01. Down Home Blues
02. Who
03. Keep Your Hands Out Of My Pockets
04. Little Car Blues aka Too Many Drivers
05. My Eyes Keep Me In Trouble
06. Broke And Hungry
07. Hit Man
08. Black Night
09. Somebody Changed The Lock
10. Second Hand Man
11. New Kid On The Block

Total time: 53:57

Exact Audio Copy V0.99 prebeta 3 from 28. July 2007

Отчёт EAC об извлечении, выполненном 10. марта 2008, 0:06

Carey Bell, Billy Branch, James Cotton, Junior Wells / Harp Attack!

Дисковод: TOSHIBA DVD-ROM SD-M1712 Adapter: 0 ID: 3

Режим чтения : Достоверность
Использование точного потока : Да
Отключение кэша аудио : Да
Использование указателей C2 : Нет

Коррекция смещения при чтении : -472
Способность читать области Lead-in и Lead-out : Нет
Заполнение пропущенных сэмплов тишиной : Да
Удаление блоков с тишиной в начале и конце : Нет
При вычислениях CRC использовались нулевые сэмплы : Да
Интерфейс : Установленный внешний ASPI-интерфейс

Выходной формат : Пользовательский кодировщик
Выбранный битрейт : 768 kBit/s
Качество : Высокий
Добавление ID3-тэга : Нет
Утилита сжатия : C:\Program Files\Exact Audio Copy\FLAC\FLAC.EXE
Дополнительные параметры : -6 -V -T "ARTIST=%a" -T "TITLE=%t" -T "ALBUM=%g" -T "DATE=%y" -T "TRACKNUMBER=%n" -T "GENRE=%m" -T "COMMENT=%e" %s -o %d


TOC извлечённого CD

Трек | Старт | Длительность | Начальный сектор | Конечный сектор
––––––––––––––––––––––––––––––––––-
1 | 0:00.00 | 6:23.70 | 0 | 28794
2 | 6:23.70 | 4:05.20 | 28795 | 47189
3 | 10:29.15 | 5:56.67 | 47190 | 73956
4 | 16:26.07 | 3:33.40 | 73957 | 89971
5 | 19:59.47 | 5:30.48 | 89972 | 114769
6 | 25:30.20 | 4:30.07 | 114770 | 135026
7 | 30:00.27 | 2:36.45 | 135027 | 146771
8 | 32:36.72 | 8:54.05 | 146772 | 186826
9 | 41:31.02 | 3:54.08 | 186827 | 204384
10 | 45:25.10 | 4:01.37 | 204385 | 222496
11 | 49:26.47 | 4:30.38 | 222497 | 242784


Характеристики диапазона извлечения и сообщения об ошибках

Выбранный диапазон

Имя файла G:\My Docs 2\My Music 2\Junior Wells, James Cotton, Carey Bell, Billy Branch - Harp Attack!\Carey Bell, Billy Branch, James Cotton, Junior Wells - Harp Attack!.wav

Пиковый уровень 100.0 %
Качество диапазона 100.0 %
CRC копии 289A599A
Копирование… OK

Ошибок не произошло

Конец отчёта

[CUETools log; Date: 21.10.2019 13:12:38; Version: 2.1.4]
[CTDB TOCID: hrRFfM6ct5WkYhe9yn_QEucf1yA-] found.
Track | CTDB Status
1 | (71/72) Accurately ripped
2 | (72/72) Accurately ripped
3 | (71/72) Accurately ripped
4 | (72/72) Accurately ripped
5 | (71/72) Accurately ripped
6 | (71/72) Accurately ripped
7 | (72/72) Accurately ripped
8 | (71/72) Accurately ripped
9 | (72/72) Accurately ripped
10 | (72/72) Accurately ripped
11 | (72/72) Accurately ripped
[AccurateRip ID: 0016c7f1-00c3e866-a30ca50b] found.
Track [ CRC | V2 ] Status
01 [29a231be|8bd0e403] (18+22/69) Accurately ripped
02 [320a61a6|5cdd1f64] (18+22/69) Accurately ripped
03 [208ee7fb|0a022f27] (18+22/68) Accurately ripped
04 [ad3201f4|fb287559] (18+22/69) Accurately ripped
05 [8c87f7de|012a9b79] (18+22/69) Accurately ripped
06 [257892a2|a1954288] (18+22/69) Accurately ripped
07 [e59d7ae6|04307029] (18+22/69) Accurately ripped
08 [b5e8a61b|2de2a014] (18+21/68) Accurately ripped
09 [a7e8aef5|a24798ac] (18+22/69) Accurately ripped
10 [f6758368|4a0ff299] (18+22/69) Accurately ripped
11 [f65c3b87|e8761fb5] (17+22/68) Accurately ripped
Offsetted by -504:
01 [36e606af] (04/69) Accurately ripped
02 [8f836811] (04/69) Accurately ripped
03 [d3708dc6] (03/68) Accurately ripped
04 [f9c71230] (04/69) Accurately ripped
05 [53ccda07] (04/69) Accurately ripped
06 [9ceda1ee] (04/69) Accurately ripped
07 [0a9c1a85] (04/69) Accurately ripped
08 [da35f8a7] (04/68) Accurately ripped
09 [07cc0ab8] (04/69) Accurately ripped
10 [1156b729] (04/69) Accurately ripped
11 [d1729a04] (04/68) Accurately ripped
Offsetted by -268:
01 [b0b17650] (08/69) Accurately ripped
02 [6bf2a1bf] (08/69) Accurately ripped
03 [7eb57043] (08/68) Accurately ripped
04 [3d088bf9] (08/69) Accurately ripped
05 [caed964a] (08/69) Accurately ripped
06 [a66f53c8] (08/69) Accurately ripped
07 [b3cd5359] (08/69) Accurately ripped
08 [a9e5a8e0] (08/68) Accurately ripped
09 [e16b6951] (08/69) Accurately ripped
10 [d1ba02f6] (08/69) Accurately ripped
11 [5ada3c97] (08/68) Accurately ripped
Offsetted by -1123:
01 [14f34c5f] (02/69) Accurately ripped
02 [5892e4cc] (02/69) Accurately ripped
03 [6dd306b2] (02/68) Accurately ripped
04 [35c5bd18] (02/69) Accurately ripped
05 [2d354bf7] (02/69) Accurately ripped
06 [08f2aa5d] (02/69) Accurately ripped
07 [45f3b879] (02/69) Accurately ripped
08 [df94c5e5] (02/68) Accurately ripped
09 [b377df11] (02/69) Accurately ripped
10 [30dd5a3d] (02/69) Accurately ripped
11 [d3880e81] (00/68) No match (V2 was not tested)
Offsetted by -664:
01 [f632da65] (00/69) No match (V2 was not tested)
02 [d4e504ab] (00/69) No match (V2 was not tested)
03 [672ccb61] (00/68) No match (V2 was not tested)
04 [437f4557] (00/69) No match (V2 was not tested)
05 [92f071a9] (00/69) No match (V2 was not tested)
06 [f358c038] (00/69) No match (V2 was not tested)
07 [c58a5350] (00/69) No match (V2 was not tested)
08 [8a160d6a] (00/68) No match (V2 was not tested)
09 [298bceb8] (00/69) No match (V2 was not tested)
10 [946c9f5c] (00/69) No match (V2 was not tested)
11 [c22f4869] (00/68) No match (V2 was not tested)

Track Peak [ CRC32 ] [W/O NULL] [ LOG ]
– 100,0 [289A599A] [4B26C5CC] CRC32
01 80,1 [A804CDD6] [59C55D21]
02 100,0 [69C472F2] [FF08B3FD]
03 100,0 [A8C67BC3] [83730ABA]
04 88,5 [49F41073] [205827EC]
05 71,8 [F829C376] [D933697F]
06 100,0 [2B6BB6F9] [A696409E]
07 80,9 [A53E57ED] [77B3DE4C]
08 99,9 [01FAE7DC] [883D288D]
09 83,6 [7C6C481C] [D0A1C95E]
10 87,3 [ED6A2043] [2DA789C5]
11 89,3 [DE7A45BB] [62D39DE7]

Thanks to funny_horse

See also:
James Cotton - High Compression (1984)
Junior Wells - Better Off With The Blues (1993)