Subcategories

James Ingram - Always You (1993) {Warner Bros}

Posted By: tiburon
James Ingram - Always You (1993) {Warner Bros}

James Ingram - Always You (1993) {Warner Bros}
EAC 1.0b1 | FLAC tracks level 8 | Cue+Log+M3U+MD5 | Full Scans 600dpi | 391MB + 5% Recovery
MP3 CBR 320 Kbps | 130MB + 5% Recovery
Genre: Soul,R&B
James Ingram - Always You (1993) {Warner Bros}

Always You is an album by James Ingram, released in 1993. Following a four-year hiatus, singer-songwriter James Ingram came back in 1993 with "Always You", his fourth album on Qwest Records, the label run by producer Quincy Jones.
Track List

01. Someone Like You 4:24
02. Let Me Love You This Way 4:14
03. Always You 4:38
04. Treat Her Right 5:04
05. A Baby's Born 6:16
06. This Is The Night 5:05
07. You Never Know What You Got 6:22
08. Too Much For This Heart 5:24
09. Sing For The Children 5:07
10. Any Kind Of Love 6:56

musicians

James Ingram - lead and background vocals, keyboards programming
Keith Thomas - keyboards and bass programming
Mark Hammond - drum programming
Gerald Albright - sax
Tom Bell - drums
Wayne Linsey - drums,keyboards programming
Jerry McPherson - guitars
Carlos Rios - guitar
Larry Kempel - bass
Lenny Castro - percussions
Paul Jackson,Jr. - guitar
Enzo Todesco - drums
Jerry Hey,Gary Grant,David Duke,Lew McCreary,Alan Kaplan,Brad Warnaar,George Bohanon,Rick Culver - horns
Gary Herbig - flute
Dan Higgins - flute
Maurice White - background vocals
Jimmie Lee Sloas - bass samples
Chris Rodriguez - background vocals
Cindy Mizelle - background vocals
Phil Perry - background vocals
Sharon Perry - background vocals
Carolyn Perry - background vocals
Philip Ingram - background vocals
Audrey Wheeler - background vocals
Alvin Chea - background vocals

Produced by Keith Thomas, Thom Bell, James Ingram and Maurice White


Exact Audio Copy V1.0 beta 1 from 15. November 2010

EAC extraction logfile from 24. June 2011, 15:33

James Ingram / Always You

Used drive : HL-DT-STDVDRAM GH20NS10 Adapter: 2 ID: 1

Read mode : Secure
Utilize accurate stream : Yes
Defeat audio cache : Yes
Make use of C2 pointers : No

Read offset correction : 667
Overread into Lead-In and Lead-Out : No
Fill up missing offset samples with silence : Yes
Delete leading and trailing silent blocks : No
Null samples used in CRC calculations : Yes
Used interface : Native Win32 interface for Win NT & 2000
Gap handling : Appended to previous track

Used output format : User Defined Encoder
Selected bitrate : 1024 kBit/s
Quality : High
Add ID3 tag : No
Command line compressor : C:\Program Files\Exact Audio Copy\Flac\flac.exe
Additional command line options : -8 -V -T "ARTIST=%a" -T "TITLE=%t" -T "ALBUM=%g" -T "DATE=%y" -T "TRACKNUMBER=%n" -T "TOTALTRACKS=%x" -T "GENRE=%m" -T "ALBUMARTIST=%v" -T "ALBUM ARTIST=%v" -T "COMMENT=EAC Secure Mode, Test & Copy, AccurateRip, FLAC -8" %s


TOC of the extracted CD

Track | Start | Length | Start sector | End sector
––––––––––––––––––––––––––––-
1 | 0:00.32 | 4:24.15 | 32 | 19846
2 | 4:24.47 | 4:14.18 | 19847 | 38914
3 | 8:38.65 | 4:38.00 | 38915 | 59764
4 | 13:16.65 | 5:04.15 | 59765 | 82579
5 | 18:21.05 | 6:16.52 | 82580 | 110831
6 | 24:37.57 | 5:05.45 | 110832 | 133751
7 | 29:43.27 | 6:22.00 | 133752 | 162401
8 | 36:05.27 | 5:24.15 | 162402 | 186716
9 | 41:29.42 | 5:07.53 | 186717 | 209794
10 | 46:37.20 | 6:56.07 | 209795 | 241001


Track 1

Filename G:\James Ingram - Always You (1993) {Warner Bros}\01 - Someone Like You.wav

Pre-gap length 0:00:02.32

Peak level 100.0 %
Extraction speed 4.6 X
Track quality 100.0 %
Test CRC 78A02F3C
Copy CRC 78A02F3C
Accurately ripped (confidence 5) [A0E98ECB]
Copy OK

Track 2

Filename G:\James Ingram - Always You (1993) {Warner Bros}\02 - Let Me Love You This Way.wav

Pre-gap length 0:00:00.10

Peak level 97.2 %
Extraction speed 3.2 X
Track quality 100.0 %
Test CRC BC5B9575
Copy CRC BC5B9575
Accurately ripped (confidence 5) [935777CC]
Copy OK

Track 3

Filename G:\James Ingram - Always You (1993) {Warner Bros}\03 - Always You.wav

Pre-gap length 0:00:01.40

Peak level 92.7 %
Extraction speed 3.6 X
Track quality 100.0 %
Test CRC 5CABF3E6
Copy CRC 5CABF3E6
Accurately ripped (confidence 5) [24E84234]
Copy OK

Track 4

Filename G:\James Ingram - Always You (1993) {Warner Bros}\04 - Treat Her Right.wav

Pre-gap length 0:00:01.23

Peak level 96.5 %
Extraction speed 3.9 X
Track quality 100.0 %
Test CRC C9262242
Copy CRC C9262242
Accurately ripped (confidence 5) [56B15966]
Copy OK

Track 5

Filename G:\James Ingram - Always You (1993) {Warner Bros}\05 - A Baby's Born.wav

Pre-gap length 0:00:00.05

Peak level 100.0 %
Extraction speed 4.4 X
Track quality 100.0 %
Test CRC 924A7D3C
Copy CRC 924A7D3C
Accurately ripped (confidence 5) [005F52F5]
Copy OK

Track 6

Filename G:\James Ingram - Always You (1993) {Warner Bros}\06 - This Is The Night.wav

Peak level 100.0 %
Extraction speed 4.0 X
Track quality 100.0 %
Test CRC 1964BCE7
Copy CRC 1964BCE7
Accurately ripped (confidence 5) [E13FDA72]
Copy OK

Track 7

Filename G:\James Ingram - Always You (1993) {Warner Bros}\07 - You Never Know What You Got.wav

Peak level 100.0 %
Extraction speed 4.9 X
Track quality 100.0 %
Test CRC 01534935
Copy CRC 01534935
Accurately ripped (confidence 5) [81B79F98]
Copy OK

Track 8

Filename G:\James Ingram - Always You (1993) {Warner Bros}\08 - Too Much For This Heart.wav

Peak level 98.4 %
Extraction speed 4.0 X
Track quality 100.0 %
Test CRC 50DEC6C3
Copy CRC 50DEC6C3
Accurately ripped (confidence 5) [318B5CB6]
Copy OK

Track 9

Filename G:\James Ingram - Always You (1993) {Warner Bros}\09 - Sing For The Children.wav

Pre-gap length 0:00:01.40

Peak level 100.0 %
Extraction speed 4.5 X
Track quality 100.0 %
Test CRC 3842D490
Copy CRC 3842D490
Accurately ripped (confidence 5) [A5A0607F]
Copy OK

Track 10

Filename G:\James Ingram - Always You (1993) {Warner Bros}\10 - Any Kind Of Love.wav

Peak level 100.0 %
Extraction speed 5.3 X
Track quality 99.9 %
Test CRC ED54059C
Copy CRC ED54059C
Accurately ripped (confidence 5) [F7E4042A]
Copy OK


All tracks accurately ripped

No errors occurred

End of status report

==== Log checksum 2374870D83737E9DEE2A7BF38917F2DDF1A2D2E8759ED72BB84351D8F3913D0F ====
James Ingram - Always You (1993) {Warner Bros}
James Ingram - Always You (1993) {Warner Bros}
James Ingram - Always You (1993) {Warner Bros}




The Files Are Interchangeable

Rip by tiburon

Visit My Blog