Subcategories

James Taylor Quartet - New World (2009) {RS5678}

Posted By: tiburon
James Taylor Quartet - New World (2009) {RS5678}

James Taylor Quartet - New World (2009) {RS5678}
EAC 0.99pb4 | FLAC tracks level 8 | Cue+Log+M3u+MD5 | EAC Screen | Scans 300dpi | 285 MB
Genre: Jazzfunk


Track list

01. Blacksmith
02. Rochester Raining
03. Same Old Fool
04. New World
05. Inner Mystic Love
06. Stonemason
07. Get On Your Feet
08. Blue Lady
09. Hotwire
10. Jazz Cafe Theme
11. Milk And Honey

musicians

James Taylor - organ,piano,Rhodes,clavinet
Andrew McKinney - bass
Adam Betts - drums
Nick Smart - trumpet,flugelhorn
Gareth Lockrane - flutes
John Parricelli - guitar
Corrina Greyson - guest vocalist

Produced by James Taylor


Exact Audio Copy V0.99 prebeta 4 from 23. January 2008

EAC extraction logfile from 1. July 2009, 12:28

James Taylor Quartet / New World

Used drive : HL-DT-STDVDRAM GH20NS10 Adapter: 2 ID: 0

Read mode : Secure
Utilize accurate stream : Yes
Defeat audio cache : Yes
Make use of C2 pointers : No

Read offset correction : 667
Overread into Lead-In and Lead-Out : No
Fill up missing offset samples with silence : Yes
Delete leading and trailing silent blocks : No
Null samples used in CRC calculations : Yes
Used interface : Native Win32 interface for Win NT & 2000
Gap handling : Appended to previous track

Used output format : User Defined Encoder
Selected bitrate : 1024 kBit/s
Quality : High
Add ID3 tag : No
Command line compressor : C:\Program Files\Exact Audio Copy\FLAC\FLAC.EXE
Additional command line options : -8 -V -T "ARTIST=%a" -T "TITLE=%t" -T "ALBUM=%g" -T "DATE=%y" -T "TRACKNUMBER=%n" -T "TOTALTRACKS=%x" -T "GENRE=%m" -T "ALBUMARTIST=%v" -T "ALBUM ARTIST=%v" -T "COMMENT=EAC V0.99 prebeta 4, Secure Mode, Test & Copy, Accurat


TOC of the extracted CD

Track | Start | Length | Start sector | End sector
––––––––––––––––––––––––––––-
1 | 0:00.00 | 3:52.08 | 0 | 17407
2 | 3:52.08 | 4:24.19 | 17408 | 37226
3 | 8:16.27 | 4:45.55 | 37227 | 58656
4 | 13:02.07 | 4:24.52 | 58657 | 78508
5 | 17:26.59 | 3:58.70 | 78509 | 96428
6 | 21:25.54 | 3:20.28 | 96429 | 111456
7 | 24:46.07 | 3:27.37 | 111457 | 127018
8 | 28:13.44 | 4:15.03 | 127019 | 146146
9 | 32:28.47 | 3:03.39 | 146147 | 159910
10 | 35:32.11 | 5:17.68 | 159911 | 183753
11 | 40:50.04 | 4:22.34 | 183754 | 203437


Track 1

Filename D:\James Taylor Quartet - New World (2009) [FLAC] {RS5678}\01 - Blacksmith.wav

Pre-gap length 0:00:02.00

Peak level 100.0 %
Track quality 99.9 %
Test CRC EDE908D3
Copy CRC EDE908D3
Track not present in AccurateRip database
Copy OK

Track 2

Filename D:\James Taylor Quartet - New World (2009) [FLAC] {RS5678}\02 - Rochester raining.wav

Pre-gap length 0:00:01.92

Peak level 100.0 %
Track quality 100.0 %
Test CRC 9A871FBD
Copy CRC 9A871FBD
Track not present in AccurateRip database
Copy OK

Track 3

Filename D:\James Taylor Quartet - New World (2009) [FLAC] {RS5678}\03 - Same old fool.wav

Peak level 100.0 %
Track quality 100.0 %
Test CRC 3838DB6F
Copy CRC 3838DB6F
Track not present in AccurateRip database
Copy OK

Track 4

Filename D:\James Taylor Quartet - New World (2009) [FLAC] {RS5678}\04 - New World.wav

Pre-gap length 0:00:01.82

Peak level 100.0 %
Track quality 100.0 %
Test CRC 67B8DCB1
Copy CRC 67B8DCB1
Track not present in AccurateRip database
Copy OK

Track 5

Filename D:\James Taylor Quartet - New World (2009) [FLAC] {RS5678}\05 - Inner mystic love.wav

Pre-gap length 0:00:01.93

Peak level 100.0 %
Track quality 100.0 %
Test CRC 29CA0A85
Copy CRC 29CA0A85
Track not present in AccurateRip database
Copy OK

Track 6

Filename D:\James Taylor Quartet - New World (2009) [FLAC] {RS5678}\06 - Stonemason.wav

Pre-gap length 0:00:01.86

Peak level 100.0 %
Track quality 100.0 %
Test CRC 3117D9EE
Copy CRC 3117D9EE
Track not present in AccurateRip database
Copy OK

Track 7

Filename D:\James Taylor Quartet - New World (2009) [FLAC] {RS5678}\07 - Get on your feet.wav

Peak level 100.0 %
Track quality 100.0 %
Test CRC 7EA370BA
Copy CRC 7EA370BA
Track not present in AccurateRip database
Copy OK

Track 8

Filename D:\James Taylor Quartet - New World (2009) [FLAC] {RS5678}\08 - Blue lady.wav

Pre-gap length 0:00:01.92

Peak level 97.1 %
Track quality 99.9 %
Test CRC F8CD4A9A
Copy CRC F8CD4A9A
Track not present in AccurateRip database
Copy OK

Track 9

Filename D:\James Taylor Quartet - New World (2009) [FLAC] {RS5678}\09 - Hotwire.wav

Pre-gap length 0:00:02.97

Peak level 100.0 %
Track quality 100.0 %
Test CRC 519940C3
Copy CRC 519940C3
Track not present in AccurateRip database
Copy OK

Track 10

Filename D:\James Taylor Quartet - New World (2009) [FLAC] {RS5678}\10 - Jazz cafe theme.wav

Pre-gap length 0:00:01.92

Peak level 100.0 %
Track quality 100.0 %
Test CRC 55533B39
Copy CRC 55533B39
Track not present in AccurateRip database
Copy OK

Track 11

Filename D:\James Taylor Quartet - New World (2009) [FLAC] {RS5678}\11 - Milk and honey.wav

Pre-gap length 0:00:01.97

Peak level 100.0 %
Track quality 100.0 %
Test CRC 0760FE5D
Copy CRC 0760FE5D
Track not present in AccurateRip database
Copy OK


None of the tracks are present in the AccurateRip database

No errors occurred

End of status report