Subcategories

Jamie Barton, Brian Zeger - All Who Wander: Songs by Gustav Mahler, Antonin Dvorak, Jean Sibelius (2016)

Posted By: Designol
Jamie Barton, Brian Zeger - All Who Wander: Songs by Gustav Mahler, Antonin Dvorak, Jean Sibelius (2016)

Jamie Barton, Brian Zeger - All Who Wander: Mahler, Dvořák, Sibelius (2016)
EAC | FLAC | Image (Cue&Log) ~ 224 Mb | Artwork included | Time: 01:00:46
Genre: Classical, Vocal | Label: Delos | # DE3494

Mezzo-soprano Jamie Barton burst upon the global opera and concert scene in recent years after having won many of the world’s most prestigious prizes for vocal excellence and accomplishments. Delos has scored a major coup in releasing her debut album. Jamie’s well-chosen program of late-Romantic repertoire begins with eight of Gustav Mahler’s finest lieder – including his wonderful Five Rückert Songs – before treating us to the rare delights of Antonin Dvořák’s song cycle Gypsy Songs. Her album concludes with even more seldom-heard selections from the many lovely Swedish-language songs of Finnish master Jean Sibelius. This sublime album – further graced by pianist Brian Zeger’s peerless collaboration – will take your breath away, and leave you hungry for more from Jamie Barton, considered by many of the world’s top vocal and operatic experts to be the rising mezzo of our time.

Enthusiasts of the big operatic voice have been coming out of the woodwork for this recital by the young mezzo-soprano Jamie Barton, who scored several successes in big houses before the release of All Who Wander in late 2016. At first glance you may wonder why: her notes are on the gushy side; the All Who Wander theme only loosely fits the program's most unusual item, the group of songs by Jean Sibelius; and Delos' graphic design seems to have been done on the cheap. But just wait until you hear the first taste of Barton's incredibly creamy voice in the Mahler Five Rückert Songs. Just sample Ich bin der Welt abhanden gekommen, and you'll hear justification for Joyce DiDonato's blurb in the graphics about how Barton "reminds you of how capable the human voice is of creating something of absolute beauty." Barton has not only a gorgeous sound, but attractive control in the long lines of the Mahler, and she shifts gears easily into the more folkish mood of Dvorák's Gypsy Songs, Op. 55. The sparsely performed Sibelius songs may not be intricately linked to the rest of the program, but they're well done in their own right, largely in the Germanic mainstream rather than the Nordic idiom of the composer's orchestral music or the lighter language of his theatrical compositions. Sibelius lovers will be glad to have them, and everybody can rejoice at the emergence of a major new American talent.

Review by James Manheim, Allmusic.com

Jamie Barton, Brian Zeger - All Who Wander: Songs by Gustav Mahler, Antonin Dvorak, Jean Sibelius (2016)



Jamie Barton, Brian Zeger - All Who Wander: Songs by Gustav Mahler, Antonin Dvorak, Jean Sibelius (2016)



Jamie Barton, mezzo-soprano
Brian Zeger, piano

Tracklist:

Gustav Mahler (1860-1911)
Fünf Lieder nach Rückert
01. I. Ich atmet’ einen linden Duft (2:43)
02. II. Liebst du um Schönheit (2:44)
03. III. Blicke mir nicht in die Lieder! (1:32)
04. IV. Um Mitternacht (6:57)
05. V. Ich bin der Welt abhanden gekommen (6:49)

06. Ich ging mit Lust (4:42)
07. Erinnerung (2:46)
08. Scheiden und Meiden (2:43)


Antonin Dvořák (1841-1904)
Cigánské melodie (Gypsy Songs), Op. 55
09. I. Má písen zas mi láskou zní (2:51)
10. II. Aj! Kterak trojhranec muj prerozkošne zvoní (1:13)
11. III. A les je tichý kolem kol (3:17)
12. IV. Když mne stará matka zpívat, zpívat ucívala (2:41)
13. V. Struna naladena (1:11)
14. VI. Široké rukávy a široké gate (1:40)
15. VII. Dejte klec jestrábu ze zlata ryzého (2:04)

Jean Sibelius (1865-1957)
16. Svarta rosor, Op.36, No.1 (2:20)
17. Säv, säv, susa, Op.36, No.4 (2:55)
18. Flickan kom, Op.37, No.5 (3:28)
19. Kyssens Hopp, Op.13, No.2 (2:19)
20. Marssnön, Op.36, No.5 (1:39)
21. Var det en dröm? Op.37, No.4 (2:12)


Exact Audio Copy V1.1 from 23. June 2015

EAC extraction logfile from 25. April 2017, 1:19

Jamie Barton, Brian Zeger / All Who Wander

Used drive : TSSTcorpCD/DVDW SH-S182M Adapter: 1 ID: 1

Read mode : Secure
Utilize accurate stream : Yes
Defeat audio cache : Yes
Make use of C2 pointers : No

Read offset correction : 6
Overread into Lead-In and Lead-Out : No
Fill up missing offset samples with silence : Yes
Delete leading and trailing silent blocks : No
Null samples used in CRC calculations : Yes
Used interface : Native Win32 interface for Win NT & 2000

Used output format : User Defined Encoder
Selected bitrate : 128 kBit/s
Quality : High
Add ID3 tag : No
Command line compressor : C:\Program Files (x86)\Exact Audio Copy\Flac\flac.exe
Additional command line options : -V -8 -T "Date=%year%" -T "Genre=%genre%" %source%


TOC of the extracted CD

Track | Start | Length | Start sector | End sector
––––––––––––––––––––––––––––-
1 | 0:00.00 | 2:43.13 | 0 | 12237
2 | 2:43.13 | 2:44.00 | 12238 | 24537
3 | 5:27.13 | 1:32.31 | 24538 | 31468
4 | 6:59.44 | 6:56.49 | 31469 | 62717
5 | 13:56.18 | 6:48.73 | 62718 | 93390
6 | 20:45.16 | 4:41.48 | 93391 | 114513
7 | 25:26.64 | 2:45.63 | 114514 | 126951
8 | 28:12.52 | 2:43.20 | 126952 | 139196
9 | 30:55.72 | 2:51.31 | 139197 | 152052
10 | 33:47.28 | 1:12.56 | 152053 | 157508
11 | 35:00.09 | 3:16.55 | 157509 | 172263
12 | 38:16.64 | 2:40.74 | 172264 | 184337
13 | 40:57.63 | 1:10.52 | 184338 | 189639
14 | 42:08.40 | 1:40.12 | 189640 | 197151
15 | 43:48.52 | 2:04.00 | 197152 | 206451
16 | 45:52.52 | 2:20.19 | 206452 | 216970
17 | 48:12.71 | 2:55.35 | 216971 | 230130
18 | 51:08.31 | 3:27.59 | 230131 | 245714
19 | 54:36.15 | 2:18.39 | 245715 | 256103
20 | 56:54.54 | 1:39.20 | 256104 | 263548
21 | 58:33.74 | 2:12.03 | 263549 | 273451


Range status and errors

Selected range

Filename C:\temp\All Who Wander\All Who Wander.wav

Peak level 89.2 %
Extraction speed 6.8 X
Range quality 99.9 %
Test CRC 5F37D7B5
Copy CRC 5F37D7B5
Copy OK

No errors occurred


AccurateRip summary

Track 1 not present in database
Track 2 not present in database
Track 3 not present in database
Track 4 not present in database
Track 5 not present in database
Track 6 not present in database
Track 7 not present in database
Track 8 not present in database
Track 9 not present in database
Track 10 not present in database
Track 11 not present in database
Track 12 not present in database
Track 13 not present in database
Track 14 not present in database
Track 15 not present in database
Track 16 not present in database
Track 17 not present in database
Track 18 not present in database
Track 19 not present in database
Track 20 not present in database
Track 21 not present in database

None of the tracks are present in the AccurateRip database

End of status report

==== Log checksum 4E413EBAE30AD35ED16E6ED931D735F40272DA987F7D7FA9A37EF39AF291F633 ====

[CUETools log; Date: 07.02.2018 2:14:24; Version: 2.1.4]
[CTDB TOCID: wIAQpEMWxKt3d31HtaxC9hZQxd8-] found.
Track | CTDB Status
1 | (2/2) Accurately ripped
2 | (2/2) Accurately ripped
3 | (2/2) Accurately ripped
4 | (2/2) Accurately ripped
5 | (2/2) Accurately ripped
6 | (2/2) Accurately ripped
7 | (2/2) Accurately ripped
8 | (2/2) Accurately ripped
9 | (2/2) Accurately ripped
10 | (2/2) Accurately ripped
11 | (2/2) Accurately ripped
12 | (2/2) Accurately ripped
13 | (2/2) Accurately ripped
14 | (2/2) Accurately ripped
15 | (2/2) Accurately ripped
16 | (2/2) Accurately ripped
17 | (2/2) Accurately ripped
18 | (2/2) Accurately ripped
19 | (2/2) Accurately ripped
20 | (2/2) Accurately ripped
21 | (2/2) Accurately ripped
[AccurateRip ID: 00331f4b-02fa8358-310e3e15] found.
Track [ CRC | V2 ] Status
01 [177a3317|5c82ce96] (0+1/1) Accurately ripped
02 [809c409e|e86704ae] (0+1/1) Accurately ripped
03 [db7a7b07|6ed1d4bb] (0+1/1) Accurately ripped
04 [4d27daef|e9a5bf92] (0+1/1) Accurately ripped
05 [17e5043e|26f8649c] (0+1/1) Accurately ripped
06 [d46431e9|9a2ddb90] (0+1/1) Accurately ripped
07 [f63be507|ae7ea7b4] (0+1/1) Accurately ripped
08 [829955bb|afb2feaf] (0+1/1) Accurately ripped
09 [529e4c91|0d0276f8] (0+1/1) Accurately ripped
10 [b2a67ed7|bc7a9431] (0+1/1) Accurately ripped
11 [ab704de0|ec2d9317] (0+1/1) Accurately ripped
12 [286bdcbf|30c7aa1c] (0+1/1) Accurately ripped
13 [6d61d800|3419142e] (0+1/1) Accurately ripped
14 [1ed4ad9a|87700290] (0+1/1) Accurately ripped
15 [c2062848|b3f13747] (0+1/1) Accurately ripped
16 [6d0d685f|d50228f4] (0+1/1) Accurately ripped
17 [0e343855|b5b23a2f] (0+1/1) Accurately ripped
18 [a26bc216|d0785915] (0+1/1) Accurately ripped
19 [c66d3bea|d09ec366] (0+1/1) Accurately ripped
20 [18540218|0e9680b1] (0+1/1) Accurately ripped
21 [44dcef55|2f2545f1] (0+1/1) Accurately ripped

Track Peak [ CRC32 ] [W/O NULL] [ LOG ]
– 89,2 [5F37D7B5] [53DF8E3B] CRC32
01 89,1 [F4C8BA52] [2365EEFB]
02 89,1 [EDCF7E9D] [72798102]
03 57,3 [380BDF52] [2B2C26EF]
04 89,2 [D192E11A] [B3D939D7]
05 72,7 [A8E92EE1] [C15B76C3]
06 67,3 [4838C7F3] [F73F9BCB]
07 89,2 [85411FAA] [0C120C6E]
08 89,1 [41FA7D67] [A7EE4BFB]
09 87,4 [87E0F6D0] [FEE39D7B]
10 89,1 [79546027] [81F21F86]
11 70,0 [09CFB189] [77441D5C]
12 89,1 [4C4221A1] [B417A5A1]
13 89,1 [05F49D46] [0EE1FA9E]
14 81,3 [D503FFEE] [B0711D45]
15 89,1 [FD817FC7] [6B46FC55]
16 89,2 [4E013A73] [839470E4]
17 89,1 [1AC6ED18] [DF34FB2D]
18 89,2 [97CFC965] [8B4782E8]
19 66,0 [8A9374C1] [C03DE780]
20 89,2 [58EDFC23] [AE6AFD0D]
21 89,2 [4B377CFC] [93378FB6]

foobar2000 1.2 / Dynamic Range Meter 1.1.1
log date: 2018-02-07 01:57:21

––––––––––––––––––––––––––––––––––––––––
Analyzed: Jamie Barton, Brian Zeger / All Who Wander
––––––––––––––––––––––––––––––––––––––––

DR Peak RMS Duration Track
––––––––––––––––––––––––––––––––––––––––
DR14 -1.00 dB -22.63 dB 2:43 01-Mahler: Rückert Lieder - I. Ich atmet’ einen linden Duft
DR14 -1.00 dB -21.23 dB 2:44 02-Mahler: Rückert Lieder - II. Liebst du um Schönheit
DR13 -4.83 dB -22.42 dB 1:32 03-Mahler: Rückert Lieder - III. Blicke mir nicht in die Lieder!
DR11 -0.99 dB -18.41 dB 6:57 04-Mahler: Rückert Lieder - IV. Um Mitternacht
DR16 -2.76 dB -25.14 dB 6:49 05-Mahler: Rückert Lieder - V. Ich bin der Welt abhanden gekommen
DR15 -3.44 dB -24.23 dB 4:42 06-Mahler: Ich ging mit Lust
DR12 -0.99 dB -18.96 dB 2:46 07-Mahler: Erinnerung
DR10 -1.00 dB -16.90 dB 2:43 08-Mahler: Scheiden und Meiden
DR12 -1.17 dB -19.22 dB 2:51 09-Dvorák: Cigánské melodie - I. Má písen zas mi láskou zní
DR13 -1.00 dB -18.63 dB 1:13 10-Dvorák: Cigánské melodie - II. Aj! Kterak trojhranec muj prerozkošne zvoní
DR16 -3.09 dB -25.37 dB 3:17 11-Dvorák: Cigánské melodie - III. A les je tichý kolem kol
DR13 -1.00 dB -19.80 dB 2:41 12-Dvorák: Cigánské melodie - IV. Když mne stará matka zpívat, zpívat ucívala
DR13 -1.00 dB -16.70 dB 1:11 13-Dvorák: Cigánské melodie - V. Struna naladena
DR13 -1.80 dB -19.80 dB 1:40 14-Dvorák: Cigánské melodie - VI. Široké rukávy a široké gate
DR11 -1.00 dB -16.87 dB 2:04 15-Dvorák: Cigánské melodie - VII. Dejte klec jestrábu ze zlata ryzého
DR10 -0.99 dB -16.32 dB 2:20 16-Sibelius: Svarta rosor, Op.36, No.1
DR13 -0.99 dB -20.46 dB 2:55 17-Sibelius: Säv, säv, susa, Op.36, No.4
DR12 -0.99 dB -18.25 dB 3:28 18-Sibelius: Flickan kom, Op.37, No.5
DR13 -3.61 dB -23.63 dB 2:19 19-Sibelius: Kyssens Hopp, Op.13, No.2
DR10 -0.99 dB -17.72 dB 1:39 20-Sibelius: Marssnön, Op.36, No.5
DR8 -0.99 dB -14.89 dB 2:12 21-Sibelius: Var det en dröm? Op.37, No.4
––––––––––––––––––––––––––––––––––––––––

Number of tracks: 21
Official DR value: DR12

Samplerate: 44100 Hz
Channels: 2
Bits per sample: 16
Bitrate: 507 kbps
Codec: FLAC
================================================================================

Jamie Barton, Brian Zeger - All Who Wander: Songs by Gustav Mahler, Antonin Dvorak, Jean Sibelius (2016)

All thanks to original releaser - A-Z

More interesting music in My Blog