Subcategories

Jan Garbarek - Photo With Blue Sky (1979) {ECM 1135}

Posted By: tiburon
Jan Garbarek - Photo With Blue Sky (1979) {ECM 1135}

Jan Garbarek - Photo With Blue Sky (1979) {ECM 1135}
EAC 0.95b4 | FLAC Image level 8 | Cue+Log | Full Scans 300dpi | 244MB + 5% Recovery
MP3 CBR 320 Kbps | 105MB + 5% Recovery
Genre: Jazz, Fusion

Jan Garbarek's icy and haunting tones on tenor and soprano are in the forefront during much of this set. He performs six originals (which have simple but picturesque titles such as "Blue Sky," "Windows" and "The Red Roof") with the assistance of guitarist Bill Connors, pianist John Taylor, bassist Eberhard Weber and drummer Jon Christensen.
Track List
1. Blue Sky
2. White Cloud
3. Windows
4. Red Roof
5. Wires
6. The Picture

musicians
Jan Garbarek - Tenor and Soprano Saxophones
Bill Connors - Guitar
John Taylor - Piano
Eberhard Weber - Bass
Jon Christensen - Drums

Produced by Manfred Eicher


Отчёт EAC об извлечении, выполненном 10. марта 2008, 7:41 для диска:
Jan Garbarek Group / [1979] Photo With…

Дисковод: _NEC DVD_RW ND-3550A Adapter: 1 ID: 0
Режим чтения: Достоверный (C2: нет, Точный поток: да, Отключение кэша: да)
Коррекция смещения при чтении: 48
Способность читать области Lead-in и Lead-out : Нет

Выходной формат: Внутренние WAV-операции
44.100 Гц; 16 бит; стерео

Другие параметры:
Заполнение пропущенных сэмплов тишиной : Да
Удаление блоков с тишиной в начале и конце : Нет
Встроенный Win32-интерфейс для Win NT/2000


Характеристики диапазона извлечения и сообщения об ошибках
Выбранный диапазон
Имя файла F:\Docs\Music\Garbarek Photo with\Jan Garbarek Group - [1979] Photo With….wav

Пиковый уровень 98.0 %
Качество диапазона 100.0 %
CRC C167CB3E
Копирование… OK

Ошибок не произошло

Конец отчёта


foobar2000 1.3.13 / Dynamic Range Meter 1.1.1
log date: 2018-04-22 22:53:56

––––––––––––––––––––––––––––––––––––––––
Analyzed: Jan Garbarek Group / Photo With…
––––––––––––––––––––––––––––––––––––––––

DR Peak RMS Duration Track
––––––––––––––––––––––––––––––––––––––––
DR13 -0.91 dB -18.36 dB 6:46 01-Blue Sky
DR14 -2.86 dB -22.26 dB 9:07 02-White Cloud
DR14 -0.62 dB -20.44 dB 6:46 03-Windows
DR13 -0.17 dB -18.21 dB 7:50 04-Red Roof
DR13 -3.25 dB -21.49 dB 5:20 05-Wires
DR14 -1.37 dB -20.17 dB 8:03 06-The Picture
––––––––––––––––––––––––––––––––––––––––

Number of tracks: 6
Official DR value: DR14

Samplerate: 44100 Hz
Channels: 2
Bits per sample: 16
Bitrate: 762 kbps
Codec: FLAC
================================================================================

Jan Garbarek - Photo With Blue Sky (1979) {ECM 1135}


Thanks to the original ripper