Subcategories

Jan Garbarek - Selected Recordings ECM [2 CD] (2002)

Posted By: juanchito
Jan Garbarek - Selected Recordings ECM [2 CD] (2002)

Jan Garbarek - Selected Recordings ECM [2 CD] (2002)
EAC Rip | FLAC, Separate files + CUE + LOG | 961 MB | HQ Full Scans | FileSonic / Fileserve
Genre:Jazz | Label: ECM Records


Jan Garbarek's music can be summed up in one simple word: meditation. Sure, the term is loaded with overtones, both good and bad. But do not confuse meditation with mindlessness: they are polar opposites. Garbarek's thirty years with ECM (as a leader and collaborator) have yielded hundreds of melodies which lead to an infinitely light state of inner peace. It's hard to imagine a more positive statement for a saxophone player who long ago decided to forsake flash-and-bang for "simpler" music with understated spiritual energy.
And this two-disc set does Garbarek justice. Each disc runs in chronological order from about 1975 through 1995. The first opens with the starkly plantive "Skrik & Hyl" (with bassist Palle Danielsson), a shrill lament cast skyward with no inhibitions and no regrets. It continues with a couple more dark duets, then opens up into small group interplay. Notable efforts from guitarists John Abercrombie, Bill Frisell, and David Torn endow these pieces with a nice glowing contrast to Garbarek's horn. A few overdubbed solo pieces, each pursuing the modern primitive, offer a sort of purity unique on the set. With closing small group tunes from the '90s, Garbarek shrouds his sound in a cloak of synth air. (As an aesthetic matter, it seems that Garbarek could do much better here if he just sailed free. Directness has always been his strong point, and there's no sense in muting that voice for the sake of atmospherics.)
Onward we flow, right into the second disc with a heap of Keith Jarrett collaborations. It's interesting to note that Garbarek's brief liner notes don't really comment on any musician except for Jarrett. Their shared energy has resulted in some of the very finest music of the '70s. You can toss away Jarrett's crude and misdirected "Windsong" (featuring the odd combination of Garbarek's soprano sax with string orchestra). But with the glowing title track from Jarrett's Belonging, one begins to appreciate the subtlety and nuance these two players develop when they work as a team. Quartet performances of 1977's "My Song" and 1979's "Sunshine Song" coax a softer and warmer angle from the saxophonist, who often dwells in the territory on the dark side of neutral. The highlight of the disc is the wispy but pulsing "Cego Alderaldo" from 1979's collaboration Folk Songs with Egberto Gismonti and Charlie Haden.
In much of his jazz chamber music, Garbarek has adopted a strong Eastern flair. His literacy within the musics of India, Pakistan, and beyond seems completely natural and unforced. The greatest piece on this set, "Raga I," comes from Garbarek's 1990 collaboration with vocalist Ustad Fateh Ali Khan, Ragas and Sagas. If you don't have the cash for this outstanding double-disc retrospective, you should strongly consider acquiring that recording instead. It's a true masterpiece one of the highest pinnacles in the ECM catalog. (Enough said.)
The luminaries: Keith Jarrett, Bill Frisell, Eberhard Weber, Zakir Hussain, Ustad Fateh Ali Khan, Charlie Haden. The big surprise: Garbarek with orchestra ( "Windsong" ) time to hit fast forward!

Tracks

Disc 1
1. Skrik & Hyl
2. Viddene
3. Iskirken
4. Lillekort
5. The Path
6. It's OK To Listen To The Gray Voice
7. All Those Born With Wings, 3Rd Piece
8. Its Name Is Secret Road
9. Aichuri, The Song Man
10. Molde Canticle, Part 1
11. Raga I
12. Twelve Moons
13. Red Wind

Exact Audio Copy V0.99 prebeta 4 from 23. January 2008

EAC extraction logfile from 30. March 2008, 6:53

Jan Garbarek / Selected Recordings Cd1

Used drive : PLEXTOR CD-R PREMIUM2 Adapter: 1 ID: 1

Read mode : Secure
Utilize accurate stream : Yes
Defeat audio cache : Yes
Make use of C2 pointers : No

Read offset correction : 30
Overread into Lead-In and Lead-Out : No
Fill up missing offset samples with silence : Yes
Delete leading and trailing silent blocks : No
Null samples used in CRC calculations : Yes
Used interface : Installed external ASPI interface
Gap handling : Appended to previous track

Used output format : User Defined Encoder
Selected bitrate : 32 kBit/s
Quality : High
Add ID3 tag : No
Command line compressor : C:\Programmi\FLAC\flac.exe
Additional command line options : -8 -V -T "ARTIST=%a" -T "TITLE=%t" -T "ALBUM=%g" -T "DATE=%y" -T "TRACKNUMBER=%n" -T "GENRE=%m" -T "COMMENT=EAC FLAC -8" %s


TOC of the extracted CD

Track | Start | Length | Start sector | End sector
––––––––––––––––––––––––––––-
1 | 0:00.00 | 1:36.66 | 0 | 7265
2 | 1:36.66 | 5:40.04 | 7266 | 32769
3 | 7:16.70 | 6:48.36 | 32770 | 63405
4 | 14:05.31 | 4:58.50 | 63406 | 85805
5 | 19:04.06 | 7:12.19 | 85806 | 118224
6 | 26:16.25 | 4:44.73 | 118225 | 139597
7 | 31:01.23 | 7:40.15 | 139598 | 174112
8 | 38:41.38 | 1:46.16 | 174113 | 182078
9 | 40:27.54 | 5:04.28 | 182079 | 204906
10 | 45:32.07 | 5:16.62 | 204907 | 228668
11 | 50:48.69 | 8:42.08 | 228669 | 267826
12 | 59:31.02 | 7:32.18 | 267827 | 301744
13 | 67:03.20 | 3:47.03 | 301745 | 318772


Track 1

Filename C:\My Rip\01 - Skrik & Hyl.wav

Pre-gap length 0:00:02.00

Peak level 53.8 %
Track quality 100.0 %
Test CRC 6AAC0DE1
Copy CRC 6AAC0DE1
Cannot be verified as accurate (confidence 5) [A1BD1048], AccurateRip returned [B8729F20]
Copy OK

Track 2

Filename C:\My Rip\02 - Viddene.wav

Pre-gap length 0:00:01.57

Peak level 74.2 %
Track quality 99.9 %
Test CRC B0D57FF7
Copy CRC B0D57FF7
Cannot be verified as accurate (confidence 5) [A445AD1E], AccurateRip returned [F0C9F496]
Copy OK

Track 3

Filename C:\My Rip\03 - Iskirken.wav

Pre-gap length 0:00:03.42

Peak level 90.8 %
Track quality 100.0 %
Test CRC E34C3347
Copy CRC E34C3347
Cannot be verified as accurate (confidence 5) [8C1C51CF], AccurateRip returned [53930ADF]
Copy OK

Track 4

Filename C:\My Rip\04 - Lillekort.wav

Pre-gap length 0:00:01.53

Peak level 75.8 %
Track quality 100.0 %
Test CRC 5773FBA5
Copy CRC 5773FBA5
Cannot be verified as accurate (confidence 5) [82D4D059], AccurateRip returned [BE7A8AA9]
Copy OK

Track 5

Filename C:\My Rip\05 - The Path.wav

Pre-gap length 0:00:03.58

Peak level 72.4 %
Track quality 100.0 %
Test CRC 61795BA1
Copy CRC 61795BA1
Cannot be verified as accurate (confidence 5) [394B86E7], AccurateRip returned [7478896F]
Copy OK

Track 6

Filename C:\My Rip\06 - It's OK To Listen To The Gray Voice.wav

Pre-gap length 0:00:01.66

Peak level 48.9 %
Track quality 100.0 %
Test CRC 80E683C7
Copy CRC 80E683C7
Cannot be verified as accurate (confidence 5) [DC33FE5F], AccurateRip returned [174361AF]
Copy OK

Track 7

Filename C:\My Rip\07 - All Those Born With Wings, 3Rd Piece.wav

Pre-gap length 0:00:03.58

Peak level 26.3 %
Track quality 100.0 %
Test CRC 3272CBFD
Copy CRC 3272CBFD
Cannot be verified as accurate (confidence 5) [94E69ADC], AccurateRip returned [03DCA7A4]
Copy OK

Track 8

Filename C:\My Rip\08 - Its Name Is Secret Road.wav

Pre-gap length 0:00:02.49

Peak level 23.6 %
Track quality 100.0 %
Test CRC AE139674
Copy CRC AE139674
Cannot be verified as accurate (confidence 5) [7BE59B2B], AccurateRip returned [8C69C5BB]
Copy OK

Track 9

Filename C:\My Rip\09 - Aichuri, The Song Man.wav

Pre-gap length 0:00:02.54

Peak level 80.1 %
Track quality 100.0 %
Test CRC EC17A32D
Copy CRC EC17A32D
Cannot be verified as accurate (confidence 5) [C9ABF9B0], AccurateRip returned [482B8E50]
Copy OK

Track 10

Filename C:\My Rip\10 - Molde Canticle, Part 1.wav

Pre-gap length 0:00:00.81

Peak level 99.8 %
Track quality 100.0 %
Test CRC 0F5B9B5B
Copy CRC 0F5B9B5B
Cannot be verified as accurate (confidence 5) [D85D34F9], AccurateRip returned [57A47881]
Copy OK

Track 11

Filename C:\My Rip\11 - Raga I.wav

Pre-gap length 0:00:03.58

Peak level 96.8 %
Track quality 100.0 %
Test CRC 192583DA
Copy CRC 192583DA
Cannot be verified as accurate (confidence 5) [74C54598], AccurateRip returned [0EA89FC0]
Copy OK

Track 12

Filename C:\My Rip\12 - Twelve Moons.wav

Pre-gap length 0:00:02.50

Peak level 94.7 %
Track quality 100.0 %
Test CRC D3812DA4
Copy CRC D3812DA4
Cannot be verified as accurate (confidence 4) [574E8643], AccurateRip returned [6E29A003]
Copy OK

Track 13

Filename C:\My Rip\13 - Red Wind.wav

Pre-gap length 0:00:01.44

Peak level 82.8 %
Track quality 100.0 %
Test CRC 444B8CEB
Copy CRC 444B8CEB
Cannot be verified as accurate (confidence 5) [D7D31114], AccurateRip returned [EE8ABDEC]
Copy OK


No tracks could be verified as accurate
You may have a different pressing from the one(s) in the database

No errors occurred

End of status report


Disc 2
1. Windsong
2. Belonging
3. Oceanus
4. My Song
5. Sunshine Song
6. Cego Aderaldo
7. Song For Everyone
8. Rosensfole
9. Star
10. Joron
11. Parce Mihi Domine

Exact Audio Copy V0.99 prebeta 4 from 23. January 2008

EAC extraction logfile from 30. March 2008, 7:24

Jan Garbarek / Selected Recordings Cd2

Used drive : PLEXTOR CD-R PREMIUM2 Adapter: 1 ID: 1

Read mode : Secure
Utilize accurate stream : Yes
Defeat audio cache : Yes
Make use of C2 pointers : No

Read offset correction : 30
Overread into Lead-In and Lead-Out : No
Fill up missing offset samples with silence : Yes
Delete leading and trailing silent blocks : No
Null samples used in CRC calculations : Yes
Used interface : Installed external ASPI interface
Gap handling : Appended to previous track

Used output format : User Defined Encoder
Selected bitrate : 32 kBit/s
Quality : High
Add ID3 tag : No
Command line compressor : C:\Programmi\FLAC\flac.exe
Additional command line options : -8 -V -T "ARTIST=%a" -T "TITLE=%t" -T "ALBUM=%g" -T "DATE=%y" -T "TRACKNUMBER=%n" -T "GENRE=%m" -T "COMMENT=EAC FLAC -8" %s


TOC of the extracted CD

Track | Start | Length | Start sector | End sector
––––––––––––––––––––––––––––-
1 | 0:00.00 | 6:36.29 | 0 | 29728
2 | 6:36.29 | 2:16.07 | 29729 | 39935
3 | 8:52.36 | 11:02.42 | 39936 | 89627
4 | 19:55.03 | 6:13.34 | 89628 | 117636
5 | 26:08.37 | 12:01.26 | 117637 | 171737
6 | 38:09.63 | 7:56.23 | 171738 | 207460
7 | 46:06.11 | 6:21.25 | 207461 | 236060
8 | 52:27.36 | 2:47.55 | 236061 | 248640
9 | 55:15.16 | 6:13.64 | 248641 | 276679
10 | 61:29.05 | 6:27.30 | 276680 | 305734
11 | 67:56.35 | 6:35.05 | 305735 | 335364


Track 1

Filename C:\My Rip\01 - Windsong.wav

Pre-gap length 0:00:02.00

Peak level 55.5 %
Track quality 100.0 %
Test CRC 4D1C7CE3
Copy CRC 4D1C7CE3
Accurately ripped (confidence 5) [86D8D35E]
Copy OK

Track 2

Filename C:\My Rip\02 - Belonging.wav

Pre-gap length 0:00:03.58

Peak level 57.2 %
Track quality 100.0 %
Test CRC 6B11ABD0
Copy CRC 6B11ABD0
Accurately ripped (confidence 5) [C698E043]
Copy OK

Track 3

Filename C:\My Rip\03 - Oceanus.wav

Pre-gap length 0:00:03.58

Peak level 66.7 %
Track quality 100.0 %
Test CRC BBC83E16
Copy CRC BBC83E16
Accurately ripped (confidence 5) [67F25230]
Copy OK

Track 4

Filename C:\My Rip\04 - My Song.wav

Pre-gap length 0:00:03.58

Peak level 77.6 %
Track quality 100.0 %
Test CRC FC7338B0
Copy CRC FC7338B0
Accurately ripped (confidence 5) [C2B8D717]
Copy OK

Track 5

Filename C:\My Rip\05 - Sunshine Song.wav

Pre-gap length 0:00:03.58

Peak level 75.1 %
Track quality 100.0 %
Test CRC 7F025F90
Copy CRC 7F025F90
Accurately ripped (confidence 6) [373F328C]
Copy OK

Track 6

Filename C:\My Rip\06 - Cego Aderaldo.wav

Peak level 83.3 %
Track quality 100.0 %
Test CRC 5B60578A
Copy CRC 5B60578A
Accurately ripped (confidence 5) [B2DC6E4A]
Copy OK

Track 7

Filename C:\My Rip\07 - Song For Everyone.wav

Pre-gap length 0:00:02.09

Peak level 69.1 %
Track quality 100.0 %
Test CRC 3D62BAE4
Copy CRC 3D62BAE4
Accurately ripped (confidence 6) [1376A397]
Copy OK

Track 8

Filename C:\My Rip\08 - Rosensfole.wav

Pre-gap length 0:00:02.29

Peak level 99.8 %
Track quality 100.0 %
Test CRC FE0A34EA
Copy CRC FE0A34EA
Accurately ripped (confidence 5) [A8684237]
Copy OK

Track 9

Filename C:\My Rip\09 - Star.wav

Pre-gap length 0:00:01.98

Peak level 85.7 %
Track quality 100.0 %
Test CRC 68B021FC
Copy CRC 68B021FC
Accurately ripped (confidence 5) [C274E697]
Copy OK

Track 10

Filename C:\My Rip\10 - Joron.wav

Pre-gap length 0:00:02.08

Peak level 83.5 %
Track quality 100.0 %
Test CRC B617151B
Copy CRC B617151B
Accurately ripped (confidence 6) [0CBB2AB1]
Copy OK

Track 11

Filename C:\My Rip\11 - Parce Mihi Domine.wav

Pre-gap length 0:00:02.17

Peak level 92.1 %
Track quality 100.0 %
Test CRC 2D419A96
Copy CRC 2D419A96
Accurately ripped (confidence 6) [342937DD]
Copy OK


All tracks accurately ripped

No errors occurred

End of status report


Download from Filesonic
CD 1
CD 2




Download from Fileserve

CD 1
CD 2


Full Scan HQ
Filesonic

or

Fileserve




No Mirrors


Thanks to Remark50