Subcategories

Jan Kisjes - The Nymphs, Part One: Language of the Nymphs (2003)

Posted By: gribovar
Jan Kisjes - The Nymphs, Part One: Language of the Nymphs (2003)

Jan Kisjes - The Nymphs, Part One: Language of the Nymphs (2003)
EAC Rip | FLAC (tracks+.cue+log) - 420 MB | MP3 CBR 320 kbps (LAME 3.93) - 214 MB | Covers - 120 MB
Genre: New Age | RAR 3% Rec. | Label: Oreade Music (ORM 62382)

"The Nymphs" tells the story of a wandering mortal who ends up in the realm of the Queen of the Nymphs. The late Scottish entertainer Jimmy Logan narrates the story, interwoven with hauntingly beautiful music composed by Jan Kisjes and magical poems recited by Bryan Maguire. The combination of story, music and poems results in a fairytale decor. The package also contains a second music-only CD.
CD 1 Tracklist:
01. Language Of The Nymphs (The Story)
02. Silence Of The Sun (Poem)
03. Sa Na Du
04. The Sea Is Awake (Poem)
05. Waka Zia
06. The Wind Is My Friend (Poem)
07. Donde Djemnbe
08. After The Rain (Poem)
09. Umna Sa
10. Earth, Dear Mother (Poem)
11. Na No Mi Ne
12. Dance Of The Flames (Poem)
13. Adjah Bihem
14. The Sound Of The Flowers (Poem)
15. Nourih Samah
16. Language Of The Nymphs (The Story… to be continued)

Total time: 51:25

CD 2 Tracklist (Instrumental new session):
01. Sa Na Du
02. Waka Zia
03. Donde Djembeh
04. Umna Sa
05. Na No Mi Ne
06. Adjah Bihem
07. Nouri Samah

Total time: 39:26

Exact Audio Copy V1.0 beta 3 from 29. August 2011

EAC extraction logfile from 10. May 2013, 0:00

Jan Kisjes / The Nymphs (Part One. Language of rhe Nymphs)

Used drive : PLEXTOR DVDR PX-760A Adapter: 0 ID: 1

Read mode : Secure
Utilize accurate stream : Yes
Defeat audio cache : Yes
Make use of C2 pointers : No

Read offset correction : 30
Overread into Lead-In and Lead-Out : Yes
Fill up missing offset samples with silence : Yes
Delete leading and trailing silent blocks : No
Null samples used in CRC calculations : Yes
Used interface : Installed external ASPI interface
Gap handling : Appended to previous track

Used output format : User Defined Encoder
Selected bitrate : 1024 kBit/s
Quality : High
Add ID3 tag : No
Command line compressor : C:\Program Files (x86)\Exact Audio Copy\Flac\flac.exe
Additional command line options : -8 -V -T "ARTIST=%artist%" -T "TITLE=%title%" -T "ALBUM=%albumtitle%" -T "DATE=%year%" -T "TRACKNUMBER=%tracknr%" -T "GENRE=%genre%" -T "COMMENT=ripped by DrStandBy" %source%


TOC of the extracted CD

Track | Start | Length | Start sector | End sector
––––––––––––––––––––––––––––-
1 | 0:00.00 | 3:40.10 | 0 | 16509
2 | 3:40.10 | 1:05.20 | 16510 | 21404
3 | 4:45.30 | 4:45.68 | 21405 | 42847
4 | 9:31.23 | 1:05.62 | 42848 | 47784
5 | 10:37.10 | 6:53.32 | 47785 | 78791
6 | 17:30.42 | 0:57.73 | 78792 | 83139
7 | 18:28.40 | 6:29.42 | 83140 | 112356
8 | 24:58.07 | 0:45.00 | 112357 | 115731
9 | 25:43.07 | 4:37.24 | 115732 | 136530
10 | 30:20.31 | 0:47.31 | 136531 | 140086
11 | 31:07.62 | 4:58.46 | 140087 | 162482
12 | 36:06.33 | 0:37.25 | 162483 | 165282
13 | 36:43.58 | 5:56.20 | 165283 | 192002
14 | 42:40.03 | 1:07.07 | 192003 | 197034
15 | 43:47.10 | 5:17.07 | 197035 | 220816
16 | 49:04.17 | 2:20.66 | 220817 | 231382


Track 1

Filename Z:\Lossless\New Age\Jan Kisjes\2003 - Jan Kisjes - The Nymphs. Part One (Language of the Nymphs) (Oreade #ORM 62382)\1-01. Jan Kisjes - Language Of The Nymphs x the Story.wav

Pre-gap length 0:00:02.00

Peak level 49.5 %
Extraction speed 2.1 X
Track quality 100.0 %
Test CRC FEC16432
Copy CRC FEC16432
Track not present in AccurateRip database
Copy OK

Track 2

Filename Z:\Lossless\New Age\Jan Kisjes\2003 - Jan Kisjes - The Nymphs. Part One (Language of the Nymphs) (Oreade #ORM 62382)\1-02. Jan Kisjes - Silence Of The Sun (Poem).wav

Peak level 35.0 %
Extraction speed 1.6 X
Track quality 100.0 %
Test CRC 7338ABF2
Copy CRC 7338ABF2
Track not present in AccurateRip database
Copy OK

Track 3

Filename Z:\Lossless\New Age\Jan Kisjes\2003 - Jan Kisjes - The Nymphs. Part One (Language of the Nymphs) (Oreade #ORM 62382)\1-03. Jan Kisjes - Sa Na Du.wav

Peak level 98.8 %
Extraction speed 2.2 X
Track quality 100.0 %
Test CRC CF62F440
Copy CRC CF62F440
Track not present in AccurateRip database
Copy OK

Track 4

Filename Z:\Lossless\New Age\Jan Kisjes\2003 - Jan Kisjes - The Nymphs. Part One (Language of the Nymphs) (Oreade #ORM 62382)\1-04. Jan Kisjes - The Sea Is Awake (Poem).wav

Peak level 35.0 %
Extraction speed 1.6 X
Track quality 100.0 %
Test CRC 95134D93
Copy CRC 95134D93
Track not present in AccurateRip database
Copy OK

Track 5

Filename Z:\Lossless\New Age\Jan Kisjes\2003 - Jan Kisjes - The Nymphs. Part One (Language of the Nymphs) (Oreade #ORM 62382)\1-05. Jan Kisjes - Waka Zia.wav

Peak level 98.8 %
Extraction speed 2.3 X
Track quality 100.0 %
Test CRC 1BB94634
Copy CRC 1BB94634
Track not present in AccurateRip database
Copy OK

Track 6

Filename Z:\Lossless\New Age\Jan Kisjes\2003 - Jan Kisjes - The Nymphs. Part One (Language of the Nymphs) (Oreade #ORM 62382)\1-06. Jan Kisjes - The Wind Is My Friend (Poem).wav

Peak level 35.0 %
Extraction speed 1.5 X
Track quality 100.0 %
Test CRC 26C77D2A
Copy CRC 26C77D2A
Track not present in AccurateRip database
Copy OK

Track 7

Filename Z:\Lossless\New Age\Jan Kisjes\2003 - Jan Kisjes - The Nymphs. Part One (Language of the Nymphs) (Oreade #ORM 62382)\1-07. Jan Kisjes - Donde Djemnbe.wav

Peak level 98.8 %
Extraction speed 2.3 X
Track quality 100.0 %
Test CRC A40CC674
Copy CRC A40CC674
Track not present in AccurateRip database
Copy OK

Track 8

Filename Z:\Lossless\New Age\Jan Kisjes\2003 - Jan Kisjes - The Nymphs. Part One (Language of the Nymphs) (Oreade #ORM 62382)\1-08. Jan Kisjes - After The Rain (Poem).wav

Pre-gap length 0:00:00.45

Peak level 35.0 %
Extraction speed 1.4 X
Track quality 100.0 %
Test CRC 178F9495
Copy CRC 178F9495
Track not present in AccurateRip database
Copy OK

Track 9

Filename Z:\Lossless\New Age\Jan Kisjes\2003 - Jan Kisjes - The Nymphs. Part One (Language of the Nymphs) (Oreade #ORM 62382)\1-09. Jan Kisjes - Umna Sa.wav

Peak level 98.8 %
Extraction speed 2.2 X
Track quality 100.0 %
Test CRC F2C137C0
Copy CRC F2C137C0
Track not present in AccurateRip database
Copy OK

Track 10

Filename Z:\Lossless\New Age\Jan Kisjes\2003 - Jan Kisjes - The Nymphs. Part One (Language of the Nymphs) (Oreade #ORM 62382)\1-10. Jan Kisjes - Earth, dear Mother (Poem).wav

Peak level 30.8 %
Extraction speed 1.4 X
Track quality 100.0 %
Test CRC E51B1545
Copy CRC E51B1545
Track not present in AccurateRip database
Copy OK

Track 11

Filename Z:\Lossless\New Age\Jan Kisjes\2003 - Jan Kisjes - The Nymphs. Part One (Language of the Nymphs) (Oreade #ORM 62382)\1-11. Jan Kisjes - Na No Mi Ne.wav

Peak level 98.8 %
Extraction speed 2.2 X
Track quality 100.0 %
Test CRC C9B941D3
Copy CRC C9B941D3
Track not present in AccurateRip database
Copy OK

Track 12

Filename Z:\Lossless\New Age\Jan Kisjes\2003 - Jan Kisjes - The Nymphs. Part One (Language of the Nymphs) (Oreade #ORM 62382)\1-12. Jan Kisjes - Dance Of The Flames (Poem).wav

Peak level 35.0 %
Extraction speed 1.2 X
Track quality 100.0 %
Test CRC 27E7821A
Copy CRC 27E7821A
Track not present in AccurateRip database
Copy OK

Track 13

Filename Z:\Lossless\New Age\Jan Kisjes\2003 - Jan Kisjes - The Nymphs. Part One (Language of the Nymphs) (Oreade #ORM 62382)\1-13. Jan Kisjes - Adjah Bihem.wav

Peak level 98.8 %
Extraction speed 2.2 X
Track quality 100.0 %
Test CRC 4E852161
Copy CRC 4E852161
Track not present in AccurateRip database
Copy OK

Track 14

Filename Z:\Lossless\New Age\Jan Kisjes\2003 - Jan Kisjes - The Nymphs. Part One (Language of the Nymphs) (Oreade #ORM 62382)\1-14. Jan Kisjes - The Sound Of The Flowers (Poem).wav

Peak level 35.0 %
Extraction speed 1.6 X
Track quality 100.0 %
Test CRC EEEA1A90
Copy CRC EEEA1A90
Track not present in AccurateRip database
Copy OK

Track 15

Filename Z:\Lossless\New Age\Jan Kisjes\2003 - Jan Kisjes - The Nymphs. Part One (Language of the Nymphs) (Oreade #ORM 62382)\1-15. Jan Kisjes - Nourih Samah.wav

Peak level 98.8 %
Extraction speed 2.2 X
Track quality 100.0 %
Test CRC 134A3CC2
Copy CRC 134A3CC2
Track not present in AccurateRip database
Copy OK

Track 16

Filename Z:\Lossless\New Age\Jan Kisjes\2003 - Jan Kisjes - The Nymphs. Part One (Language of the Nymphs) (Oreade #ORM 62382)\1-16. Jan Kisjes - Language Of The Nymphs x the Story..to be continued.wav

Peak level 49.5 %
Extraction speed 2.4 X
Track quality 100.0 %
Test CRC BB6A4A20
Copy CRC BB6A4A20
Track not present in AccurateRip database
Copy OK


None of the tracks are present in the AccurateRip database

No errors occurred

End of status report

–– CUETools DB Plugin V2.1.4

[CTDB TOCID: uj30zSnX4GY4CxxrKXVoY.nPKDc-] found
Submit result: uj30zSnX4GY4CxxrKXVoY.nPKDc- has been confirmed
Track | CTDB Status
1 | (2/2) Accurately ripped
2 | (2/2) Accurately ripped
3 | (2/2) Accurately ripped
4 | (2/2) Accurately ripped
5 | (2/2) Accurately ripped
6 | (2/2) Accurately ripped
7 | (2/2) Accurately ripped
8 | (2/2) Accurately ripped
9 | (2/2) Accurately ripped
10 | (2/2) Accurately ripped
11 | (2/2) Accurately ripped
12 | (2/2) Accurately ripped
13 | (2/2) Accurately ripped
14 | (2/2) Accurately ripped
15 | (2/2) Accurately ripped
16 | (2/2) Accurately ripped


==== Log checksum 8D2DE3017F8C1DBA81316D4F36BE9327A6FCC3B2DB94BF248C2CEB25015E9A86 ====

[CUETools log; Date: 23.07.2017 14:29:08; Version: 2.1.4]
[CTDB TOCID: uj30zSnX4GY4CxxrKXVoY.nPKDc-] found.
Track | CTDB Status
1 | (4/4) Accurately ripped
2 | (4/4) Accurately ripped
3 | (4/4) Accurately ripped
4 | (4/4) Accurately ripped
5 | (4/4) Accurately ripped
6 | (4/4) Accurately ripped
7 | (4/4) Accurately ripped
8 | (4/4) Accurately ripped
9 | (4/4) Accurately ripped
10 | (4/4) Accurately ripped
11 | (4/4) Accurately ripped
12 | (4/4) Accurately ripped
13 | (4/4) Accurately ripped
14 | (4/4) Accurately ripped
15 | (4/4) Accurately ripped
16 | (4/4) Accurately ripped
[AccurateRip ID: 001df89f-01686055-d00c0d10] found.
Track [ CRC | V2 ] Status
01 [a6909ec4|fef8247c] (0+1/1) Accurately ripped
02 [557c7d0b|b234756c] (0+1/1) Accurately ripped
03 [00c455aa|180e1d37] (0+1/1) Accurately ripped
04 [1fe0979e|4ae65bd3] (0+1/1) Accurately ripped
05 [9a1cf3bb|941ed909] (0+1/1) Accurately ripped
06 [492fe883|f6c8a1fa] (0+1/1) Accurately ripped
07 [87b95189|d9f4900e] (0+1/1) Accurately ripped
08 [1ca72299|d7bdc758] (0+1/1) Accurately ripped
09 [838b4408|c3a88e5f] (0+1/1) Accurately ripped
10 [7658e569|2637b37d] (0+1/1) Accurately ripped
11 [4f93c770|483713a6] (0+1/1) Accurately ripped
12 [2c402caa|6d90ab72] (0+1/1) Accurately ripped
13 [e5e45ec4|d58a3123] (0+1/1) Accurately ripped
14 [579c9004|8df9df79] (0+1/1) Accurately ripped
15 [33923ca3|9bdbcc7a] (0+1/1) Accurately ripped
16 [eb11bf92|910b1a2a] (0+1/1) Accurately ripped

Track Peak [ CRC32 ] [W/O NULL] [ LOG ]
– 98,8 [5BBEC97F] [EC80F4CE]
01 49,5 [FEC16432] [87D07FFC] CRC32
02 35,0 [7338ABF2] [C0DA5FB2] CRC32
03 98,8 [CF62F440] [DC3BB6CA] CRC32
04 35,0 [95134D93] [059D8F91] CRC32
05 98,8 [1BB94634] [F63CB428] CRC32
06 35,0 [26C77D2A] [A7D6D650] CRC32
07 98,8 [A40CC674] [E0FABC0D] CRC32
08 35,0 [178F9495] [167D6460] CRC32
09 98,8 [F2C137C0] [B5AFBC44] CRC32
10 30,8 [E51B1545] [DBEF9954] CRC32
11 98,8 [C9B941D3] [A36D6850] CRC32
12 35,0 [27E7821A] [4DDF771F] CRC32
13 98,8 [4E852161] [61F866A3] CRC32
14 35,0 [EEEA1A90] [789E68C3] CRC32
15 98,8 [134A3CC2] [31D4B594] CRC32
16 49,5 [BB6A4A20] [E6D3D7C3] CRC32

Exact Audio Copy V1.0 beta 3 from 29. August 2011

EAC extraction logfile from 10. May 2013, 0:48

Jan Kisjes / The Nymphs (Instrumental Version)

Used drive : PLEXTOR DVDR PX-760A Adapter: 0 ID: 1

Read mode : Secure
Utilize accurate stream : Yes
Defeat audio cache : Yes
Make use of C2 pointers : No

Read offset correction : 30
Overread into Lead-In and Lead-Out : No
Fill up missing offset samples with silence : Yes
Delete leading and trailing silent blocks : No
Null samples used in CRC calculations : Yes
Used interface : Installed external ASPI interface
Gap handling : Appended to previous track

Used output format : User Defined Encoder
Selected bitrate : 1024 kBit/s
Quality : High
Add ID3 tag : No
Command line compressor : C:\Program Files (x86)\Exact Audio Copy\Flac\flac.exe
Additional command line options : -8 -V -T "ARTIST=%artist%" -T "TITLE=%title%" -T "ALBUM=%albumtitle%" -T "DATE=%year%" -T "TRACKNUMBER=%tracknr%" -T "GENRE=%genre%" -T "COMMENT=ripped by DrStandBy" %source%


TOC of the extracted CD

Track | Start | Length | Start sector | End sector
––––––––––––––––––––––––––––-
1 | 0:00.00 | 4:58.34 | 0 | 22383
2 | 4:58.34 | 6:51.40 | 22384 | 53248
3 | 11:49.74 | 6:32.16 | 53249 | 82664
4 | 18:22.15 | 4:41.09 | 82665 | 103748
5 | 23:03.24 | 5:07.60 | 103749 | 126833
6 | 28:11.09 | 5:52.30 | 126834 | 153263
7 | 34:03.39 | 5:22.14 | 153264 | 177427


Track 1

Filename Z:\Lossless\New Age\Jan Kisjes\2003 - Jan Kisjes - The Nymphs. Part One (Language of the Nymphs) (Oreade #ORM 62382)\2-01. Jan Kisjes - Sa Na Du.wav

Pre-gap length 0:00:02.00

Peak level 98.8 %
Extraction speed 1.6 X
Track quality 99.9 %
Test CRC 2507959C
Copy CRC 2507959C
Track not present in AccurateRip database
Copy OK

Track 2

Filename Z:\Lossless\New Age\Jan Kisjes\2003 - Jan Kisjes - The Nymphs. Part One (Language of the Nymphs) (Oreade #ORM 62382)\2-02. Jan Kisjes - Waka Zia.wav

Peak level 98.8 %
Extraction speed 2.3 X
Track quality 100.0 %
Test CRC 23C0F3FD
Copy CRC 23C0F3FD
Track not present in AccurateRip database
Copy OK

Track 3

Filename Z:\Lossless\New Age\Jan Kisjes\2003 - Jan Kisjes - The Nymphs. Part One (Language of the Nymphs) (Oreade #ORM 62382)\2-03. Jan Kisjes - Donde Djembeh.wav

Peak level 98.8 %
Extraction speed 2.3 X
Track quality 100.0 %
Test CRC 9894D5E0
Copy CRC 9894D5E0
Track not present in AccurateRip database
Copy OK

Track 4

Filename Z:\Lossless\New Age\Jan Kisjes\2003 - Jan Kisjes - The Nymphs. Part One (Language of the Nymphs) (Oreade #ORM 62382)\2-04. Jan Kisjes - Umna Sa.wav

Peak level 98.8 %
Extraction speed 2.2 X
Track quality 100.0 %
Test CRC 8857AD2B
Copy CRC 8857AD2B
Track not present in AccurateRip database
Copy OK

Track 5

Filename Z:\Lossless\New Age\Jan Kisjes\2003 - Jan Kisjes - The Nymphs. Part One (Language of the Nymphs) (Oreade #ORM 62382)\2-05. Jan Kisjes - Na No Mi Ne.wav

Peak level 98.8 %
Extraction speed 2.2 X
Track quality 100.0 %
Test CRC 6DF57A7E
Copy CRC 6DF57A7E
Track not present in AccurateRip database
Copy OK

Track 6

Filename Z:\Lossless\New Age\Jan Kisjes\2003 - Jan Kisjes - The Nymphs. Part One (Language of the Nymphs) (Oreade #ORM 62382)\2-06. Jan Kisjes - Adjah Bihem.wav

Peak level 98.8 %
Extraction speed 2.2 X
Track quality 100.0 %
Test CRC 4D485C16
Copy CRC 4D485C16
Track not present in AccurateRip database
Copy OK

Track 7

Filename Z:\Lossless\New Age\Jan Kisjes\2003 - Jan Kisjes - The Nymphs. Part One (Language of the Nymphs) (Oreade #ORM 62382)\2-07. Jan Kisjes - Nouri Samah.wav

Peak level 98.8 %
Extraction speed 2.2 X
Track quality 100.0 %
Test CRC C1811674
Copy CRC C1811674
Track not present in AccurateRip database
Copy OK


None of the tracks are present in the AccurateRip database

No errors occurred

End of status report

–– CUETools DB Plugin V2.1.4

[CTDB TOCID: ME80sEbFN.rGD4hVJkmA77GmL4I-] found
Submit result: ME80sEbFN.rGD4hVJkmA77GmL4I- has been confirmed
Track | CTDB Status
1 | (2/2) Accurately ripped
2 | (2/2) Accurately ripped
3 | (2/2) Accurately ripped
4 | (2/2) Accurately ripped
5 | (2/2) Accurately ripped
6 | (2/2) Accurately ripped
7 | (2/2) Accurately ripped


==== Log checksum A1FCC753B9C57A7DAE7CF40D56F0A38DB2DA977201AC33A286A873AE4365E0C4 ====

[CUETools log; Date: 23.07.2017 14:29:45; Version: 2.1.4]
[CTDB TOCID: ME80sEbFN.rGD4hVJkmA77GmL4I-] found.
Track | CTDB Status
1 | (3/3) Accurately ripped
2 | (3/3) Accurately ripped
3 | (3/3) Accurately ripped
4 | (3/3) Accurately ripped
5 | (3/3) Accurately ripped
6 | (3/3) Accurately ripped
7 | (3/3) Accurately ripped
[AccurateRip ID: 000afad5-0041b8fd-43093d07] found.
Track [ CRC | V2 ] Status
01 [f93158d9|958b77ad] (0+1/1) Accurately ripped
02 [af007da2|d360a48a] (0+1/1) Accurately ripped
03 [2b249d09|a1c20328] (0+1/1) Accurately ripped
04 [cb703fcd|a46d23da] (0+1/1) Accurately ripped
05 [925af415|ed7a935e] (0+1/1) Accurately ripped
06 [d67c4d94|80c91493] (0+1/1) Accurately ripped
07 [fe58ecd1|56ad6704] (0+1/1) Accurately ripped

Track Peak [ CRC32 ] [W/O NULL] [ LOG ]
– 98,8 [F5316C41] [E44A8990]
01 98,8 [2507959C] [EE0D91ED] CRC32
02 98,8 [23C0F3FD] [3AB42B17] CRC32
03 98,8 [9894D5E0] [75CF865C] CRC32
04 98,8 [8857AD2B] [C1E1E8C7] CRC32
05 98,8 [6DF57A7E] [B368D943] CRC32
06 98,8 [4D485C16] [EF7C1239] CRC32
07 98,8 [C1811674] [1472F9D4] CRC32

Thanks to DrStandBy