Tags
Language
Tags

Jan Skovgaard Petersen - Natural Harmonies (2003)

Posted By: gribovar
Jan Skovgaard Petersen - Natural Harmonies (2003)

Jan Skovgaard Petersen - Natural Harmonies (2003)
EAC Rip | FLAC (tracks+.cue+log) - 274 MB | MP3 CBR 320 kbps (LAME 3.93) - 116 MB | Covers - 65 MB
Genre: New Age | RAR 3% Rec. | Label: Fønix Musik (FMF CD 1205)

Beautiful music inspired by the magical moments in life when you are in harmony and life unfolds before your eyes in it's uttermost beauty.
Tracklist:
01. Dawn
02. The Beautiful Garden
03. Summer Evening
04. In the Forest
05. Sitting Around the Fireplace
06. In the Old Rocking Chair
07. Under the Old Oak Tree
08. The Dream
09. Go to Sleep My Love
10. Watching the Roses
11. The Sleeping Forest

Total time: 49:22

Exact Audio Copy V1.5 from 20. February 2020

EAC extraction logfile from 23. June 2020, 22:39

Jan Skovgaard Petersen / Natural Harmonies

Used drive : ASUS DRW-24F1ST a Adapter: 1 ID: 1

Read mode : Secure
Utilize accurate stream : Yes
Defeat audio cache : Yes
Make use of C2 pointers : No

Read offset correction : 6
Overread into Lead-In and Lead-Out : No
Fill up missing offset samples with silence : Yes
Delete leading and trailing silent blocks : No
Null samples used in CRC calculations : Yes
Used interface : Native Win32 interface for Win NT & 2000
Gap handling : Appended to previous track

Used output format : User Defined Encoder
Selected bitrate : 896 kBit/s
Quality : High
Add ID3 tag : No
Command line compressor : C:\Program Files (x86)\Exact Audio Copy\Flac\flac.exe
Additional command line options : -8 -V -T "COMMENT=ripped by DrStandBy special for new-team.org" -T "ARTIST=%artist%" -T "TITLE=%title%" -T "ALBUM=%albumtitle%" -T "DATE=%year%" -T "TRACKNUMBER=%tracknr%" -T "GENRE=%genre%" %source%


TOC of the extracted CD

Track | Start | Length | Start sector | End sector
––––––––––––––––––––––––––––-
1 | 0:00.00 | 3:32.07 | 0 | 15906
2 | 3:32.07 | 4:02.00 | 15907 | 34056
3 | 7:34.07 | 4:10.23 | 34057 | 52829
4 | 11:44.30 | 6:02.17 | 52830 | 79996
5 | 17:46.47 | 4:19.25 | 79997 | 99446
6 | 22:05.72 | 5:21.63 | 99447 | 123584
7 | 27:27.60 | 5:06.45 | 123585 | 146579
8 | 32:34.30 | 4:01.62 | 146580 | 164716
9 | 36:36.17 | 4:43.03 | 164717 | 185944
10 | 41:19.20 | 4:03.20 | 185945 | 204189
11 | 45:22.40 | 3:59.17 | 204190 | 222131


Track 1

Filename Q:\2003 - Jan Skovgaard Petersen - Natural Harmonies (FMF CD 1205)\01. Jan Skovgaard Petersen - Dawn.wav

Pre-gap length 0:00:02.00

Peak level 99.9 %
Extraction speed 1.7 X
Track quality 100.0 %
Test CRC 0DE307AF
Copy CRC 0DE307AF
Accurately ripped (confidence 1) [347E1B19] (AR v2)
Copy OK

Track 2

Filename Q:\2003 - Jan Skovgaard Petersen - Natural Harmonies (FMF CD 1205)\02. Jan Skovgaard Petersen - The beautiful Garden.wav

Pre-gap length 0:00:04.60

Peak level 99.9 %
Extraction speed 1.7 X
Track quality 99.9 %
Test CRC 1500426A
Copy CRC 1500426A
Accurately ripped (confidence 1) [E87ADC16] (AR v2)
Copy OK

Track 3

Filename Q:\2003 - Jan Skovgaard Petersen - Natural Harmonies (FMF CD 1205)\03. Jan Skovgaard Petersen - Summer Evening.wav

Pre-gap length 0:00:04.70

Peak level 99.9 %
Extraction speed 1.8 X
Track quality 99.9 %
Test CRC 25C6C367
Copy CRC 25C6C367
Accurately ripped (confidence 1) [B914F520] (AR v2)
Copy OK

Track 4

Filename Q:\2003 - Jan Skovgaard Petersen - Natural Harmonies (FMF CD 1205)\04. Jan Skovgaard Petersen - In the Forest.wav

Pre-gap length 0:00:04.18

Peak level 99.9 %
Extraction speed 2.1 X
Track quality 99.9 %
Test CRC D38E2367
Copy CRC D38E2367
Accurately ripped (confidence 1) [843AC61A] (AR v2)
Copy OK

Track 5

Filename Q:\2003 - Jan Skovgaard Petersen - Natural Harmonies (FMF CD 1205)\05. Jan Skovgaard Petersen - Sitting around the Fireplace.wav

Pre-gap length 0:00:04.55

Peak level 99.9 %
Extraction speed 2.5 X
Track quality 100.0 %
Test CRC 3093CC0F
Copy CRC 3093CC0F
Accurately ripped (confidence 1) [7FBF94AA] (AR v2)
Copy OK

Track 6

Filename Q:\2003 - Jan Skovgaard Petersen - Natural Harmonies (FMF CD 1205)\06. Jan Skovgaard Petersen - In the old Rocking Chair.wav

Pre-gap length 0:00:05.40

Peak level 99.9 %
Extraction speed 2.7 X
Track quality 100.0 %
Test CRC 04CF3504
Copy CRC 04CF3504
Accurately ripped (confidence 1) [15B4DA3D] (AR v2)
Copy OK

Track 7

Filename Q:\2003 - Jan Skovgaard Petersen - Natural Harmonies (FMF CD 1205)\07. Jan Skovgaard Petersen - Under the old Oak Tree.wav

Pre-gap length 0:00:05.25

Peak level 99.9 %
Extraction speed 2.9 X
Track quality 100.0 %
Test CRC 711259D5
Copy CRC 711259D5
Accurately ripped (confidence 1) [543F297F] (AR v2)
Copy OK

Track 8

Filename Q:\2003 - Jan Skovgaard Petersen - Natural Harmonies (FMF CD 1205)\08. Jan Skovgaard Petersen - The Dream.wav

Pre-gap length 0:00:04.48

Peak level 99.9 %
Extraction speed 2.9 X
Track quality 100.0 %
Test CRC 5DD9464A
Copy CRC 5DD9464A
Accurately ripped (confidence 1) [C903E573] (AR v2)
Copy OK

Track 9

Filename Q:\2003 - Jan Skovgaard Petersen - Natural Harmonies (FMF CD 1205)\09. Jan Skovgaard Petersen - Go to sleep my Love.wav

Pre-gap length 0:00:05.72

Peak level 99.9 %
Extraction speed 3.1 X
Track quality 100.0 %
Test CRC 251C7CB5
Copy CRC 251C7CB5
Accurately ripped (confidence 1) [66420072] (AR v2)
Copy OK

Track 10

Filename Q:\2003 - Jan Skovgaard Petersen - Natural Harmonies (FMF CD 1205)\10. Jan Skovgaard Petersen - Watching the Roses.wav

Pre-gap length 0:00:05.43

Peak level 98.9 %
Extraction speed 3.2 X
Track quality 100.0 %
Test CRC 742899A5
Copy CRC 742899A5
Accurately ripped (confidence 1) [8AB4683D] (AR v2)
Copy OK

Track 11

Filename Q:\2003 - Jan Skovgaard Petersen - Natural Harmonies (FMF CD 1205)\11. Jan Skovgaard Petersen - The sleeping Forest.wav

Pre-gap length 0:00:05.23

Peak level 99.9 %
Extraction speed 3.3 X
Track quality 100.0 %
Test CRC 0EB4982F
Copy CRC 0EB4982F
Accurately ripped (confidence 1) [54903BC7] (AR v2)
Copy OK


All tracks accurately ripped

No errors occurred

End of status report

–– AcoustID Plugin V1.2.0

Total fingerprints: 11


–– CUETools DB Plugin V2.1.6

[CTDB TOCID: ey5_XhiVqLaM.z_y6A2vJpwSmz8-] disk not present in database
Submit result: ey5_XhiVqLaM.z_y6A2vJpwSmz8- has been uploaded


==== Log checksum 7B6CDF05AA8BB62066FDFF8D4AA9D52361531BD4DBD3B35F169F134BB7531283 ====

[CUETools log; Date: 06.07.2020 11:54:23; Version: 2.1.4]
[CTDB TOCID: ey5_XhiVqLaM.z_y6A2vJpwSmz8-] found.
Track | CTDB Status
1 | (1/1) Accurately ripped
2 | (1/1) Accurately ripped
3 | (1/1) Accurately ripped
4 | (1/1) Accurately ripped
5 | (1/1) Accurately ripped
6 | (1/1) Accurately ripped
7 | (1/1) Accurately ripped
8 | (1/1) Accurately ripped
9 | (1/1) Accurately ripped
10 | (1/1) Accurately ripped
11 | (1/1) Accurately ripped
[AccurateRip ID: 001448eb-00b18285-9c0b910b] found.
Track [ CRC | V2 ] Status
01 [343da7ae|347e1b19] (0+1/1) Accurately ripped
02 [d349b481|e87adc16] (0+1/1) Accurately ripped
03 [fb9e16fd|b914f520] (0+1/1) Accurately ripped
04 [9afad0b1|843ac61a] (0+1/1) Accurately ripped
05 [07aa61c0|7fbf94aa] (0+1/1) Accurately ripped
06 [31de76c7|15b4da3d] (0+1/1) Accurately ripped
07 [fbcc1e3e|543f297f] (0+1/1) Accurately ripped
08 [8fdb4c9f|c903e573] (0+1/1) Accurately ripped
09 [491c1ba1|66420072] (0+1/1) Accurately ripped
10 [da8274c5|8ab4683d] (0+1/1) Accurately ripped
11 [a7e32533|54903bc7] (0+1/1) Accurately ripped

Track Peak [ CRC32 ] [W/O NULL] [ LOG ]
– 99,9 [397D4586] [E3D4D3B6]
01 99,9 [0DE307AF] [9DF376D9] CRC32
02 99,9 [1500426A] [852AA172] CRC32
03 99,9 [25C6C367] [1A893534] CRC32
04 99,9 [D38E2367] [DBB23E99] CRC32
05 99,9 [3093CC0F] [DC811C51] CRC32
06 99,9 [04CF3504] [CE9A0545] CRC32
07 99,9 [711259D5] [2AC404E4] CRC32
08 99,9 [5DD9464A] [8C9173E2] CRC32
09 99,9 [251C7CB5] [16E7306D] CRC32
10 98,9 [742899A5] [3AE8E788] CRC32
11 99,9 [0EB4982F] [BEC2587C] CRC32

Thanks to DrStandBy

See also:
Jan Skovgaard Petersen - Peaceful Morning (2004)