Tags
Language
Tags

Jan Skovgaard Petersen - Peaceful Morning (2004)

Posted By: gribovar
Jan Skovgaard Petersen - Peaceful Morning (2004)

Jan Skovgaard Petersen - Peaceful Morning (2004)
EAC Rip | FLAC (tracks+.cue+log) - 302 MB | MP3 CBR 320 kbps (LAME 3.93) - 134 MB | Covers - 61 MB
Genre: New Age | RAR 3% Rec. | Label: Fønix Musik (FMF CD 1243)

A good day starts off with a good morning. Here is the music, which helps you get up on the right side of the bed: Beautiful, harmonious music inspired by nature. Imagine waking up every morning in a house by the ocean. The soothing sound of the waves and their eternal pulse in the background are reminiscent of things eternal in your existence. The night's gossamer of dreams retreats with a couple of deep breaths, and time has come to tackle the day's new challenges.
Tracklist:
01. Healing Waves
02. Breath of the Wind
03. Quiet Beauty
04. Beyond the Clouds
05. Romantic Dreams
06. Deep Blue Dancing
07. Peaceful Morning
08. Cool Water
09. Morning Dew
10. Deep Water

Total time: 56:47

Exact Audio Copy V1.3 from 2. September 2016

EAC extraction logfile from 11. March 2018, 16:00

Jan Skovgaard Petersen / Peaceful Morning

Used drive : ASUS DRW-24F1ST a Adapter: 1 ID: 0

Read mode : Secure
Utilize accurate stream : Yes
Defeat audio cache : Yes
Make use of C2 pointers : No

Read offset correction : 6
Overread into Lead-In and Lead-Out : No
Fill up missing offset samples with silence : Yes
Delete leading and trailing silent blocks : No
Null samples used in CRC calculations : Yes
Used interface : Native Win32 interface for Win NT & 2000
Gap handling : Appended to previous track

Used output format : User Defined Encoder
Selected bitrate : 896 kBit/s
Quality : High
Add ID3 tag : No
Command line compressor : C:\Program Files (x86)\Exact Audio Copy\Flac\flac.exe
Additional command line options : -8 -V -T "COMMENT=ripped by DrStandBy special for new-team.org" -T "ARTIST=%artist%" -T "TITLE=%title%" -T "ALBUM=%albumtitle%" -T "DATE=%year%" -T "TRACKNUMBER=%tracknr%" -T "GENRE=%genre%" %source%


TOC of the extracted CD

Track | Start | Length | Start sector | End sector
––––––––––––––––––––––––––––-
1 | 0:00.00 | 6:10.55 | 0 | 27804
2 | 6:10.55 | 5:53.28 | 27805 | 54307
3 | 12:04.08 | 3:49.33 | 54308 | 71515
4 | 15:53.41 | 6:05.28 | 71516 | 98918
5 | 21:58.69 | 5:49.67 | 98919 | 125160
6 | 27:48.61 | 6:29.49 | 125161 | 154384
7 | 34:18.35 | 4:10.01 | 154385 | 173135
8 | 38:28.36 | 6:48.49 | 173136 | 203784
9 | 45:17.10 | 5:16.21 | 203785 | 227505
10 | 50:33.31 | 6:13.31 | 227506 | 255511


Track 1

Filename I:\2004 - Jan Skovgaard Petersen - Peaceful Morning (FMF CD 1243)\01. Jan Skovgaard Petersen - Healing Waves.wav

Pre-gap length 0:00:02.00

Peak level 97.9 %
Extraction speed 1.9 X
Track quality 100.0 %
Test CRC 77612C61
Copy CRC 77612C61
Track not present in AccurateRip database
Copy OK

Track 2

Filename I:\2004 - Jan Skovgaard Petersen - Peaceful Morning (FMF CD 1243)\02. Jan Skovgaard Petersen - Breath of the Wind.wav

Pre-gap length 0:00:04.00

Peak level 80.7 %
Extraction speed 2.2 X
Track quality 100.0 %
Test CRC 4A8C6564
Copy CRC 4A8C6564
Track not present in AccurateRip database
Copy OK

Track 3

Filename I:\2004 - Jan Skovgaard Petersen - Peaceful Morning (FMF CD 1243)\03. Jan Skovgaard Petersen - Quiet Beauty.wav

Pre-gap length 0:00:04.00

Peak level 100.0 %
Extraction speed 2.2 X
Track quality 100.0 %
Test CRC 3D4DAB09
Copy CRC 3D4DAB09
Track not present in AccurateRip database
Copy OK

Track 4

Filename I:\2004 - Jan Skovgaard Petersen - Peaceful Morning (FMF CD 1243)\04. Jan Skovgaard Petersen - Beyond the Clouds.wav

Pre-gap length 0:00:04.00

Peak level 100.0 %
Extraction speed 2.6 X
Track quality 100.0 %
Test CRC AC3EA937
Copy CRC AC3EA937
Track not present in AccurateRip database
Copy OK

Track 5

Filename I:\2004 - Jan Skovgaard Petersen - Peaceful Morning (FMF CD 1243)\05. Jan Skovgaard Petersen - Romantic Dreams.wav

Pre-gap length 0:00:04.00

Peak level 91.0 %
Extraction speed 2.4 X
Track quality 99.9 %
Test CRC CC01B455
Copy CRC CC01B455
Track not present in AccurateRip database
Copy OK

Track 6

Filename I:\2004 - Jan Skovgaard Petersen - Peaceful Morning (FMF CD 1243)\06. Jan Skovgaard Petersen - Deep Blue Dancing.wav

Pre-gap length 0:00:04.00

Peak level 70.9 %
Extraction speed 3.0 X
Track quality 100.0 %
Test CRC 59AFC96F
Copy CRC 59AFC96F
Track not present in AccurateRip database
Copy OK

Track 7

Filename I:\2004 - Jan Skovgaard Petersen - Peaceful Morning (FMF CD 1243)\07. Jan Skovgaard Petersen - Peaceful Morning.wav

Pre-gap length 0:00:04.00

Peak level 93.5 %
Extraction speed 2.4 X
Track quality 99.9 %
Test CRC AD0A94CC
Copy CRC AD0A94CC
Track not present in AccurateRip database
Copy OK

Track 8

Filename I:\2004 - Jan Skovgaard Petersen - Peaceful Morning (FMF CD 1243)\08. Jan Skovgaard Petersen - Cool Water.wav

Pre-gap length 0:00:04.00

Peak level 71.3 %
Extraction speed 2.8 X
Track quality 99.9 %
Test CRC 4975F846
Copy CRC 4975F846
Track not present in AccurateRip database
Copy OK

Track 9

Filename I:\2004 - Jan Skovgaard Petersen - Peaceful Morning (FMF CD 1243)\09. Jan Skovgaard Petersen - Morning Dew.wav

Pre-gap length 0:00:04.00

Peak level 100.0 %
Extraction speed 3.4 X
Track quality 100.0 %
Test CRC 5F402949
Copy CRC 5F402949
Track not present in AccurateRip database
Copy OK

Track 10

Filename I:\2004 - Jan Skovgaard Petersen - Peaceful Morning (FMF CD 1243)\10. Jan Skovgaard Petersen - Deep Water.wav

Pre-gap length 0:00:04.00

Peak level 71.5 %
Extraction speed 3.6 X
Track quality 100.0 %
Test CRC A7DD74BF
Copy CRC A7DD74BF
Track not present in AccurateRip database
Copy OK


None of the tracks are present in the AccurateRip database

No errors occurred

End of status report

–– CUETools DB Plugin V2.1.6

[CTDB TOCID: IHKXnqeUqf6VYwH5GnDObgrAeiE-] found
Submit result: IHKXnqeUqf6VYwH5GnDObgrAeiE- has been confirmed
Track | CTDB Status
1 | (1/1) Accurately ripped
2 | (1/1) Accurately ripped
3 | (1/1) Accurately ripped
4 | (1/1) Accurately ripped
5 | (1/1) Accurately ripped
6 | (1/1) Accurately ripped
7 | (1/1) Accurately ripped
8 | (1/1) Accurately ripped
9 | (1/1) Accurately ripped
10 | (1/1) Accurately ripped


==== Log checksum 3D05700BC1A374F26F5A15F49F96B50F58975ED1A5423F1921143D3222F966D8 ====

[CUETools log; Date: 06.07.2020 11:35:07; Version: 2.1.4]
[CTDB TOCID: IHKXnqeUqf6VYwH5GnDObgrAeiE-] found.
Track | CTDB Status
1 | (2/2) Accurately ripped
2 | (2/2) Accurately ripped
3 | (2/2) Accurately ripped
4 | (2/2) Accurately ripped
5 | (2/2) Accurately ripped
6 | (2/2) Accurately ripped
7 | (2/2) Accurately ripped
8 | (2/2) Accurately ripped
9 | (2/2) Accurately ripped
10 | (2/2) Accurately ripped
[AccurateRip ID: 00153da1-00a9ead4-700d4e0a] found.
Track [ CRC | V2 ] Status
01 [65605d64|43c0473c] (0+1/1) Accurately ripped
02 [c9bbdac1|2d7d1444] (0+1/1) Accurately ripped
03 [8736dc5a|291b6eb6] (0+1/1) Accurately ripped
04 [0f439a4f|5b5d27aa] (0+1/1) Accurately ripped
05 [4b19c78a|0b2d20d3] (0+1/1) Accurately ripped
06 [b1ddf4f5|9f73e0e1] (0+1/1) Accurately ripped
07 [2d5e8bb4|314e2662] (0+1/1) Accurately ripped
08 [90923db2|46283fd8] (0+1/1) Accurately ripped
09 [69d63173|9a79f16c] (0+1/1) Accurately ripped
10 [ec0b96bd|381adf67] (0+1/1) Accurately ripped

Track Peak [ CRC32 ] [W/O NULL] [ LOG ]
– 100,0 [A51653C3] [F446F91D]
01 97,9 [77612C61] [70D79C55] CRC32
02 80,7 [4A8C6564] [3AD5B1A5] CRC32
03 100,0 [3D4DAB09] [88064007] CRC32
04 100,0 [AC3EA937] [BDA7164A] CRC32
05 91,0 [CC01B455] [63CE3E5A] CRC32
06 70,9 [59AFC96F] [43C6B5DA] CRC32
07 93,5 [AD0A94CC] [BC892F9F] CRC32
08 71,3 [4975F846] [86B18068] CRC32
09 100,0 [5F402949] [F2EA8024] CRC32
10 71,5 [A7DD74BF] [8163CCC0] CRC32

Thanks to DrStandBy