Tags
Language
Tags

Jan Skovgaard Petersen - Touched by Nature (2010)

Posted By: gribovar
Jan Skovgaard Petersen - Touched by Nature (2010)

Jan Skovgaard Petersen - Touched by Nature (2010)
EAC Rip | FLAC (tracks+.cue+log) - 205 MB | MP3 CBR 320 kbps (LAME 3.93) - 104 MB | Covers - 7 MB
Genre: New Age | RAR 3% Rec. | Label: Fønix Musik (FMF CD 1367)

Beautiful music inspired by nature and the peace we all can expirience by taking a walk and listen to the birds singing, the calming sounds of ocean waves. Nature means a lot to Jan Skovgaard Petersen. Whenever important decisions have to be taken, he usually taks a walk by the ocean to create a break where thoughts can calm down. The music on this album expesses his gratitude and inner joy to have this sanctuary.
Tracklist:
01. La Bella Luna
02. Reflections
03. Between The Hills
04. Sun over the Forest
05. When the Sun Shines
06. For the Birds
07. Waltz of Joy
08. Echoes from the Beach
09. Nathalie's Song
10. Home of Poseidon

Total time: 44:18

Exact Audio Copy V1.5 from 20. February 2020

EAC extraction logfile from 19. October 2021, 22:21

Jan Skovgaard Petersen / Touched by Nature

Used drive : ASUS SBC-06D1S-U Adapter: 1 ID: 0

Read mode : Secure
Utilize accurate stream : Yes
Defeat audio cache : Yes
Make use of C2 pointers : No

Read offset correction : 102
Overread into Lead-In and Lead-Out : No
Fill up missing offset samples with silence : Yes
Delete leading and trailing silent blocks : No
Null samples used in CRC calculations : Yes
Used interface : Native Win32 interface for Win NT & 2000
Gap handling : Appended to previous track

Used output format : User Defined Encoder
Selected bitrate : 896 kBit/s
Quality : High
Add ID3 tag : No
Command line compressor : C:\Program Files (x86)\Exact Audio Copy\Flac\flac.exe
Additional command line options : -8 -V -T "ARTIST=%artist%" -T "TITLE=%title%" -T "ALBUM=%albumtitle%" -T "DATE=%year%" -T "TRACKNUMBER=%tracknr%" -T "GENRE=%genre%" -T "COMMENT=ripped for Proper" %source%


TOC of the extracted CD

Track | Start | Length | Start sector | End sector
––––––––––––––––––––––––––––-
1 | 0:00.00 | 4:22.02 | 0 | 19651
2 | 4:22.02 | 4:35.73 | 19652 | 40349
3 | 8:58.00 | 3:51.74 | 40350 | 57748
4 | 12:49.74 | 5:41.57 | 57749 | 83380
5 | 18:31.56 | 4:30.16 | 83381 | 103646
6 | 23:01.72 | 4:31.66 | 103647 | 124037
7 | 27:33.63 | 4:11.38 | 124038 | 142900
8 | 31:45.26 | 5:17.02 | 142901 | 166677
9 | 37:02.28 | 3:17.05 | 166678 | 181457
10 | 40:19.33 | 3:59.12 | 181458 | 199394


Track 1

Filename C:\Music\2010 - Jan Skovgaard Petersen - Touched by Nature (FMFCD1367)\01. Jan Skovgaard Petersen - La Bella Luna.wav

Pre-gap length 0:00:02.00

Peak level 32.8 %
Extraction speed 0.7 X
Track quality 99.8 %
Test CRC E3BE5E4D
Copy CRC E3BE5E4D
Track not present in AccurateRip database
Copy OK

Track 2

Filename C:\Music\2010 - Jan Skovgaard Petersen - Touched by Nature (FMFCD1367)\02. Jan Skovgaard Petersen - Reflections.wav

Peak level 38.3 %
Extraction speed 1.5 X
Track quality 100.0 %
Test CRC 58BCFEC9
Copy CRC 58BCFEC9
Track not present in AccurateRip database
Copy OK

Track 3

Filename C:\Music\2010 - Jan Skovgaard Petersen - Touched by Nature (FMFCD1367)\03. Jan Skovgaard Petersen - Between The Hills.wav

Peak level 28.8 %
Extraction speed 1.5 X
Track quality 100.0 %
Test CRC A464959A
Copy CRC A464959A
Track not present in AccurateRip database
Copy OK

Track 4

Filename C:\Music\2010 - Jan Skovgaard Petersen - Touched by Nature (FMFCD1367)\04. Jan Skovgaard Petersen - Sun over the Forest.wav

Peak level 43.2 %
Extraction speed 1.8 X
Track quality 100.0 %
Test CRC 6C40C59E
Copy CRC 6C40C59E
Track not present in AccurateRip database
Copy OK

Track 5

Filename C:\Music\2010 - Jan Skovgaard Petersen - Touched by Nature (FMFCD1367)\05. Jan Skovgaard Petersen - When the Sun shines.wav

Peak level 24.5 %
Extraction speed 1.6 X
Track quality 99.9 %
Test CRC 15D46B6F
Copy CRC 15D46B6F
Track not present in AccurateRip database
Copy OK

Track 6

Filename C:\Music\2010 - Jan Skovgaard Petersen - Touched by Nature (FMFCD1367)\06. Jan Skovgaard Petersen - For the Birds.wav

Peak level 31.8 %
Extraction speed 1.7 X
Track quality 99.9 %
Test CRC 33DFD54E
Copy CRC 33DFD54E
Track not present in AccurateRip database
Copy OK

Track 7

Filename C:\Music\2010 - Jan Skovgaard Petersen - Touched by Nature (FMFCD1367)\07. Jan Skovgaard Petersen - Waltz of Joy.wav

Peak level 22.3 %
Extraction speed 2.0 X
Track quality 100.0 %
Test CRC 93B6DF37
Copy CRC 93B6DF37
Track not present in AccurateRip database
Copy OK

Track 8

Filename C:\Music\2010 - Jan Skovgaard Petersen - Touched by Nature (FMFCD1367)\08. Jan Skovgaard Petersen - Echoes from the Beach.wav

Peak level 36.1 %
Extraction speed 1.9 X
Track quality 99.9 %
Test CRC 6C7E6F4F
Copy CRC 6C7E6F4F
Track not present in AccurateRip database
Copy OK

Track 9

Filename C:\Music\2010 - Jan Skovgaard Petersen - Touched by Nature (FMFCD1367)\09. Jan Skovgaard Petersen - Nathalie's Song.wav

Peak level 28.4 %
Extraction speed 2.1 X
Track quality 100.0 %
Test CRC 8F5F59FA
Copy CRC 8F5F59FA
Track not present in AccurateRip database
Copy OK

Track 10

Filename C:\Music\2010 - Jan Skovgaard Petersen - Touched by Nature (FMFCD1367)\10. Jan Skovgaard Petersen - Home of Poseidon.wav

Peak level 38.1 %
Extraction speed 2.2 X
Track quality 100.0 %
Test CRC 94F5F83B
Copy CRC 94F5F83B
Track not present in AccurateRip database
Copy OK


None of the tracks are present in the AccurateRip database

No errors occurred

End of status report

–– CUETools DB Plugin V2.1.6

[CTDB TOCID: 6Ur1kcY6s_kryHmKXuf0cStbo0s-] found
Submit result: 6Ur1kcY6s_kryHmKXuf0cStbo0s- has been confirmed
Track | CTDB Status
1 | (2/3) Accurately ripped
2 | (2/3) Accurately ripped
3 | (2/3) Accurately ripped
4 | (2/3) Accurately ripped
5 | (2/3) Accurately ripped
6 | (2/3) Accurately ripped
7 | (2/3) Accurately ripped
8 | (2/3) Accurately ripped
9 | (2/3) Accurately ripped
10 | (2/3) Accurately ripped


==== Log checksum 5D3E09C0FCBED84C55CE1935CE7DBBADDC6F16CA262D36C28D8D704CF333A8AB ====

[CUETools log; Date: 25.11.2021 15:30:28; Version: 2.1.4]
[CTDB TOCID: 6Ur1kcY6s_kryHmKXuf0cStbo0s-] found.
Track | CTDB Status
1 | (3/4) Accurately ripped
2 | (3/4) Accurately ripped
3 | (3/4) Accurately ripped
4 | (3/4) Accurately ripped
5 | (3/4) Accurately ripped
6 | (3/4) Accurately ripped
7 | (3/4) Accurately ripped
8 | (3/4) Accurately ripped
9 | (3/4) Accurately ripped
10 | (3/4) Accurately ripped
[AccurateRip ID: 00111411-00888f87-700a620a] disk not present in database.

Track Peak [ CRC32 ] [W/O NULL] [ LOG ]
– 43,2 [C639BCCF] [B04707DE]
01 32,8 [E3BE5E4D] [7D1F1277] CRC32
02 38,3 [58BCFEC9] [06E42808] CRC32
03 28,8 [A464959A] [C560260F] CRC32
04 43,2 [6C40C59E] [0F84DBAD] CRC32
05 24,5 [15D46B6F] [DF319DCE] CRC32
06 31,8 [33DFD54E] [C9A5EFEF] CRC32
07 22,3 [93B6DF37] [71FE97EB] CRC32
08 36,1 [6C7E6F4F] [4DAEA76D] CRC32
09 28,4 [8F5F59FA] [328D5403] CRC32
10 38,1 [94F5F83B] [212ACC4F] CRC32

Thanks to DrStandBy

See also:
Jan Skovgaard Petersen - Natural Harmonies (2003)
Jan Skovgaard Petersen - Peaceful Morning (2004)