Tags
Language
Tags

Jane Birkin - Lolita Go Home (1975) [2007, Japan]

Posted By: BlondStyle
Jane Birkin - Lolita Go Home (1975) [2007, Japan]

Jane Birkin - Lolita Go Home (1975) [2007, Japan]
Pop/Rock, Chanson, French Pop | EAC Rip | FLAC, Tracks+CUE+LOG+Scans (JPEG) | 32:41 | 197,22 Mb
Label: Fontana/Mercury/USM Japan (Japan) | Cat.# UICY-6753 | Released: 2007-09-27 (1975)

"Lolita Go Home" is an album by Jane Birkin, released in 1975. About half of the songs were written by Serge Gainsbourg (music) and Philippe Labro (words). The other half are old musical tunes.
Jane Birkin - Lolita Go Home (1975) [2007, Japan]

Jane Birkin - Lolita Go Home (1975) [2007, Japan]




Release of the album: 1975 [LP Fontana, Cat.# 6325 342, France]
Release of this CD: 2007, September, 27 [CD USM Japan (Japan), Cat.# UICY-6753 / EAN: 4988005463418]
℗ 1975 © 1999 Universal Music France. 2007 USM Japan, a division of Universal Music K.K. A Universal Music Company.
This CD is part of the "Suburbia Favourite Shop" collection.
Marketed and distributed by Universal Music K.K.
Made in Japan

Credits:

Arranged By, Conductor [Orchestra] – J.P. Sabar
Engineer [Assistant] – S. Sahakian
Engineer [Prise De Son] – J.-C. Charvier
Photography By – Francis Giacobetti
Producer – Philippe Lerichomme


Tracklist:

01. Lolita Go Home (03:08)
(Serge Gainsbourg, Philippe Labro)
02. What Is This Thing Called Love? (02:29)
(Cole Porter)
03. Bebe Song (02:42)
(Serge Gainsbourg, Philippe Labro)
04. Where Or When (03:20)
(Richard Rodgers, Lorenz Hart)
05. Si Ca Peut Te Consoler (03:04)
(Serge Gainsbourg, Philippe Labro)
06. Love For Sale (03:41)
(Cole Porter)
07. Just Me And You (02:45)
(Serge Gainsbourg, Philippe Labro)
08. La Fille Aux Claquettes (02:35)
(Serge Gainsbourg)
09. Rien Pour Rien (03:07)
(Serge Gainsbourg, Philippe Labro)
10. French Graffiti (02:44)
(Serge Gainsbourg, Philippe Labro)
11. There's A Small Hotel (03:05)
(Richard Rodgers, Lorenz Hart)

Exact Audio Copy V0.99 prebeta 4 from 23. January 2008

EAC extraction logfile from 3. August 2009, 4:35

Jane Birkin / Lolita Go Home

Used drive : MATSHITADVD-RAM UJ-860S Adapter: 0 ID: 0

Read mode : Secure
Utilize accurate stream : Yes
Defeat audio cache : Yes
Make use of C2 pointers : No

Read offset correction : 102
Overread into Lead-In and Lead-Out : No
Fill up missing offset samples with silence : Yes
Delete leading and trailing silent blocks : No
Null samples used in CRC calculations : Yes
Used interface : Installed external ASPI interface
Gap handling : Appended to previous track

Used output format : User Defined Encoder
Selected bitrate : 320 kBit/s
Quality : High
Add ID3 tag : No
Command line compressor : C:\Program Files\FLAC\flac.exe
Additional command line options : -8 -V -T "ARTIST=%a" -T"TITLE=%t" -T"ALBUM=%g" -T"DATE=%y" -T"TRACKNUMBER=%n" -T"GENRE=%m" -T"COMMENT=EAC FLAC -8" %s


TOC of the extracted CD

Track | Start | Length | Start sector | End sector
––––––––––––––––––––––––––––-
1 | 0:00.00 | 3:08.12 | 0 | 14111
2 | 3:08.12 | 2:28.43 | 14112 | 25254
3 | 5:36.55 | 2:41.40 | 25255 | 37369
4 | 8:18.20 | 3:20.35 | 37370 | 52404
5 | 11:38.55 | 3:04.02 | 52405 | 66206
6 | 14:42.57 | 3:41.33 | 66207 | 82814
7 | 18:24.15 | 2:45.10 | 82815 | 95199
8 | 21:09.25 | 2:34.72 | 95200 | 106821
9 | 23:44.22 | 3:06.55 | 106822 | 120826
10 | 26:51.02 | 2:44.15 | 120827 | 133141
11 | 29:35.17 | 3:05.15 | 133142 | 147031


Track 1

Filename C:\Users\123\Desktop\Мои документы\Musak\Jane Birkin\Lolita Go Home (1975)\01 - Lolita Go Home.wav

Pre-gap length 0:00:02.00

Peak level 99.9 %
Track quality 100.0 %
Test CRC CB239C91
Copy CRC CB239C91
Track not present in AccurateRip database
Copy OK

Track 2

Filename C:\Users\123\Desktop\Мои документы\Musak\Jane Birkin\Lolita Go Home (1975)\02 - What Is This Thing Called Love .wav

Peak level 99.9 %
Track quality 100.0 %
Test CRC 751BBAC5
Copy CRC 751BBAC5
Track not present in AccurateRip database
Copy OK

Track 3

Filename C:\Users\123\Desktop\Мои документы\Musak\Jane Birkin\Lolita Go Home (1975)\03 - Bebe Song.wav

Pre-gap length 0:00:01.04

Peak level 94.4 %
Track quality 100.0 %
Test CRC 3FBD1EC7
Copy CRC 3FBD1EC7
Track not present in AccurateRip database
Copy OK

Track 4

Filename C:\Users\123\Desktop\Мои документы\Musak\Jane Birkin\Lolita Go Home (1975)\04 - Where Or When.wav

Peak level 99.9 %
Track quality 100.0 %
Test CRC 0FF56CC8
Copy CRC 0FF56CC8
Track not present in AccurateRip database
Copy OK

Track 5

Filename C:\Users\123\Desktop\Мои документы\Musak\Jane Birkin\Lolita Go Home (1975)\05 - Si Ca Peut Te Consoler.wav

Pre-gap length 0:00:01.10

Peak level 89.0 %
Track quality 100.0 %
Test CRC D8593A2A
Copy CRC D8593A2A
Track not present in AccurateRip database
Copy OK

Track 6

Filename C:\Users\123\Desktop\Мои документы\Musak\Jane Birkin\Lolita Go Home (1975)\06 - Love For Sale.wav

Peak level 99.9 %
Track quality 100.0 %
Test CRC 342417F2
Copy CRC 342417F2
Track not present in AccurateRip database
Copy OK

Track 7

Filename C:\Users\123\Desktop\Мои документы\Musak\Jane Birkin\Lolita Go Home (1975)\07 - Just Me And You.wav

Pre-gap length 0:00:01.04

Peak level 99.9 %
Track quality 100.0 %
Test CRC DC2396BD
Copy CRC DC2396BD
Track not present in AccurateRip database
Copy OK

Track 8

Filename C:\Users\123\Desktop\Мои документы\Musak\Jane Birkin\Lolita Go Home (1975)\08 - La Fille Aux Claquettes.wav

Peak level 88.0 %
Track quality 100.0 %
Test CRC AD5F89FE
Copy CRC AD5F89FE
Track not present in AccurateRip database
Copy OK

Track 9

Filename C:\Users\123\Desktop\Мои документы\Musak\Jane Birkin\Lolita Go Home (1975)\09 - Rien Pour Rien.wav

Pre-gap length 0:00:01.06

Peak level 99.9 %
Track quality 100.0 %
Test CRC 3FD0AB97
Copy CRC 3FD0AB97
Track not present in AccurateRip database
Copy OK

Track 10

Filename C:\Users\123\Desktop\Мои документы\Musak\Jane Birkin\Lolita Go Home (1975)\10 - French Graffiti.wav

Peak level 99.9 %
Track quality 100.0 %
Test CRC 394F7F58
Copy CRC 394F7F58
Track not present in AccurateRip database
Copy OK

Track 11

Filename C:\Users\123\Desktop\Мои документы\Musak\Jane Birkin\Lolita Go Home (1975)\11 - There`s A Small Hotel.wav

Pre-gap length 0:00:01.13

Peak level 93.2 %
Track quality 100.0 %
Test CRC BDCCC612
Copy CRC BDCCC612
Track not present in AccurateRip database
Copy OK


None of the tracks are present in the AccurateRip database

No errors occurred

End of status report

––––––––––––––––––––––––––––––––––––––––
Analyzed: Jane Birkin / Lolita Go Home
––––––––––––––––––––––––––––––––––––––––

DR Peak RMS Duration Track
––––––––––––––––––––––––––––––––––––––––
DR13 0.00 dB -14.61 dB 3:08 01-Lolita Go Home
DR13 0.00 dB -15.39 dB 2:29 02-What Is This Thing Called Love?
DR12 -0.50 dB -14.87 dB 2:42 03-Bebe Song
DR14 0.00 dB -16.79 dB 3:20 04-Where Or When
DR12 -1.01 dB -15.08 dB 3:04 05-Si Ca Peut Te Consoler
DR12 0.00 dB -14.99 dB 3:41 06-Love For Sale
DR14 0.00 dB -16.12 dB 2:45 07-Just Me And You
DR14 -1.10 dB -17.72 dB 2:35 08-La Fille Aux Claquettes
DR14 0.00 dB -16.17 dB 3:07 09-Rien Pour Rien
DR13 0.00 dB -15.43 dB 2:44 10-French Graffiti
DR13 -0.60 dB -15.56 dB 3:05 11-There`s A Small Hotel
––––––––––––––––––––––––––––––––––––––––

Number of tracks: 11
Official DR value: DR13

Samplerate: 44100 Hz
Channels: 2
Bits per sample: 16
Bitrate: 809 kbps
Codec: FLAC
================================================================================

All thanks to desordenado

♫~Welcome To My Blog~♫

password: BlondStyle