Subcategories

Janet - The Best (2CD) - 2009

Posted By: popsakov
Janet - The Best (2CD) - 2009

Janet - The Best (2CD) - 2009
EAC | FLAC, IMG+CUE, LOG | Covers | 613 MB + 569 MB | 3% Recovery
Genre: R&B, pop | Label: A&M Records | Catalog#: 0602527254326

The Best (international version, US version - Number Ones) is the second greatest hits compilation by American recording artist Janet Jackson, released on November 17, 2009 by Universal Music Enterprises (UMe). The double-disc album is composed of 33 of her number one hit singles spanning various music charts across North America, Europe, Australia, New Zealand, Japan and South Africa. Number Ones collects singles from her third studio album Control (1986) to her tenth studio album Discipline (2008), and was made possible as a joint venture between UMe and EMI Music.
Track List:

CD1

01. What Have You Done For Me Lately
02. Nasty
03. When I Think Of You
04. Control
05. Let's Wait Awhile
06. The Pleasure Principle
07. Diamonds
08. Miss You Much
09. Rhythm Nation
10. Escapade
11. Alright
12. Come Back To Me
13. Black Cat
14. Love Will Never Do
15. The Best Things In Life Are Free
16. That's The Way Love Goes
17. When I Think Of You


Exact Audio Copy V0.99 prebeta 5 from 4. May 2009

EAC uitlezen log bestand van 28. November 2009, 16:52

Janet Jackson / The Best CD1

gebruikt loopwerk : TSSTcorpCDDVDW SH-S223L Adapter: 1 ID: 1

Lees mode : Veilig
Gebruik accurate stream : Ja
Audio buffer uitgeschakeld : Neen
Gebruik C2 Foutinformatie : Ja

Lees-offset correctie : 6
Overlees in Lead-In en Lead-Out : Neen
Vul ontbrekende offset samples met stiltes aan : Ja
Wis stilte blokken aan het begin en einde : Neen
Nul samples gebruikt in CRC berekeningen : Ja
Gebruik interface : Native Win32 interface voor Win NT/2000/XP

Gebruik uitgave formaat : Interne WAV Routines
Sample formaat : 44.100 Hz; 16 Bit; Stereo


TOC van de uitgelezen CD

Track | Start | Lengte | Startsector | Eindsector
––––––––––––––––––––––––––––
1 | 0:00.00 | 4:43.10 | 0 | 21234
2 | 4:43.10 | 4:03.56 | 21235 | 39515
3 | 8:46.66 | 3:55.04 | 39516 | 57144
4 | 12:41.70 | 5:54.05 | 57145 | 83699
5 | 18:36.00 | 4:37.09 | 83700 | 104483
6 | 23:13.09 | 4:14.00 | 104484 | 123533
7 | 27:27.09 | 4:53.13 | 123534 | 145521
8 | 32:20.22 | 4:12.38 | 145522 | 164459
9 | 36:32.60 | 5:29.62 | 164460 | 189196
10 | 42:02.47 | 4:45.26 | 189197 | 210597
11 | 46:47.73 | 4:58.60 | 210598 | 233007
12 | 51:46.58 | 5:35.54 | 233008 | 258186
13 | 57:22.37 | 4:31.42 | 258187 | 278553
14 | 61:54.04 | 4:34.67 | 278554 | 299170
15 | 66:28.71 | 4:36.43 | 299171 | 319913
16 | 71:05.39 | 4:26.44 | 319914 | 339907
17 | 75:32.08 | 3:28.66 | 339908 | 355573


Bereikstatus en fouten

Geselecteerd bereik

Bestandsnaam C:\Post\Janet Jackson - The Best (EAC)\Disc1\Janet Jackson - The Best CD1.wav

Piek niveau 100.0 %
Bereikskwaliteit 100.0 %
Kopie CRC BD21A687
Kopie OK

Geen fouten opgetreden

Einde van het status rapport


CD2

01. If
02. Again
03. Because Of Love
04. Any Time, Any Place
05. Scream
06. Runaway
07. Got 'Til It's Gone
08. Together Again
09. I Get Lonely
10. Go Deep 4:42
11. What's It Gonna Be ?!
12. Doesn't Really Matter
13. All For You
14. Someone To Call My Lover
15. Call On Me
16. Feedback
17. Whoops Now
18. Make Me


Exact Audio Copy V0.99 prebeta 5 from 4. May 2009

EAC uitlezen log bestand van 28. November 2009, 17:01

Janet Jackson / The Best CD2

gebruikt loopwerk : TSSTcorpCDDVDW SH-S223L Adapter: 1 ID: 1

Lees mode : Veilig
Gebruik accurate stream : Ja
Audio buffer uitgeschakeld : Neen
Gebruik C2 Foutinformatie : Ja

Lees-offset correctie : 6
Overlees in Lead-In en Lead-Out : Neen
Vul ontbrekende offset samples met stiltes aan : Ja
Wis stilte blokken aan het begin en einde : Neen
Nul samples gebruikt in CRC berekeningen : Ja
Gebruik interface : Native Win32 interface voor Win NT/2000/XP

Gebruik uitgave formaat : Interne WAV Routines
Sample formaat : 44.100 Hz; 16 Bit; Stereo


TOC van de uitgelezen CD

Track | Start | Lengte | Startsector | Eindsector
––––––––––––––––––––––––––––
1 | 0:00.00 | 4:32.11 | 0 | 20410
2 | 4:32.11 | 3:47.50 | 20411 | 37485
3 | 8:19.61 | 4:17.52 | 37486 | 56812
4 | 12:37.38 | 5:11.56 | 56813 | 80193
5 | 17:49.19 | 4:01.65 | 80194 | 98333
6 | 21:51.09 | 3:34.41 | 98334 | 114424
7 | 25:25.50 | 3:36.04 | 114425 | 130628
8 | 29:01.54 | 4:07.12 | 130629 | 149165
9 | 33:08.66 | 4:01.37 | 149166 | 167277
10 | 37:10.28 | 4:43.01 | 167278 | 188503
11 | 41:53.29 | 4:02.68 | 188504 | 206721
12 | 45:56.22 | 4:56.25 | 206722 | 228946
13 | 50:52.47 | 4:31.73 | 228947 | 249344
14 | 55:24.45 | 4:14.52 | 249345 | 268446
15 | 59:39.22 | 3:35.11 | 268447 | 284582
16 | 63:14.33 | 3:55.60 | 284583 | 302267
17 | 67:10.18 | 4:07.28 | 302268 | 320820
18 | 71:17.46 | 3:38.31 | 320821 | 337201


Bereikstatus en fouten

Geselecteerd bereik

Bestandsnaam C:\Post\Janet Jackson - The Best (EAC)\Disc2\Janet Jackson - The Best CD2.wav

Piek niveau 100.0 %
Bereikskwaliteit 99.9 %
Kopie CRC 136E1F80
Kopie OK

Geen fouten opgetreden

Einde van het status rapport

Janet - The Best (2CD) - 2009

Janet - The Best (2CD) - 2009

Janet - The Best (2CD) - 2009