Subcategories

Janis Joplin – The Classic LP Collection (2011) [Vinyl Rip 16/44 & mp3-320]

Posted By: v3122
Janis Joplin – The Classic LP Collection (2011) [Vinyl Rip 16/44 & mp3-320]

Janis Joplin – The Classic LP Collection (2011)
4 x Vinyl Rip 16/44 | Flac(Image + Cue) > 799 Mb
MP3 CBR 320Kbps > 326 Mb | Artwork(jpg) > 29 Mb
2011 | Columbia Records | Box Set
Psychedelic Rock / Blues Rock / Classic Rock

Sony Legacy re-released four classic Janis Joplin LPs originally on Columbia – Big Brother & the Holding Company, Cheap Thrills, I Got Dem Ol' Kozmic Blues Again Mama!, and Pearl – as a four-disc set available on 180-gram vinyl. The cover art was re-created from the original LP jackets.

by Al Campbell, allmusic
Janis Joplin – The Classic LP Collection (2011):

Janis Joplin – The Classic LP Collection (2011) [Vinyl Rip 16/44 & mp3-320]

Tracklist VNL01 - Big Brother & The Holding Company 1967:

Side One:
1. Bye, Bye Baby
2. Easy Rider
3. Intruder
4. Light Is Faster Than Sound
5. Call On Me
6. Coo Coo

Side Two:
1. Women Is Losers
2. Blindman
3. Down On Me
4. Caterpillar
5. All Is Loneliness
6. The Last Time

foobar2000 1.2.9 / Dynamic Range Meter 1.1.1
log date: 2017-12-18 01:40:10

––––––––––––––––––––––––––––––––––––––––
Analyzed: Janis Joplin / Big Brother And The Holding Company
––––––––––––––––––––––––––––––––––––––––

DR Peak RMS Duration Track
––––––––––––––––––––––––––––––––––––––––
DR12 -0.85 dB -16.54 dB 2:36 01-Bye, Bye Baby
DR13 -1.15 dB -16.86 dB 2:23 02-Easy Rider
DR12 -1.30 dB -15.56 dB 2:26 03-Intruder
DR12 -0.04 dB -15.35 dB 2:30 04-Light Is Faster Than Sound
DR12 -0.33 dB -14.73 dB 2:32 05-Call On Me
DR11 -0.02 dB -13.93 dB 1:56 06-Coo Coo
DR11 -0.68 dB -13.79 dB 2:02 07-Women Is Losers
DR12 -0.98 dB -14.55 dB 2:21 08-Blindman
DR12 -0.06 dB -14.95 dB 2:04 09-Down On Me
DR12 -0.42 dB -14.91 dB 2:17 10-Caterpillar
DR11 -0.80 dB -15.63 dB 2:29 11-All Is Loneliness
DR12 -0.07 dB -14.57 dB 2:14 12-The Last Time
––––––––––––––––––––––––––––––––––––––––

Number of tracks: 12
Official DR value: DR12

Samplerate: 44100 Hz
Channels: 2
Bits per sample: 16
Bitrate: 843 kbps
Codec: FLAC
================================================================================



Janis Joplin – The Classic LP Collection (2011) [Vinyl Rip 16/44 & mp3-320]

Tracklist VNL02 - Cheap Thrills 1968:

Side One:
1. Combination Of The Two
2. I Need A Man To Love
3. Summertime
4. Piece Of My Heart

Side Two:
1. Turtle Blues
2. Oh, Sweet Mary
3. Ball And Chain

foobar2000 1.2.9 / Dynamic Range Meter 1.1.1
log date: 2017-12-18 01:40:23

––––––––––––––––––––––––––––––––––––––––
Analyzed: Janis Joplin / Cheap Thrills
––––––––––––––––––––––––––––––––––––––––

DR Peak RMS Duration Track
––––––––––––––––––––––––––––––––––––––––
DR12 -0.46 dB -15.21 dB 5:48 01-Combination Of The Two
DR12 -1.58 dB -15.30 dB 4:51 02-I Need A Man To Love
DR11 -4.04 dB -18.63 dB 3:57 03-Summertime
DR12 -0.30 dB -14.84 dB 4:13 04-Piece Of My Heart
DR12 -1.76 dB -17.89 dB 4:19 05-Turtle Blues
DR10 -2.10 dB -14.83 dB 4:13 06-Oh, Sweet Mary
DR12 -0.63 dB -16.75 dB 9:26 07-Ball And Chain
––––––––––––––––––––––––––––––––––––––––

Number of tracks: 7
Official DR value: DR11

Samplerate: 44100 Hz
Channels: 2
Bits per sample: 16
Bitrate: 737 kbps
Codec: FLAC
================================================================================



Janis Joplin – The Classic LP Collection (2011) [Vinyl Rip 16/44 & mp3-320]

Tracklist VNL03 - I Got Dem Ol' Kozmic Blues Again Mama! 1969:

Side One:
1. Try (Just A Little Bit Harder)
2. Maybe
3. One Good Man
4. As Good As You've Been To This World

Side Two:
1. To Love Somebody
2. Kozmic Blues
3. Little Girl Blue
4. Work Me, Lord

foobar2000 1.2.9 / Dynamic Range Meter 1.1.1
log date: 2017-12-18 01:40:35

––––––––––––––––––––––––––––––––––––––––
Analyzed: Janis Joplin / I Got Dem Ol' Kozmic Blues Again Mama!
––––––––––––––––––––––––––––––––––––––––

DR Peak RMS Duration Track
––––––––––––––––––––––––––––––––––––––––
DR11 -1.56 dB -15.41 dB 3:54 01-Try (Just A Little Bit Harder)
DR13 -0.05 dB -16.73 dB 3:38 02-Maybe
DR13 -0.03 dB -15.33 dB 4:08 03-One Good Man
DR12 -1.66 dB -16.19 dB 5:24 04-As Good As You've Been To This World
DR12 -0.06 dB -15.36 dB 5:12 05-To Love Somebody
DR11 -0.07 dB -14.59 dB 4:21 06-Kozmic Blues
DR12 -1.87 dB -16.62 dB 3:47 07-Little Girl Blue
DR12 -0.75 dB -17.64 dB 6:35 08-Work Me, Lord
––––––––––––––––––––––––––––––––––––––––

Number of tracks: 8
Official DR value: DR12

Samplerate: 44100 Hz
Channels: 2
Bits per sample: 16
Bitrate: 785 kbps
Codec: FLAC
================================================================================



Janis Joplin – The Classic LP Collection (2011) [Vinyl Rip 16/44 & mp3-320]

Tracklist VNL04 - Pearl 1971:

Side One:
1. Move Over
2. Cry Baby
3. A Woman Left Lonely
4. Half Moon
5. Buried Alive In The Blues

Side Two:
1. My Baby
2. Me And Bobby McGee
3. Mercedes Benz
4. Trust Me
5. Get It While You Can

foobar2000 1.2.9 / Dynamic Range Meter 1.1.1
log date: 2017-12-18 01:40:48

––––––––––––––––––––––––––––––––––––––––
Analyzed: Janis Joplin / Pearl
––––––––––––––––––––––––––––––––––––––––

DR Peak RMS Duration Track
––––––––––––––––––––––––––––––––––––––––
DR12 -0.07 dB -14.04 dB 3:39 01-Move Over
DR12 -0.06 dB -15.22 dB 3:55 02-Cry Baby
DR11 -1.29 dB -16.33 dB 3:27 03-A Woman Left Lonely
DR12 -0.22 dB -15.46 dB 3:50 04-Half Moon
DR12 -1.67 dB -15.76 dB 2:23 05-Buried Alive In The Blues
DR12 -0.05 dB -14.98 dB 3:42 06-My Baby
DR11 -1.25 dB -15.98 dB 4:28 07-Me & Bobby McGee
DR12 -4.67 dB -20.14 dB 1:45 08-Mercedes Benz
DR12 -0.77 dB -15.47 dB 3:14 09-Trust Me
DR12 -0.30 dB -15.06 dB 3:22 10-Get It While You Can
––––––––––––––––––––––––––––––––––––––––

Number of tracks: 10
Official DR value: DR12

Samplerate: 44100 Hz
Channels: 2
Bits per sample: 16
Bitrate: 792 kbps
Codec: FLAC
================================================================================




Original ripper: vinylhound
Original format: 24/96

"Technics SL-1200MK2 Turntable
Shure V15VxMR Cartridge
LP Gear SHVN5xMR Super Analogue Stylus
Sonic Bliss Audiophile Turntable Mat
Custom built, all tube phono stage
Creative 0404 USB @ 24 bit / 96khz
Adobe Audition 3.0 for recording software
JBL LSR series studio monitors / subwoofer for playback listening
iZotope RX Advanced 2.02 for any cleaning needed (all done manually)
Adobe Photoshop for scans
mp3tag 2.49 for file tagging
Easy CD-DA Extractor Ultimate 10 v2011.3 for converting files"

Downsampled to 16/44

Janis Joplin in my Blog

Download Janis Joplin – The Classic LP Collection (2011):