Janis Joplin - Janis Joplin's Greatest Hits (1973) {1999 Remastered Reissue}

Posted By: popsakov
Janis Joplin - Janis Joplin's Greatest Hits (1973) {1999 Remastered Reissue}

Janis Joplin - Janis Joplin's Greatest Hits (1973) {1999 Remastered Reissue}
EAC Rip | FLAC (Img) + Cue + Log ~ 302 Mb | MP3 CBR320 ~ 115 Mb
Scans (PNG, 400 dpi) ~ 76 Mb | RAR 5% Recovery
Blues Rock, Psychedelic Rock, Classic Rock | Columbia / Legacy #494146 2

Janis Joplin's Greatest Hits is a 1973 collection of hit songs by American singer-songwriter Janis Joplin, who died in 1970. It features live versions of Down On Me and Ball and Chain which were included on the In Concert album the previous year. This reissue includes two bonus tracks.
Janis Joplin - Janis Joplin's Greatest Hits (1973) {1999 Remastered Reissue}


***************

Janis Joplin - Janis Joplin's Greatest Hits (1973) {1999 Remastered Reissue}

Janis Joplin - Janis Joplin's Greatest Hits (1973) {1999 Remastered Reissue}

Track List:

01. Big Brother & The Holding Company / Piece of My Heart [0:04:15.57]
02. Big Brother & The Holding Company / Summertime [0:04:00.20]
03. Kozmic Blues Band / Try (Just a Little Bit Harder) [0:03:57.05]
04. Full Tilt Boogie Band / Cry Baby [0:03:58.05]
05. Full Tilt Boogie Band / Me and Bobby McGee [0:04:31.38]
06. Big Brother & The Holding Company / Down on Me (live) [0:03:08.50]
07. Full Tilt Boogie Band / Get It While You Can [0:03:25.07]
08. Big Brother & The Holding Company / Bye, Bye Baby [0:02:39.03]
09. Full Tilt Boogie Band / Move Over [0:03:41.62]
10. Full Tilt Boogie Band / Ball and Chain (live) [0:08:00.65]
11. Kozmic Blues Band / Maybe [0:03:40.08]
12. Full Tilt Boogie Band / Mercedes Benz (live) [0:01:45.72]

Exact Audio Copy V1.3 from 2. September 2016

EAC extraction logfile from 5. November 2016, 15:01

Janis Joplin / Janis Joplin's Greatest Hits

Used drive : HL-DT-STDVDRAM GH24NSC0 Adapter: 1 ID: 0

Read mode : Secure
Utilize accurate stream : Yes
Defeat audio cache : Yes
Make use of C2 pointers : No

Read offset correction : 6
Overread into Lead-In and Lead-Out : No
Fill up missing offset samples with silence : Yes
Delete leading and trailing silent blocks : No
Null samples used in CRC calculations : Yes
Used interface : Native Win32 interface for Win NT & 2000

Used output format : Internal WAV Routines
Sample format : 44.100 Hz; 16 Bit; Stereo


TOC of the extracted CD

Track | Start | Length | Start sector | End sector
––––––––––––––––––––––––––––-
1 | 0:00.00 | 4:15.57 | 0 | 19181
2 | 4:15.57 | 4:00.20 | 19182 | 37201
3 | 8:16.02 | 3:57.05 | 37202 | 54981
4 | 12:13.07 | 3:58.05 | 54982 | 72836
5 | 16:11.12 | 4:31.38 | 72837 | 93199
6 | 20:42.50 | 3:08.50 | 93200 | 107349
7 | 23:51.25 | 3:25.07 | 107350 | 122731
8 | 27:16.32 | 2:39.03 | 122732 | 134659
9 | 29:55.35 | 3:41.62 | 134660 | 151296
10 | 33:37.22 | 8:00.65 | 151297 | 187361
11 | 41:38.12 | 3:40.08 | 187362 | 203869
12 | 45:18.20 | 1:45.72 | 203870 | 211816


Range status and errors

Selected range

Filename C:\Music CD\Janis Joplin - Janis Joplin's Greatest Hits.wav

Peak level 100.0 %
Extraction speed 1.7 X
Range quality 100.0 %
Test CRC 11D0AC7E
Copy CRC 11D0AC7E
Copy OK

No errors occurred


AccurateRip summary

Track 1 cannot be verified as accurate (confidence 139) [34CD4C35], AccurateRip returned [35642B54] (AR v2)
Track 2 cannot be verified as accurate (confidence 142) [47EC6B5C], AccurateRip returned [86ABC0CF] (AR v2)
Track 3 cannot be verified as accurate (confidence 139) [E11F17A2], AccurateRip returned [4D18E75B] (AR v2)
Track 4 cannot be verified as accurate (confidence 140) [00494B2E], AccurateRip returned [6766ADE2] (AR v2)
Track 5 cannot be verified as accurate (confidence 141) [06F7EB6B], AccurateRip returned [DC096B4E] (AR v2)
Track 6 cannot be verified as accurate (confidence 138) [5DD9A7A1], AccurateRip returned [CB6C0CF0] (AR v2)
Track 7 cannot be verified as accurate (confidence 138) [5067F0A2], AccurateRip returned [22CA6C3D] (AR v2)
Track 8 cannot be verified as accurate (confidence 138) [377FA2D6], AccurateRip returned [74829229] (AR v2)
Track 9 cannot be verified as accurate (confidence 139) [72DAB575], AccurateRip returned [DEA37581] (AR v2)
Track 10 cannot be verified as accurate (confidence 137) [FF9AA9DD], AccurateRip returned [860EBA5C] (AR v2)
Track 11 cannot be verified as accurate (confidence 140) [9F9C66C4], AccurateRip returned [27CC515B] (AR v2)
Track 12 cannot be verified as accurate (confidence 139) [0A8005F5], AccurateRip returned [60AFC089] (AR v2)

No tracks could be verified as accurate
You may have a different pressing from the one(s) in the database

End of status report

–– CUETools DB Plugin V2.1.6

[CTDB TOCID: Qtj1ugydeUIi7QiI.h8u6_ehLPk-] found
Submit result: Qtj1ugydeUIi7QiI.h8u6_ehLPk- has been confirmed
Track | CTDB Status
1 | (503/696) Accurately ripped
2 | (500/696) Accurately ripped
3 | (502/696) Accurately ripped
4 | (503/696) Accurately ripped
5 | (503/696) Accurately ripped
6 | (501/696) Accurately ripped
7 | (502/696) Accurately ripped
8 | (503/696) Accurately ripped
9 | (502/696) Accurately ripped
10 | (500/696) Accurately ripped
11 | (503/696) Accurately ripped
12 | (503/696) Accurately ripped


==== Log checksum 3B125F441E5796E8559CF91451D40A61775970B0253BDEC5C1374451EEE14774 ====

foobar2000 1.2.6 / Dynamic Range Meter 1.1.1
log date: 2017-06-19 21:25:42

––––––––––––––––––––––––––––––––––––––––
Analyzed: Big Brother & The Holding Company / Janis Joplin's Greatest Hits
––––––––––––––––––––––––––––––––––––––––

DR Peak RMS Duration Track
––––––––––––––––––––––––––––––––––––––––
DR11 0.00 dB -13.06 dB 4:16 01-Piece of My Heart
DR10 -1.84 dB -16.45 dB 4:00 02-Summertime
DR11 0.00 dB -12.68 dB 3:09 06-Down on Me (live)
DR12 0.00 dB -14.16 dB 2:39 08-Bye, Bye Baby
––––––––––––––––––––––––––––––––––––––––

Number of tracks: 4
Official DR value: DR11

Samplerate: 44100 Hz
Channels: 2
Bits per sample: 16
Bitrate: 847 kbps
Codec: WavPack
================================================================================

––––––––––––––––––––––––––––––––––––––––
Analyzed: Full Tilt Boogie Band / Janis Joplin's Greatest Hits
––––––––––––––––––––––––––––––––––––––––

DR Peak RMS Duration Track
––––––––––––––––––––––––––––––––––––––––
DR11 0.00 dB -14.14 dB 3:58 04-Cry Baby
DR11 -0.01 dB -14.19 dB 4:32 05-Me and Bobby McGee
DR11 0.00 dB -13.41 dB 3:25 07-Get It While You Can
DR12 0.00 dB -13.60 dB 3:42 09-Move Over
DR11 0.00 dB -14.19 dB 8:01 10-Ball and Chain (live)
DR12 -2.99 dB -18.27 dB 1:46 12-Mercedes Benz (live)
––––––––––––––––––––––––––––––––––––––––

Number of tracks: 6
Official DR value: DR11

Samplerate: 44100 Hz
Channels: 2
Bits per sample: 16
Bitrate: 847 kbps
Codec: WavPack
================================================================================

––––––––––––––––––––––––––––––––––––––––
Analyzed: Kozmic Blues Band / Janis Joplin's Greatest Hits
––––––––––––––––––––––––––––––––––––––––

DR Peak RMS Duration Track
––––––––––––––––––––––––––––––––––––––––
DR10 0.00 dB -12.69 dB 3:57 03-Try (Just a Little Bit Harder)
DR11 0.00 dB -13.88 dB 3:40 11-Maybe
––––––––––––––––––––––––––––––––––––––––

Number of tracks: 2
Official DR value: DR11

Samplerate: 44100 Hz
Channels: 2
Bits per sample: 16
Bitrate: 847 kbps
Codec: WavPack
================================================================================

[CUETools log; Date: 19.06.2017 21:26:03; Version: 2.1.5]
[CTDB TOCID: Qtj1ugydeUIi7QiI.h8u6_ehLPk-] found.
Track | CTDB Status
1 | (637/887) Accurately ripped
2 | (634/887) Accurately ripped
3 | (636/887) Accurately ripped
4 | (637/887) Accurately ripped
5 | (637/887) Accurately ripped
6 | (635/887) Accurately ripped
7 | (636/887) Accurately ripped
8 | (637/887) Accurately ripped
9 | (636/887) Accurately ripped
10 | (634/887) Accurately ripped
11 | (637/887) Accurately ripped
12 | (637/887) Accurately ripped
[AccurateRip ID: 00154f0b-00c68e3f-a50b080c] found.
Track [ CRC | V2 ] Status
01 [c9bb7af5|34cd4c35] (000+000/842) No match
02 [a5b8d642|47ec6b5c] (000+000/847) No match
03 [45839792|e11f17a2] (000+000/848) No match
04 [ccd267ae|00494b2e] (000+000/840) No match
05 [00a5747f|06f7eb6b] (000+000/849) No match
06 [d3f38ca7|5dd9a7a1] (000+000/845) No match
07 [ac2f4a18|5067f0a2] (000+000/838) No match
08 [5d26caaa|377fa2d6] (000+000/839) No match
09 [bf66e6bc|72dab575] (000+000/838) No match
10 [c45504c8|ff9aa9dd] (000+000/824) No match
11 [1796cd49|9f9c66c4] (000+000/834) No match
12 [3d306e9a|0a8005f5] (000+000/830) No match
Offsetted by -614:
01 [efed6b9f] (002/842) Accurately ripped
02 [41850fac] (002/847) Accurately ripped
03 [db006250] (002/848) Accurately ripped
04 [5ba28b2c] (002/840) Accurately ripped
05 [af14d5f3] (002/849) Accurately ripped
06 [6238954b] (002/845) Accurately ripped
07 [45f7865a] (002/838) Accurately ripped
08 [9bf25db0] (002/839) Accurately ripped
09 [4a95c7f4] (002/838) Accurately ripped
10 [75aac138] (002/824) Accurately ripped
11 [a0f536ef] (002/834) Accurately ripped
12 [e1c9473d] (002/830) Accurately ripped
Offsetted by -584:
01 [fa91c16d] (006/842) Accurately ripped
02 [3d3e35ba] (006/847) Accurately ripped
03 [bed9c3fa] (006/848) Accurately ripped
04 [d5e86d16] (006/840) Accurately ripped
05 [06744aef] (006/849) Accurately ripped
06 [ab526557] (006/845) Accurately ripped
07 [65a531b0] (006/838) Accurately ripped
08 [2d4efc72] (006/839) Accurately ripped
09 [93d6335c] (006/838) Accurately ripped
10 [0c45d608] (006/824) Accurately ripped
11 [c81bf691] (006/834) Accurately ripped
12 [3b8c4b9a] (006/830) Accurately ripped
Offsetted by 50:
01 [db7809f7] (062/842) Accurately ripped
02 [f3ed6b04] (062/847) Accurately ripped
03 [c1433a58] (062/848) Accurately ripped
04 [4346e034] (061/840) Accurately ripped
05 [e799e223] (063/849) Accurately ripped
06 [4dc93cbb] (062/845) Accurately ripped
07 [8ba61252] (062/838) Accurately ripped
08 [a4c12898] (062/839) Accurately ripped
09 [397cef14] (061/838) Accurately ripped
10 [6a022778] (061/824) Accurately ripped
11 [ae2cb757] (061/834) Accurately ripped
12 [8c53c801] (061/830) Accurately ripped
Offsetted by 98:
01 [ec7ef9a7] (086/842) Accurately ripped
02 [b9e274b4] (086/847) Accurately ripped
03 [9438a368] (086/848) Accurately ripped
04 [06e9e344] (085/840) Accurately ripped
05 [7365d083] (087/849) Accurately ripped
06 [f5f2899b] (085/845) Accurately ripped
07 [24bbf142] (084/838) Accurately ripped
08 [26eef368] (085/839) Accurately ripped
09 [e1e40154] (085/838) Accurately ripped
10 [8e2d7bf8] (084/824) Accurately ripped
11 [ecd11d27] (084/834) Accurately ripped
12 [7c23d519] (085/830) Accurately ripped
Offsetted by 1251:
01 [858041d0] (005/842) Accurately ripped
02 [8cfb22bd] (006/847) Accurately ripped
03 [af9f99c3] (006/848) Accurately ripped
04 [b79ae77f] (006/840) Accurately ripped
05 [3c186925] (006/849) Accurately ripped
06 [22a7f035] (006/845) Accurately ripped
07 [21f94c67] (006/838) Accurately ripped
08 [3df04077] (006/839) Accurately ripped
09 [14653260] (006/838) Accurately ripped
10 [32fe4f10] (006/824) Accurately ripped
11 [78336ac6] (006/834) Accurately ripped
12 [3a216cc4] (006/830) Accurately ripped
Offsetted by 1391:
01 [b729d23c] (007/842) Accurately ripped
02 [ce5b29a9] (005/847) Accurately ripped
03 [d6eb6187] (007/848) Accurately ripped
04 [9ce105c3] (005/840) Accurately ripped
05 [292b35bd] (007/849) Accurately ripped
06 [77cb106d] (006/845) Accurately ripped
07 [607916a3] (005/838) Accurately ripped
08 [39a07aab] (005/839) Accurately ripped
09 [6a3c7cf0] (006/838) Accurately ripped
10 [9c7cb030] (006/824) Accurately ripped
11 [843d93ba] (005/834) Accurately ripped
12 [7bbba5b8] (005/830) Accurately ripped
Offsetted by 1642:
01 [10336cef] (023/842) Accurately ripped
02 [9981d6fc] (022/847) Accurately ripped
03 [960eac40] (022/848) Accurately ripped
04 [46901b1c] (021/840) Accurately ripped
05 [59859993] (023/849) Accurately ripped
06 [41cdb26b] (022/845) Accurately ripped
07 [60fb746a] (021/838) Accurately ripped
08 [825a99e0] (022/839) Accurately ripped
09 [358221b4] (020/838) Accurately ripped
10 [199f44b8] (018/824) Accurately ripped
11 [2123e81f] (021/834) Accurately ripped
12 [0e9b1e1d] (022/830) Accurately ripped
Offsetted by 2084:
01 [acfdf6b9] (005/842) Accurately ripped
02 [385ce586] (005/847) Accurately ripped
03 [4ca27e5e] (005/848) Accurately ripped
04 [a56281fa] (004/840) Accurately ripped
05 [0b7b7747] (005/849) Accurately ripped
06 [439f564f] (005/845) Accurately ripped
07 [22a4d94c] (005/838) Accurately ripped
08 [f1159ac6] (005/839) Accurately ripped
09 [398c946c] (005/838) Accurately ripped
10 [e6ae4428] (005/824) Accurately ripped
11 [0ca311a5] (005/834) Accurately ripped
12 [f3aa3fa3] (003/830) Accurately ripped
Offsetted by 62:
01 [dfb9c5e3] (000/842) No match (V2 was not tested)
02 [256aad70] (000/847) No match (V2 was not tested)
03 [b600949c] (000/848) No match (V2 was not tested)
04 [742fa0f8] (000/840) No match (V2 was not tested)
05 [0a8cddbb] (000/849) No match (V2 was not tested)
06 [37d38ff3] (000/845) No match (V2 was not tested)
07 [31eb8a0e] (000/838) No match (V2 was not tested)
08 [454c9b4c] (000/839) No match (V2 was not tested)
09 [2396b3a4] (000/838) No match (V2 was not tested)
10 [730cfc98] (000/824) No match (V2 was not tested)
11 [bdd5d0cb] (000/834) No match (V2 was not tested)
12 [c847ca6f] (000/830) No match (V2 was not tested)

Track Peak [ CRC32 ] [W/O NULL] [ LOG ]
– 99,9 [11D0AC7E] [FF6D9A5E] CRC32
01 99,9 [6015252B] [13EF29F4]
02 80,8 [9B28BBDB] [03840C69]
03 99,9 [01361CA6] [C27641B9]
04 99,9 [EEA01226] [44C61388]
05 99,9 [79D783C2] [7BF3F4B9]
06 99,9 [33118051] [A75BDA55]
07 99,9 [8CD0A1FB] [EAF7B285]
08 99,9 [92DF38F1] [0D04F597]
09 99,9 [56809BA1] [7DF047D2]
10 99,9 [FE040AC1] [1A8506A1]
11 99,9 [7C6C2C47] [7F8E4098]
12 70,8 [A85F79AC] [55348BEB]

Janis Joplin - Janis Joplin's Greatest Hits (1973) {1999 Remastered Reissue}

All thanks go to edenika

>>> Janis Joplin in my Blog <<<

Download from icerbox.com: