Janis Ian - Best Of: The Autobiography Collection (2008) 2 CD

Posted By: hill0
Janis Ian - Best Of: The Autobiography Collection (2008) 2 CD

Janis Ian - Best Of: The Autobiography Collection (2008) 2 CD
EAC Rip | FLAC (tracks & cue & log) | 622 MB | MP3 CBR 320 kbps | 271 MB | Full Artwork (PNG) | 170 MB | 1:58:41
Genre: Folk Rock / Pop Rock / Psychedelic Rock | Country: USA | Label: Rude Girl Records | CKV CD 4874

Released in tandem with Janis Ian's autobiography, Society's Child, this best-of compilation collects all the songs mentioned in the book, as well as several rarities. Ian's first demo, a distorted lo-fi version of "Hair Of Spun Gold," makes a welcome appearance, while "Ginny The Flying Girl" arrives via a 1981 Sesame Street album. Also notable are the handful of re-recorded songs on this two-disc collection, as well as several live tracks. Perhaps this isn't the definitive Janis Ian anthology for casual fans – it's too specialized for that – but Ian enthusiasts should make it a staple of their collections.
A singer/songwriter both celebrated and decried for her pointed handling of taboo topics, Janis Ian enjoyed one of the more remarkable second acts in music history. After first finding success as a teen, her career slumped, only to enter a commercial resurgence almost a decade later. Janis Eddy Fink was born on April 7, 1951, in New York City. The child of a music teacher, she studied piano as a child and, drawing influence from Edith Piaf, Billie Holiday, and Odetta, wrote her first songs at the age of 12. She soon entered Manhattan's High School of Music and Art, where she began performing at school functions. After adopting the surname Ian (her brother's middle name), she quickly graduated to the New York folk circuit. When she was just 15, she recorded her self-titled debut; the LP contained "Society's Child (Baby I've Been Thinking)," a meditation on interracial romance written by Ian while waiting to meet with her school guidance counselor. While banned by a few radio stations, the single failed to attract much notice until conductor Leonard Bernstein invited its writer to perform the song on his television special Inside Pop: The Rock Revolution. The ensuing publicity and furor over its subject matter pushed "Society's Child" into the upper rungs of the pop charts, and made Ian an overnight sensation. Success did not agree with her, however, and she soon dropped out of high school. In rapid succession, Ian recorded three more LPs – 1967's For All The Seasons Of Your Mind, 1968's The Secret Life Of J. Eddy Fink, and 1969's Who Really Cares – but gave away the money she earned to friends and charities. After meeting photojournalist Peter Cunningham at a peace rally, the couple married, and at age 20, she announced her retirement from the music business. The marriage failed, however, and she returned in 1971 with the poorly received Present Company. After moving to California to hone her writing skills in seclusion, Ian resurfaced three years later with Stars, which featured the song "Jesse," later a Top 30 hit for Roberta Flack. With 1975's Between The Lines, Ian eclipsed all of her previous success; not only did the LP achieve platinum status, but the delicate single "At Seventeen" reached the Top Three and won a Grammy. While subsequent releases like 1977's Latin-influenced Miracle Row, 1979's Night Rains, and 1981's Restless Eyes earned acclaim, they sold poorly. Ian was dropped by her label and spent 12 years without a contract before emerging in 1993 with Breaking Silence (the title a reference to her recent admission of homosexuality), which pulled no punches in tackling material like domestic violence, frank eroticism, and the Holocaust. Similarly, 1995's Revenge explored prostitution and homelessness. Two years later Ian returned with Hunger; God & The FBI followed in the spring of 2000. A live set, Working Without A Net, appeared from Rude Girl Records in 2003, and a DVD, Live At Club Cafe, saw release in 2005. Folk Is The New Black appeared as a joint release from Rude Girl and Cooking Vinyl in 2006.
Janis Ian - Best Of: The Autobiography Collection (2008) 2 CD



Tracklist

Disc 1
01 Hair Of Spun Gold
02 God & The FBI (Live)
03 Silly Habits (Live)
04 Society's Child
05 Haven't I Got Eyes
06 Jesse
07 Stars
08 Thankyous
09 This Train Still Runs (Live)
10 At Seventeen
11 Love Is Blind
12 Fly Too High
13 Arms Around My Life
14 His Hands
15 When Angels Cry

Disc 2
01 My Tennessee Hills
02 Every Love (Demo)
03 Some People's Lives
04 Stolen Fire
05 Days Like These
06 Tattoo (Live)
07 Through The Years
08 I Hear You Sing Again
09 Joy
10 My Autobiography
Bonus Tracks
11 Hair Of Spun Gold (Original Worktape Of Janis Ian's First Song)
12 I Long For You
13 Ginny The Flying Girl
14 Johnny I Hardly Knew Ye
15 Today Your Mine
16 At Seventeen (Single Version)

Exact Audio Copy V1.0 beta 3 from 29. August 2011

EAC extraction logfile from 30. June 2016, 5:39

Janis Ian / Best of- The Autobiography Collection (Disc 1)

Used drive : hp DVD A DH16ABSH Adapter: 0 ID: 0

Read mode : Secure
Utilize accurate stream : Yes
Defeat audio cache : Yes
Make use of C2 pointers : No

Read offset correction : 6
Overread into Lead-In and Lead-Out : No
Fill up missing offset samples with silence : Yes
Delete leading and trailing silent blocks : No
Null samples used in CRC calculations : Yes
Used interface : Native Win32 interface for Win NT & 2000
Gap handling : Appended to previous track

Used output format : User Defined Encoder
Selected bitrate : 896 kBit/s
Quality : High
Add ID3 tag : No
Command line compressor : C:\Program Files (x86)\Exact Audio Copy\Flac\flac.exe
Additional command line options : -8 -V -T "ARTIST=%artist%" -T "TITLE=%title%" -T "ALBUM=%albumtitle%" -T "DATE=%year%" -T "TRACKNUMBER=%tracknr%" -T "TOTALTRACKS=%numtracks%" -T "GENRE=%genre%" -T "ALBUMARTIST=%albumartist%" -T "ALBUM ARTIST=%albumartist%" -T "COMMENT=EAC Secure Mode, Test & Copy, AccurateRip, FLAC -8" %source%


TOC of the extracted CD

Track | Start | Length | Start sector | End sector
––––––––––––––––––––––––––––-
1 | 0:00.00 | 4:03.07 | 0 | 18231
2 | 4:03.07 | 3:52.44 | 18232 | 35675
3 | 7:55.51 | 4:40.10 | 35676 | 56685
4 | 12:35.61 | 3:13.42 | 56686 | 71202
5 | 15:49.28 | 3:35.32 | 71203 | 87359
6 | 19:24.60 | 4:08.41 | 87360 | 106000
7 | 23:33.26 | 7:10.20 | 106001 | 138270
8 | 30:43.46 | 2:36.37 | 138271 | 150007
9 | 33:20.08 | 4:36.11 | 150008 | 170718
10 | 37:56.19 | 4:42.07 | 170719 | 191875
11 | 42:38.26 | 2:13.33 | 191876 | 201883
12 | 44:51.59 | 5:06.46 | 201884 | 224879
13 | 49:58.30 | 2:37.30 | 224880 | 236684
14 | 52:35.60 | 4:35.49 | 236685 | 257358
15 | 57:11.34 | 4:43.50 | 257359 | 278633


Track 1

Filename C:\EAC\Janis Ian - Best Of- The Autobiography Collection (2008) [FLAC] {Rude Girl Records CKV-CD-4871}\Disc 1of2\01 - Hair Of Spun Gold.wav

Pre-gap length 0:00:02.00

Peak level 97.0 %
Extraction speed 3.6 X
Track quality 100.0 %
Test CRC 3E681327
Copy CRC 3E681327
Track not present in AccurateRip database
Copy OK

Track 2

Filename C:\EAC\Janis Ian - Best Of- The Autobiography Collection (2008) [FLAC] {Rude Girl Records CKV-CD-4871}\Disc 1of2\02 - God & The FBI (Live).wav

Pre-gap length 0:00:02.21

Peak level 98.8 %
Extraction speed 4.0 X
Track quality 100.0 %
Test CRC FCCD6FD0
Copy CRC FCCD6FD0
Track not present in AccurateRip database
Copy OK

Track 3

Filename C:\EAC\Janis Ian - Best Of- The Autobiography Collection (2008) [FLAC] {Rude Girl Records CKV-CD-4871}\Disc 1of2\03 - Silly Habits (Live).wav

Pre-gap length 0:00:01.40

Peak level 98.8 %
Extraction speed 4.5 X
Track quality 100.0 %
Test CRC 2439CBC1
Copy CRC 2439CBC1
Track not present in AccurateRip database
Copy OK

Track 4

Filename C:\EAC\Janis Ian - Best Of- The Autobiography Collection (2008) [FLAC] {Rude Girl Records CKV-CD-4871}\Disc 1of2\04 - Society's Child.wav

Pre-gap length 0:00:01.26

Peak level 98.8 %
Extraction speed 3.5 X
Track quality 99.9 %
Test CRC 2C5D4E92
Copy CRC 2C5D4E92
Track not present in AccurateRip database
Copy OK

Track 5

Filename C:\EAC\Janis Ian - Best Of- The Autobiography Collection (2008) [FLAC] {Rude Girl Records CKV-CD-4871}\Disc 1of2\05 - Haven't I Got Eyes.wav

Pre-gap length 0:00:01.42

Peak level 84.0 %
Extraction speed 3.8 X
Track quality 99.9 %
Test CRC 271D0326
Copy CRC 271D0326
Track not present in AccurateRip database
Copy OK

Track 6

Filename C:\EAC\Janis Ian - Best Of- The Autobiography Collection (2008) [FLAC] {Rude Girl Records CKV-CD-4871}\Disc 1of2\06 - Jesse.wav

Peak level 77.4 %
Extraction speed 5.2 X
Track quality 100.0 %
Test CRC 6C29C3ED
Copy CRC 6C29C3ED
Track not present in AccurateRip database
Copy OK

Track 7

Filename C:\EAC\Janis Ian - Best Of- The Autobiography Collection (2008) [FLAC] {Rude Girl Records CKV-CD-4871}\Disc 1of2\07 - Stars.wav

Pre-gap length 0:00:02.60

Peak level 75.3 %
Extraction speed 5.2 X
Track quality 99.9 %
Test CRC B4B25783
Copy CRC B4B25783
Track not present in AccurateRip database
Copy OK

Track 8

Filename C:\EAC\Janis Ian - Best Of- The Autobiography Collection (2008) [FLAC] {Rude Girl Records CKV-CD-4871}\Disc 1of2\08 - Thankyous.wav

Peak level 87.3 %
Extraction speed 5.5 X
Track quality 100.0 %
Test CRC AF4E42CD
Copy CRC AF4E42CD
Track not present in AccurateRip database
Copy OK

Track 9

Filename C:\EAC\Janis Ian - Best Of- The Autobiography Collection (2008) [FLAC] {Rude Girl Records CKV-CD-4871}\Disc 1of2\09 - This Train Still Runs (Live).wav

Pre-gap length 0:00:01.01

Peak level 98.8 %
Extraction speed 6.2 X
Track quality 100.0 %
Test CRC F1638C86
Copy CRC F1638C86
Track not present in AccurateRip database
Copy OK

Track 10

Filename C:\EAC\Janis Ian - Best Of- The Autobiography Collection (2008) [FLAC] {Rude Girl Records CKV-CD-4871}\Disc 1of2\10 - At Seventeen.wav

Peak level 93.3 %
Extraction speed 6.5 X
Track quality 100.0 %
Test CRC 90FBB1D7
Copy CRC 90FBB1D7
Track not present in AccurateRip database
Copy OK

Track 11

Filename C:\EAC\Janis Ian - Best Of- The Autobiography Collection (2008) [FLAC] {Rude Girl Records CKV-CD-4871}\Disc 1of2\11 - Love Is Blind.wav

Pre-gap length 0:00:01.15

Peak level 98.8 %
Extraction speed 4.1 X
Track quality 99.9 %
Test CRC D3213C83
Copy CRC D3213C83
Track not present in AccurateRip database
Copy OK

Track 12

Filename C:\EAC\Janis Ian - Best Of- The Autobiography Collection (2008) [FLAC] {Rude Girl Records CKV-CD-4871}\Disc 1of2\12 - Fly Too High.wav

Pre-gap length 0:00:01.36

Peak level 98.3 %
Extraction speed 7.0 X
Track quality 100.0 %
Test CRC 75DA0711
Copy CRC 75DA0711
Track not present in AccurateRip database
Copy OK

Track 13

Filename C:\EAC\Janis Ian - Best Of- The Autobiography Collection (2008) [FLAC] {Rude Girl Records CKV-CD-4871}\Disc 1of2\13 - Arms Around My Life.wav

Peak level 87.7 %
Extraction speed 6.4 X
Track quality 100.0 %
Test CRC 005D813A
Copy CRC 005D813A
Track not present in AccurateRip database
Copy OK

Track 14

Filename C:\EAC\Janis Ian - Best Of- The Autobiography Collection (2008) [FLAC] {Rude Girl Records CKV-CD-4871}\Disc 1of2\14 - His Hands.wav

Peak level 98.8 %
Extraction speed 7.3 X
Track quality 100.0 %
Test CRC 1D040E9B
Copy CRC 1D040E9B
Track not present in AccurateRip database
Copy OK

Track 15

Filename C:\EAC\Janis Ian - Best Of- The Autobiography Collection (2008) [FLAC] {Rude Girl Records CKV-CD-4871}\Disc 1of2\15 - When Angels Cry.wav

Peak level 97.9 %
Extraction speed 7.5 X
Track quality 100.0 %
Test CRC F308CB95
Copy CRC F308CB95
Track not present in AccurateRip database
Copy OK


None of the tracks are present in the AccurateRip database

No errors occurred

End of status report

==== Log checksum 8A241867C75487CC01ECED9D9933E3FEFF0F05DF395AB6B764CAB31F676073D8 ====

Exact Audio Copy V1.0 beta 3 from 29. August 2011

EAC extraction logfile from 30. June 2016, 6:06

Janis Ian / Best of- The Autobiography Collection (Disc 2)

Used drive : hp DVD A DH16ABSH Adapter: 0 ID: 0

Read mode : Secure
Utilize accurate stream : Yes
Defeat audio cache : Yes
Make use of C2 pointers : No

Read offset correction : 6
Overread into Lead-In and Lead-Out : No
Fill up missing offset samples with silence : Yes
Delete leading and trailing silent blocks : No
Null samples used in CRC calculations : Yes
Used interface : Native Win32 interface for Win NT & 2000
Gap handling : Appended to previous track

Used output format : User Defined Encoder
Selected bitrate : 896 kBit/s
Quality : High
Add ID3 tag : No
Command line compressor : C:\Program Files (x86)\Exact Audio Copy\Flac\flac.exe
Additional command line options : -8 -V -T "ARTIST=%artist%" -T "TITLE=%title%" -T "ALBUM=%albumtitle%" -T "DATE=%year%" -T "TRACKNUMBER=%tracknr%" -T "TOTALTRACKS=%numtracks%" -T "GENRE=%genre%" -T "ALBUMARTIST=%albumartist%" -T "ALBUM ARTIST=%albumartist%" -T "COMMENT=EAC Secure Mode, Test & Copy, AccurateRip, FLAC -8" %source%


TOC of the extracted CD

Track | Start | Length | Start sector | End sector
––––––––––––––––––––––––––––-
1 | 0:00.00 | 5:17.20 | 0 | 23794
2 | 5:17.20 | 2:56.70 | 23795 | 37064
3 | 8:14.15 | 3:28.49 | 37065 | 52713
4 | 11:42.64 | 4:10.47 | 52714 | 71510
5 | 15:53.36 | 3:21.06 | 71511 | 86591
6 | 19:14.42 | 4:17.10 | 86592 | 105876
7 | 23:31.52 | 4:01.63 | 105877 | 124014
8 | 27:33.40 | 4:11.44 | 124015 | 142883
9 | 31:45.09 | 2:43.12 | 142884 | 155120
10 | 34:28.21 | 2:49.44 | 155121 | 167839
11 | 37:17.65 | 3:10.68 | 167840 | 182157
12 | 40:28.58 | 3:36.05 | 182158 | 198362
13 | 44:04.63 | 3:46.54 | 198363 | 215366
14 | 47:51.42 | 2:09.56 | 215367 | 225097
15 | 50:01.23 | 2:47.05 | 225098 | 237627
16 | 52:48.28 | 3:55.68 | 237628 | 255320


Track 1

Filename C:\EAC\Janis Ian - Best Of- The Autobiography Collection (2008) [FLAC] {Rude Girl Records CKV-CD-4871}\Disc 2of2\01 - My Tennessee Hills.wav

Pre-gap length 0:00:02.00

Peak level 98.8 %
Extraction speed 3.8 X
Track quality 100.0 %
Test CRC AA59B717
Copy CRC AA59B717
Accurately ripped (confidence 7) [B9F15DA8] (AR v2)
Copy OK

Track 2

Filename C:\EAC\Janis Ian - Best Of- The Autobiography Collection (2008) [FLAC] {Rude Girl Records CKV-CD-4871}\Disc 2of2\02 - Every Love (Demo).wav

Peak level 98.8 %
Extraction speed 3.0 X
Track quality 99.9 %
Test CRC 0F0C2EBC
Copy CRC 0F0C2EBC
Accurately ripped (confidence 7) [366B02C2] (AR v2)
Copy OK

Track 3

Filename C:\EAC\Janis Ian - Best Of- The Autobiography Collection (2008) [FLAC] {Rude Girl Records CKV-CD-4871}\Disc 2of2\03 - Some People's Lives.wav

Peak level 94.8 %
Extraction speed 4.3 X
Track quality 100.0 %
Test CRC 951BE7EF
Copy CRC 951BE7EF
Accurately ripped (confidence 7) [39279D2C] (AR v2)
Copy OK

Track 4

Filename C:\EAC\Janis Ian - Best Of- The Autobiography Collection (2008) [FLAC] {Rude Girl Records CKV-CD-4871}\Disc 2of2\04 - Stolen Fire.wav

Pre-gap length 0:00:01.28

Peak level 98.8 %
Extraction speed 3.8 X
Track quality 99.9 %
Test CRC 2B51857A
Copy CRC 2B51857A
Accurately ripped (confidence 6) [E036134D] (AR v2)
Copy OK

Track 5

Filename C:\EAC\Janis Ian - Best Of- The Autobiography Collection (2008) [FLAC] {Rude Girl Records CKV-CD-4871}\Disc 2of2\05 - Days Like These.wav

Pre-gap length 0:00:01.47

Peak level 85.4 %
Extraction speed 4.8 X
Track quality 100.0 %
Test CRC B462188E
Copy CRC B462188E
Accurately ripped (confidence 7) [8970BD3B] (AR v2)
Copy OK

Track 6

Filename C:\EAC\Janis Ian - Best Of- The Autobiography Collection (2008) [FLAC] {Rude Girl Records CKV-CD-4871}\Disc 2of2\06 - Tattoo (Live).wav

Pre-gap length 0:00:01.38

Peak level 97.2 %
Extraction speed 5.3 X
Track quality 100.0 %
Test CRC 5706B30E
Copy CRC 5706B30E
Accurately ripped (confidence 6) [1C0E1319] (AR v2)
Copy OK

Track 7

Filename C:\EAC\Janis Ian - Best Of- The Autobiography Collection (2008) [FLAC] {Rude Girl Records CKV-CD-4871}\Disc 2of2\07 - Through The Years.wav

Pre-gap length 0:00:01.23

Peak level 76.9 %
Extraction speed 5.5 X
Track quality 100.0 %
Test CRC 646622F3
Copy CRC 646622F3
Accurately ripped (confidence 7) [E11F2E2F] (AR v2)
Copy OK

Track 8

Filename C:\EAC\Janis Ian - Best Of- The Autobiography Collection (2008) [FLAC] {Rude Girl Records CKV-CD-4871}\Disc 2of2\08 - I Hear You Sing Again.wav

Pre-gap length 0:00:01.08

Peak level 83.2 %
Extraction speed 5.8 X
Track quality 100.0 %
Test CRC F522956F
Copy CRC F522956F
Accurately ripped (confidence 7) [3546FFDA] (AR v2)
Copy OK

Track 9

Filename C:\EAC\Janis Ian - Best Of- The Autobiography Collection (2008) [FLAC] {Rude Girl Records CKV-CD-4871}\Disc 2of2\09 - Joy.wav

Peak level 68.2 %
Extraction speed 5.6 X
Track quality 100.0 %
Test CRC C8406ECC
Copy CRC C8406ECC
Accurately ripped (confidence 7) [6A5854E0] (AR v2)
Copy OK

Track 10

Filename C:\EAC\Janis Ian - Best Of- The Autobiography Collection (2008) [FLAC] {Rude Girl Records CKV-CD-4871}\Disc 2of2\10 - My Autobiography.wav

Peak level 98.8 %
Extraction speed 5.8 X
Track quality 100.0 %
Test CRC 2AFAEAE6
Copy CRC 2AFAEAE6
Accurately ripped (confidence 7) [EAAF6D25] (AR v2)
Copy OK

Track 11

Filename C:\EAC\Janis Ian - Best Of- The Autobiography Collection (2008) [FLAC] {Rude Girl Records CKV-CD-4871}\Disc 2of2\11 - Hair Of Spun Gold (Original Worktape).wav

Pre-gap length 0:00:01.04

Peak level 93.2 %
Extraction speed 4.6 X
Track quality 99.9 %
Test CRC 09E37E77
Copy CRC 09E37E77
Accurately ripped (confidence 6) [07B4C419] (AR v2)
Copy OK

Track 12

Filename C:\EAC\Janis Ian - Best Of- The Autobiography Collection (2008) [FLAC] {Rude Girl Records CKV-CD-4871}\Disc 2of2\12 - I Long For You.wav

Pre-gap length 0:00:01.11

Peak level 98.8 %
Extraction speed 6.4 X
Track quality 100.0 %
Test CRC 031F1C1C
Copy CRC 031F1C1C
Accurately ripped (confidence 7) [020B3BD6] (AR v2)
Copy OK

Track 13

Filename C:\EAC\Janis Ian - Best Of- The Autobiography Collection (2008) [FLAC] {Rude Girl Records CKV-CD-4871}\Disc 2of2\13 - Ginny The Flying Girl.wav

Pre-gap length 0:00:01.05

Peak level 98.8 %
Extraction speed 5.2 X
Track quality 99.9 %
Test CRC 63DABDFB
Copy CRC 63DABDFB
Accurately ripped (confidence 7) [F858CBC8] (AR v2)
Copy OK

Track 14

Filename C:\EAC\Janis Ian - Best Of- The Autobiography Collection (2008) [FLAC] {Rude Girl Records CKV-CD-4871}\Disc 2of2\14 - Johnny I Hardly Knew Ye.wav

Peak level 61.0 %
Extraction speed 6.1 X
Track quality 100.0 %
Test CRC B817F0DD
Copy CRC B817F0DD
Accurately ripped (confidence 6) [CBF776A9] (AR v2)
Copy OK

Track 15

Filename C:\EAC\Janis Ian - Best Of- The Autobiography Collection (2008) [FLAC] {Rude Girl Records CKV-CD-4871}\Disc 2of2\15 - Today You're Mine.wav

Pre-gap length 0:00:02.02

Peak level 97.4 %
Extraction speed 6.6 X
Track quality 100.0 %
Test CRC 1B6CE9E3
Copy CRC 1B6CE9E3
Accurately ripped (confidence 7) [2FF1A961] (AR v2)
Copy OK

Track 16

Filename C:\EAC\Janis Ian - Best Of- The Autobiography Collection (2008) [FLAC] {Rude Girl Records CKV-CD-4871}\Disc 2of2\16 - At Seventeen (Single Version).wav

Pre-gap length 0:00:02.27

Peak level 98.8 %
Extraction speed 7.1 X
Track quality 100.0 %
Test CRC F3F40A0A
Copy CRC F3F40A0A
Accurately ripped (confidence 7) [BAD3F1D5] (AR v2)
Copy OK


All tracks accurately ripped

No errors occurred

End of status report

==== Log checksum A53CF17364CD237976BC73B015FDF474F98EC7E83CFBE2B3E1080CC4F5748EB6 ====

[CUETools log; Date: 01.09.2016 14:41:09; Version: 2.1.5]
[CTDB TOCID: Ls6WpEly3hjtWCRp3EIaIBDTaQc-] found.
Track | CTDB Status
1 | (11/11) Accurately ripped
2 | (11/11) Accurately ripped
3 | (11/11) Accurately ripped
4 | (11/11) Accurately ripped
5 | (11/11) Accurately ripped
6 | (11/11) Accurately ripped
7 | (11/11) Accurately ripped
8 | (11/11) Accurately ripped
9 | (11/11) Accurately ripped
10 | (11/11) Accurately ripped
11 | (11/11) Accurately ripped
12 | (11/11) Accurately ripped
13 | (10/11) Accurately ripped
14 | (11/11) Accurately ripped
15 | (11/11) Accurately ripped
[AccurateRip ID: 0021f542-018133ec-c40e830f] found.
Track [ CRC | V2 ] Status
01 [e9474b5a|58217b60] (10+06/38) Accurately ripped
02 [f6421b4a|d8b8c6d6] (10+06/38) Accurately ripped
03 [aca37907|61431053] (10+07/39) Accurately ripped
04 [5f7595d5|cc84b564] (10+06/38) Accurately ripped
05 [05362ce4|8cff2b95] (10+07/39) Accurately ripped
06 [d908a221|19bc8e22] (10+07/39) Accurately ripped
07 [4aad9ee8|f15cf646] (10+07/39) Accurately ripped
08 [b0645c59|1bfd0b21] (10+07/39) Accurately ripped
09 [2fa0e197|9f9e8c8b] (11+06/39) Accurately ripped
10 [3628b64b|baafd4de] (11+07/40) Accurately ripped
11 [2d532bc7|69df42a0] (10+07/39) Accurately ripped
12 [085168f9|ad970f17] (10+06/38) Accurately ripped
13 [9b371ff5|52e1ffa2] (10+06/38) Accurately ripped
14 [f4cb0ece|369799fe] (10+06/38) Accurately ripped
15 [4cd307ad|df6e14e3] (09+07/38) Accurately ripped
Offsetted by -18:
01 [25b1aa9e] (07/38) Accurately ripped
02 [1fb43284] (07/38) Accurately ripped
03 [20297457] (07/39) Accurately ripped
04 [884040de] (07/38) Accurately ripped
05 [3bcb2943] (07/39) Accurately ripped
06 [756d9419] (07/39) Accurately ripped
07 [6b67870d] (07/39) Accurately ripped
08 [b16156ae] (07/39) Accurately ripped
09 [3c68652b] (07/39) Accurately ripped
10 [69b2c129] (07/40) Accurately ripped
11 [a8c3c22d] (07/39) Accurately ripped
12 [1631446d] (07/38) Accurately ripped
13 [8f6267fd] (07/38) Accurately ripped
14 [eb016642] (07/38) Accurately ripped
15 [cb29c840] (07/38) Accurately ripped

Track Peak [ CRC32 ] [W/O NULL] [ LOG ]
– 98,8 [BCB24C3A] [BDB15657]
01 97,0 [3E681327] [A507D2B6] CRC32
02 98,8 [FCCD6FD0] [559AEAE9] CRC32
03 98,8 [2439CBC1] [9496928D] CRC32
04 98,8 [2C5D4E92] [587D1E4A] CRC32
05 84,0 [271D0326] [B79D8347] CRC32
06 77,4 [6C29C3ED] [087B816B] CRC32
07 75,3 [B4B25783] [72F67CE2] CRC32
08 87,3 [AF4E42CD] [6A81A338] CRC32
09 98,8 [F1638C86] [4A01242C] CRC32
10 93,3 [90FBB1D7] [26EEA563] CRC32
11 98,8 [D3213C83] [295A0977] CRC32
12 98,3 [75DA0711] [9416837B] CRC32
13 87,7 [005D813A] [B0144DF6] CRC32
14 98,8 [1D040E9B] [5F21900C] CRC32
15 97,9 [F308CB95] [FED22167] CRC32

[CUETools log; Date: 01.09.2016 14:42:54; Version: 2.1.5]
[CTDB TOCID: 22a7hIDl2OGOuBI6RTirzoTW3yk-] found.
Track | CTDB Status
1 | (10/10) Accurately ripped
2 | (10/10) Accurately ripped
3 | (10/10) Accurately ripped
4 | (10/10) Accurately ripped
5 | (10/10) Accurately ripped
6 | (10/10) Accurately ripped
7 | (10/10) Accurately ripped
8 | (10/10) Accurately ripped
9 | (10/10) Accurately ripped
10 | (10/10) Accurately ripped
11 | (10/10) Accurately ripped
12 | (10/10) Accurately ripped
13 | (10/10) Accurately ripped
14 | (10/10) Accurately ripped
15 | (10/10) Accurately ripped
16 | (10/10) Accurately ripped
[AccurateRip ID: 0022cf85-019b68de-d10d4c10] found.
Track [ CRC | V2 ] Status
01 [175dc270|b9f15da8] (10+08/39) Accurately ripped
02 [01d8798b|366b02c2] (11+08/42) Accurately ripped
03 [0c6d2dc5|39279d2c] (10+08/40) Accurately ripped
04 [d871a57e|e036134d] (10+07/39) Accurately ripped
05 [4a8057a3|8970bd3b] (10+08/40) Accurately ripped
06 [925f6477|1c0e1319] (11+07/41) Accurately ripped
07 [0e559384|e11f2e2f] (10+08/40) Accurately ripped
08 [06a26978|3546ffda] (10+08/40) Accurately ripped
09 [8beee62b|6a5854e0] (10+08/40) Accurately ripped
10 [7b064a43|eaaf6d25] (11+08/41) Accurately ripped
11 [4fde3e6e|07b4c419] (09+07/38) Accurately ripped
12 [bbf38cff|020b3bd6] (10+08/40) Accurately ripped
13 [b32194eb|f858cbc8] (11+08/41) Accurately ripped
14 [f6769d03|cbf776a9] (10+07/38) Accurately ripped
15 [e4b71fef|2ff1a961] (10+08/39) Accurately ripped
16 [2fba3213|bad3f1d5] (10+08/40) Accurately ripped
Offsetted by -18:
01 [efe50dca] (07/39) Accurately ripped
02 [83d7d67b] (07/42) Accurately ripped
03 [c0867d5a] (07/40) Accurately ripped
04 [ce36b0d8] (07/39) Accurately ripped
05 [0af0b6f7] (07/40) Accurately ripped
06 [a4f57fcc] (07/41) Accurately ripped
07 [f8a88ac6] (07/40) Accurately ripped
08 [8554e1ca] (07/40) Accurately ripped
09 [3465031c] (07/40) Accurately ripped
10 [25cfa6ac] (07/41) Accurately ripped
11 [e4952785] (07/38) Accurately ripped
12 [39204960] (07/40) Accurately ripped
13 [2d252ed0] (06/41) Accurately ripped
14 [6dd646b9] (06/38) Accurately ripped
15 [8b307f49] (06/39) Accurately ripped
16 [d34807dc] (06/40) Accurately ripped

Track Peak [ CRC32 ] [W/O NULL] [ LOG ]
– 98,8 [474A8681] [63C1496F]
01 98,8 [AA59B717] [B1878469] CRC32
02 98,8 [0F0C2EBC] [470DD497] CRC32
03 94,8 [951BE7EF] [39EE1510] CRC32
04 98,8 [2B51857A] [D1227DDF] CRC32
05 85,4 [B462188E] [27296E39] CRC32
06 97,2 [5706B30E] [B42F800C] CRC32
07 76,9 [646622F3] [311B037A] CRC32
08 83,2 [F522956F] [613FA7EF] CRC32
09 68,2 [C8406ECC] [C4415DB1] CRC32
10 98,8 [2AFAEAE6] [8BA244D1] CRC32
11 93,2 [09E37E77] [D63862FE] CRC32
12 98,8 [031F1C1C] [45A13D0C] CRC32
13 98,8 [63DABDFB] [8B4A5091] CRC32
14 61,0 [B817F0DD] [BF0BFA84] CRC32
15 97,4 [1B6CE9E3] [8456A5AA] CRC32
16 98,8 [F3F40A0A] [C3BD7D2E] CRC32


Musicians

Janis Ian - vocals, acoustic guitar
Cyro Baptista - percussion
Kevin Breit - electric and National Steel guitars, bazoukis
David Piltch - upright bass

Janis Ian - Best Of: The Autobiography Collection (2008) 2 CD

All thanks goes to the original releaser
=====