Subcategories

Japan - Quiet Life (1980)

Posted By: v3122
Japan - Quiet Life (1980)

Japan - Quiet Life (1980)
EAC | Flac(Image) + Cue + Log & MP3 CBR 320Kbps
Hansa, 251 261-217 | ~ 266 or 109 Mb | Scans Included
New Wave

Quiet Life is the album that transformed Japan from past-tense glam rockers into futuristic synth popsters, though they'd been leaning in that direction for a while. It's also a solid proto-New Romantic synthesizer record, enhanced by Mick Karn's superb fretless bass work and David Sylvian's smooth, sneering vocals spread over pop hits like the title track and "Fall in Love with Me."

by Keith Farley, AMG
Japan - Quiet Life (1980)


Japan - Quiet Life (1980):

Japan - Quiet Life (1980)

Tracklist:

01 Quiet Life
02 Fall In Love with Me
03 Despair
04 In Vogue
05 Halloween
06 All Tomorrow's Parties
07 Alien
08 The Other Side of Life

Convertet to Image (CUETools 2.1.4)

Exact Audio Copy V1.0 beta 3 from 29. August 2011

Отчёт EAC об извлечении, выполненном 28. ноября 2012, 0:16

Japan / Quiet Life

Дисковод: ASUS DRW-1814BLT Adapter: 4 ID: 0

Режим чтения : Достоверность
Использование точного потока : Да
Отключение кэша аудио : Да
Использование указателей C2 : Нет

Коррекция смещения при чтении : 6
Способность читать области Lead-in и Lead-out : Нет
Заполнение пропущенных сэмплов тишиной : Да
Удаление блоков с тишиной в начале и конце : Нет
При вычислениях CRC использовались нулевые сэмплы : Да
Интерфейс : Встроенный Win32-интерфейс для Win NT/2000
Обработка зазоров : Добавлено к предыдущему треку

Выходной формат : Пользовательский кодировщик
Выбранный битрейт : 128 kBit/s
Качество : Высокий
Добавление ID3-тега : Нет
Утилита сжатия : C:\Program Files\Exact Audio Copy\Flac\flac.exe
Дополнительные параметры : -V -8 -T "Genre=%genre%" -T "Artist=%artist%" -T "Title=%title%" -T "Album=%albumtitle%" -T "Date=%year%" -T "Tracknumber=%tracknr%" -T "Comment=EAC1.0b2 FLAC -8" %source%


TOC извлечённого CD

Трек | Старт | Длительность | Начальный сектор | Конечный сектор
––––––––––––––––––––––––––––––––––-
1 | 0:00.38 | 4:52.65 | 38 | 22002
2 | 4:53.28 | 4:32.50 | 22003 | 42452
3 | 9:26.03 | 5:59.15 | 42453 | 69392
4 | 15:25.18 | 6:33.37 | 69393 | 98904
5 | 21:58.55 | 4:25.30 | 98905 | 118809
6 | 26:24.10 | 5:43.58 | 118810 | 144592
7 | 32:07.68 | 5:02.07 | 144593 | 167249
8 | 37:10.00 | 7:24.63 | 167250 | 200612


Трек 1

Имя файла R:\Раздача\Japan - Quiet Life - 1980\01 Quiet Life.wav

Длина предзазора 0:00:02.38

Пиковый уровень 100.0 %
Скорость извлечения 5.3 X
Качество трека 100.0 %
CRC теста 77F1F7E5
CRC копии 77F1F7E5
Копирование… OK

Трек 2

Имя файла R:\Раздача\Japan - Quiet Life - 1980\02 Fall In Love with Me.wav

Длина предзазора 0:00:01.50

Пиковый уровень 87.9 %
Скорость извлечения 5.8 X
Качество трека 100.0 %
CRC теста B37DA1CD
CRC копии B37DA1CD
Копирование… OK

Трек 3

Имя файла R:\Раздача\Japan - Quiet Life - 1980\03 Despair.wav

Длина предзазора 0:00:01.50

Пиковый уровень 84.7 %
Скорость извлечения 6.1 X
Качество трека 99.9 %
CRC теста 4D2ED2ED
CRC копии 4D2ED2ED
Копирование… OK

Трек 4

Имя файла R:\Раздача\Japan - Quiet Life - 1980\04 In Vogue.wav

Длина предзазора 0:00:01.50

Пиковый уровень 81.7 %
Скорость извлечения 7.4 X
Качество трека 100.0 %
CRC теста E6E33A53
CRC копии E6E33A53
Копирование… OK

Трек 5

Имя файла R:\Раздача\Japan - Quiet Life - 1980\05 Halloween.wav

Длина предзазора 0:00:01.50

Пиковый уровень 98.3 %
Скорость извлечения 7.7 X
Качество трека 100.0 %
CRC теста C2CDC264
CRC копии C2CDC264
Копирование… OK

Трек 6

Имя файла R:\Раздача\Japan - Quiet Life - 1980\06 All Tomorrow's Parties.wav

Длина предзазора 0:00:01.50

Пиковый уровень 88.9 %
Скорость извлечения 8.3 X
Качество трека 100.0 %
CRC теста 3A954E83
CRC копии 3A954E83
Копирование… OK

Трек 7

Имя файла R:\Раздача\Japan - Quiet Life - 1980\07 Alien.wav

Пиковый уровень 90.4 %
Скорость извлечения 7.8 X
Качество трека 99.9 %
CRC теста 34EDAF79
CRC копии 34EDAF79
Копирование… OK

Трек 8

Имя файла R:\Раздача\Japan - Quiet Life - 1980\08 The Other Side of Life.wav

Длина предзазора 0:00:01.50

Пиковый уровень 87.9 %
Скорость извлечения 9.5 X
Качество трека 100.0 %
CRC теста 7CFC2342
CRC копии 7CFC2342
Копирование… OK

Ошибок не произошло

Конец отчёта

==== Контрольная сумма отчёта 4D2C2C27803582CD49F1C28C5A55EB42E6131DE5FA3BF1CB1AAC08B863944167 ====

foobar2000 1.2.9 / Dynamic Range Meter 1.1.1
log date: 2016-03-18 20:31:52

––––––––––––––––––––––––––––––––––––––––
Analyzed: Japan / Quiet Life
––––––––––––––––––––––––––––––––––––––––

DR Peak RMS Duration Track
––––––––––––––––––––––––––––––––––––––––
DR14 0.00 dB -16.69 dB 4:53 01-Quiet Life
DR13 -1.12 dB -16.35 dB 4:33 02-Fall In Love with Me
DR13 -1.44 dB -19.79 dB 5:59 03-Despair
DR11 -1.75 dB -15.69 dB 6:33 04-In Vogue
DR13 -0.14 dB -15.32 dB 4:25 05-Halloween
DR13 -1.01 dB -16.20 dB 5:44 06-All Tomorrow's Parties
DR13 -0.88 dB -16.51 dB 5:02 07-Alien
DR13 -1.12 dB -17.32 dB 7:25 08-The Other Side of Life
––––––––––––––––––––––––––––––––––––––––

Number of tracks: 8
Official DR value: DR13

Samplerate: 44100 Hz
Channels: 2
Bits per sample: 16
Bitrate: 797 kbps
Codec: FLAC

[CUETools log; Date: 18.03.2016 20:32:14; Version: 2.1.4]
Pregap length 00:00:38.
[CTDB TOCID: WQG4jlSTf1M4TObmhhol994GMbw-] found.
Track | CTDB Status
1 | (5/5) Accurately ripped
2 | (5/5) Accurately ripped
3 | (5/5) Accurately ripped
4 | (5/5) Accurately ripped
5 | (5/5) Accurately ripped
6 | (5/5) Accurately ripped
7 | (5/5) Accurately ripped
8 | (5/5) Accurately ripped
[AccurateRip ID: 000d2f3a-0058af3c-6f0a7208] found.
Track [ CRC | V2 ] Status
01 [817e206e|0a4a080c] (20+14/47) Accurately ripped
02 [008ea6f1|af6e91b8] (22+14/47) Accurately ripped
03 [9c54ac6c|9100ec6b] (21+14/47) Accurately ripped
04 [b58a5dec|fbceab87] (21+14/49) Accurately ripped
05 [a2e150d8|04e4df8e] (21+14/49) Accurately ripped
06 [98bdc375|e6e6f249] (21+14/47) Accurately ripped
07 [6d420723|0b22f450] (21+14/47) Accurately ripped
08 [a530bfdd|32c44c09] (21+14/49) Accurately ripped
Offsetted by -1955:
01 [091c8c3f] (05/47) Accurately ripped
02 [8bcb5e65] (02/47) Accurately ripped
03 [c29ee99b] (03/47) Accurately ripped
04 [0966f00f] (05/49) Accurately ripped
05 [27026780] (05/49) Accurately ripped
06 [980a55d5] (03/47) Accurately ripped
07 [c0979199] (04/47) Accurately ripped
08 [26da43ca] (05/49) Accurately ripped
Offsetted by -133:
01 [3dda7bd5] (03/47) Accurately ripped
02 [3f319edd] (04/47) Accurately ripped
03 [64aa2005] (04/47) Accurately ripped
04 [4867dff1] (04/49) Accurately ripped
05 [e969eaf0] (04/49) Accurately ripped
06 [68ce954f] (04/47) Accurately ripped
07 [6b4d637b] (04/47) Accurately ripped
08 [8b929348] (04/49) Accurately ripped

Track Peak [ CRC32 ] [W/O NULL] [ LOG ]
– 100,0 [7879AC04] [807574EA]
01 100,0 [77F1F7E5] [8763B33D] CRC32
02 87,9 [B37DA1CD] [A032C30F] CRC32
03 84,7 [4D2ED2ED] [605562EF] CRC32
04 81,7 [E6E33A53] [E61A8276] CRC32
05 98,3 [C2CDC264] [C9414FB7] CRC32
06 88,9 [3A954E83] [1C3958B6] CRC32
07 90,4 [34EDAF79] [B580F858] CRC32
08 87,9 [7CFC2342] [8F2796CC] CRC32

Japan - Quiet Life (1980)

All thanks go to the original releaser

Japan in my Blog

Download Japan - Quiet Life (1980):