Subcategories

Jascha Heifetz, Charles Munch - Beethoven, Mendelssohn: Violin Concertos (2004)

Posted By: tirexiss
Jascha Heifetz, Charles Munch -  Beethoven, Mendelssohn: Violin Concertos (2004)

Jascha Heifetz, Charles Munch - Beethoven, Mendelssohn: Violin Concertos (2004)
XLD | FLAC (image+.cue, log) | Covers Included | 01:01:54 | 328 MB
Genre: Classical | Label: RCA Red Seal | Catalog: 82876 61391-2

These classic recordings need little comment from me on artistic grounds. Heifetz's account of the Mendelssohn never has been bettered for sheer dazzling virtuosity, and although the Beethoven is more controversial (some find it "cold"), I love its unaffected, truly classical purity. Besides, you also get Munch and the Boston Symphony, no mean bonus. It's interesting to compare the two performances in multichannel sound, since the Beethoven is two-track, while the Mendelssohn offers three. I have to say that I greatly prefer both regular stereo and the two-track SACD, which place Heifetz more naturally on the soundstage. In the Mendelssohn, he's too prominently in the center channel, and some of the more involving interaction between soloist and orchestra (in the finale, primarily) suffers as a result. This may all sound different on other equipment, of course, but what isn't in dispute is the excellence of the performances themselves. – David Hurwitz

Jascha Heifetz, Charles Munch -  Beethoven, Mendelssohn: Violin Concertos (2004)

Track List:

Ludwig van Beethoven
Violin Concerto op. 61

1. Allegro, Ma Non Troppo
2. Larghetto
3. Rondo: Allegro

Felix Mendelssohn
Violin Concerto e-moll op. 64

4. Allegro Molto Appassionato
5. Andante
6. Allegretto Non Troppo; Allegro Molto Vivace

Performers:
Jascha Heifetz, violin
Boston Symphony Orchestra
Charles Munch, conductor

X Lossless Decoder version 20090320 (105.1)

XLD extraction logfile from 2009-06-07 14:07:11 +0400

Jascha Heifetz, Charles Munch, Boston Symphony Orchestra / Beethoven; Mendelssohn: Violin Concertos

Used drive : MATSHITA DVD-R UJ-857E (revision ZF1E)

Use cdparanoia mode : YES (CDParanoia III 9.8 engine)
Disable audio cache : OK for the drive with cache less than 370KB
Make use of C2 pointers : NO
Read offset correction : 102
Max retry count : 100

TOC of the extracted CD
Track | Start | Length | Start sector | End sector
––––––––––––––––––––––––––––-
1 | 00:00:00 | 20:40:54 | 0 | 93053
2 | 20:40:54 | 08:45:13 | 93054 | 132441
3 | 29:25:67 | 08:30:67 | 132442 | 170758
4 | 37:56:59 | 11:00:69 | 170759 | 220327
5 | 48:57:53 | 07:01:24 | 220328 | 251926
6 | 55:59:02 | 05:58:55 | 251927 | 278831

List of alternate offset correction values
# | Absolute | Relative | Confidence
–––––––––––––––––––––
1 | 114 | 12 | 19
2 | 84 | -18 | 9

All Tracks
Filename : /Users/Nadine/Documents/Azureus Downloads/Beethoven Mendelson Heifetz Munch/Beethoven; Mendelssohn: Violin Concertos.flac
CRC32 hash (test run) : 4CA8ACB7
CRC32 hash : 4CA8ACB7
CRC32 hash (skip zero) : D6D6ADC8
Statistics
Read error : 0
Skipped (treated as error) : 0
Edge jitter error (maybe fixed) : 0
Atom jitter error (maybe fixed) : 0
Drift error (maybe fixed) : 0
Dropped bytes error (maybe fixed) : 0
Duplicated bytes error (maybe fixed) : 0
Inconsistency in error sectors : 0

Track 01
CRC32 hash (test run) : 4F13B5E0
CRC32 hash : 4F13B5E0
CRC32 hash (skip zero) : 014272C0
AccurateRip signature : 6BAC2762
->Accurately ripped! (confidence 13)
Statistics
Read error : 0
Skipped (treated as error) : 0
Edge jitter error (maybe fixed) : 0
Atom jitter error (maybe fixed) : 0
Drift error (maybe fixed) : 0
Dropped bytes error (maybe fixed) : 0
Duplicated bytes error (maybe fixed) : 0
Inconsistency in error sectors : 0

Track 02
CRC32 hash (test run) : 501E54D2
CRC32 hash : 501E54D2
CRC32 hash (skip zero) : 8D1DD20C
AccurateRip signature : 89782F48
->Accurately ripped! (confidence 13)
Statistics
Read error : 0
Skipped (treated as error) : 0
Edge jitter error (maybe fixed) : 0
Atom jitter error (maybe fixed) : 0
Drift error (maybe fixed) : 0
Dropped bytes error (maybe fixed) : 0
Duplicated bytes error (maybe fixed) : 0
Inconsistency in error sectors : 0

Track 03
CRC32 hash (test run) : 80F88F98
CRC32 hash : 80F88F98
CRC32 hash (skip zero) : 07C3C26A
AccurateRip signature : 5659C122
->Accurately ripped! (confidence 13)
Statistics
Read error : 0
Skipped (treated as error) : 0
Edge jitter error (maybe fixed) : 0
Atom jitter error (maybe fixed) : 0
Drift error (maybe fixed) : 0
Dropped bytes error (maybe fixed) : 0
Duplicated bytes error (maybe fixed) : 0
Inconsistency in error sectors : 0

Track 04
CRC32 hash (test run) : 7BF44C28
CRC32 hash : 7BF44C28
CRC32 hash (skip zero) : 4C2F57D5
AccurateRip signature : 87AB2A6A
->Accurately ripped! (confidence 13)
Statistics
Read error : 0
Skipped (treated as error) : 0
Edge jitter error (maybe fixed) : 0
Atom jitter error (maybe fixed) : 0
Drift error (maybe fixed) : 0
Dropped bytes error (maybe fixed) : 0
Duplicated bytes error (maybe fixed) : 0
Inconsistency in error sectors : 0

Track 05
CRC32 hash (test run) : 373086FE
CRC32 hash : 373086FE
CRC32 hash (skip zero) : D80D57E1
AccurateRip signature : C9815E3A
->Accurately ripped! (confidence 13)
Statistics
Read error : 0
Skipped (treated as error) : 0
Edge jitter error (maybe fixed) : 0
Atom jitter error (maybe fixed) : 0
Drift error (maybe fixed) : 0
Dropped bytes error (maybe fixed) : 0
Duplicated bytes error (maybe fixed) : 0
Inconsistency in error sectors : 0

Track 06
CRC32 hash (test run) : 38E25721
CRC32 hash : 38E25721
CRC32 hash (skip zero) : 3A84AA77
AccurateRip signature : 89C6D336
->Accurately ripped! (confidence 12)
Statistics
Read error : 0
Skipped (treated as error) : 0
Edge jitter error (maybe fixed) : 0
Atom jitter error (maybe fixed) : 0
Drift error (maybe fixed) : 0
Dropped bytes error (maybe fixed) : 0
Duplicated bytes error (maybe fixed) : 0
Inconsistency in error sectors : 0

No errors occurred

End of status report

[CUETools log; Date: 11.04.2018 11:43:08; Version: 2.1.5]
[CTDB TOCID: d4ae7KgjI48ERrv.T0nIm23tVw8-] found.
Track | CTDB Status
1 | (344/345) Accurately ripped
2 | (344/345) Accurately ripped
3 | (343/345) Accurately ripped
4 | (341/345) Accurately ripped
5 | (342/345) Accurately ripped
6 | (337/345) Accurately ripped
[AccurateRip ID: 001181ce-0058fb49-570e8506] found.
Track [ CRC | V2 ] Status
01 [6bac2762|4545e1ab] (044+063/476) Accurately ripped
02 [89782f48|8230c1e6] (044+063/477) Accurately ripped
03 [5659c122|4e6c2bf1] (044+063/475) Accurately ripped
04 [87ab2a6a|bdbaad73] (044+065/478) Accurately ripped
05 [c9815e3a|3ea72124] (044+065/478) Accurately ripped
06 [89c6d336|a138d384] (042+065/469) Accurately ripped
Offsetted by -18:
01 [8b65b01f] (013/476) Accurately ripped
02 [d96fabab] (013/477) Accurately ripped
03 [2f3c0ae0] (013/475) Accurately ripped
04 [29243add] (013/478) Accurately ripped
05 [48f55bfd] (013/478) Accurately ripped
06 [bb0e3eea] (013/469) Accurately ripped
Offsetted by -6:
01 [28be7093] (005/476) Accurately ripped
02 [0b19df06] (005/477) Accurately ripped
03 [9ee473f2] (004/475) Accurately ripped
04 [7fbc95ea] (005/478) Accurately ripped
05 [cfe11231] (005/478) Accurately ripped
06 [a3b57750] (005/469) Accurately ripped
Offsetted by 12:
01 [6663374b] (040/476) Accurately ripped
02 [b691b3cf] (040/477) Accurately ripped
03 [9e7b323d] (040/475) Accurately ripped
04 [da8bbc83] (040/478) Accurately ripped
05 [ddc6e291] (040/478) Accurately ripped
06 [867d0267] (038/469) Accurately ripped
Offsetted by 556:
01 [57db559f] (025/476) Accurately ripped
02 [131c7cbc] (025/477) Accurately ripped
03 [81279d4c] (025/475) Accurately ripped
04 [e00ddf76] (025/478) Accurately ripped
05 [682d1c09] (025/478) Accurately ripped
06 [60d40100] (024/469) Accurately ripped
Offsetted by 646:
01 [f38280cd] (010/476) Accurately ripped
02 [83e7e4bd] (010/477) Accurately ripped
03 [261f7210] (010/475) Accurately ripped
04 [74cec352] (010/478) Accurately ripped
05 [981464e2] (010/478) Accurately ripped
06 [a83512aa] (010/469) Accurately ripped
Offsetted by -664:
01 [54acb65c] (000/476) No match (V2 was not tested)
02 [5a93686f] (000/477) No match (V2 was not tested)
03 [317becd8] (000/475) No match (V2 was not tested)
04 [cb110d2b] (000/478) No match (V2 was not tested)
05 [9b8be0dc] (000/478) No match (V2 was not tested)
06 [f0e7ec1d] (000/469) No match (V2 was not tested)

Track Peak [ CRC32 ] [W/O NULL]
– 99,7 [4CA8ACB7] [D6D6ADC8]
01 90,2 [4F13B5E0] [014272C0]
02 65,0 [501E54D2] [8D1DD20C]
03 99,7 [80F88F98] [07C3C26A]
04 76,3 [7BF44C28] [4C2F57D5]
05 65,4 [373086FE] [D80D57E1]
06 75,8 [38E25721] [3A84AA77]

Thanks to the Original ripper (unknown)!

Download: