Jay Ferguson - Real Life Ain't This Way (1979) [2003, Remastered Reissue]

Posted By: BlondStyle
Jay Ferguson - Real Life Ain't This Way (1979) [2003, Remastered Reissue]

Jay Ferguson - Real Life Ain't This Way (1979) [2003, Remastered Reissue]
Pop/Rock, Singer/Songwriter | EAC Rip | FLAC, Img+CUE+LOG+Full Scans (JPEG) | 38:42 Min | 289,17 Mb
Label: Collectors' Choice Music (USA) | Released: 2003, May, 15

Spirit and Jo Jo Gunne veteran Jay Ferguson had one of the most enjoyable hits of the '70s with 1977's "Thunder Island." The vocalist/keyboardist was spared one-hit wonder status with one more Top 40 single, the terrific "Shakedown Cruise" from the 1979 follow-up Real Life Ain't This Way. It's a slick, professionally performed album, but except for "Shakedown Cruise," the songs aren't terribly memorable. The high level of craftsmanship is due to the personnel involved. The executive producer is Bill Szymczyk and the musicians include ex-Jo Jo Gunne and future Boston drummer Curly Smith and latter-day James Gang guitarist Bob Webb. Also lending a hand are Joe Walsh and Walsh's longtime drummer, Joe Vitale. The sleek interplay between Webb and additional guitarist Tony Battaglia provides integral support for Ferguson, particularly on "Shakedown Cruise." The spry piano chords and bright-yet-crunchy guitars fit nicely with the vocal melody. A bouncy, Billy Joel-esque feel permeates "No Secrets." The jazzy saxophone solo by Col Clesser adds a bit of spice to the otherwise laid-back "Real Life Ain't That Way." The lyrics of "Davey" are slight, thus, it would have been better off as an instrumental to showcase the musicians' skills. There's a bit of sparkle to "Paying Time," which includes Walsh on lead guitar. The pleasant ballad "Too Late to Save Your Heart" is punctuated by Mark Colby's saxophone work. A straightforward cover medley of the Rolling Stones' "Let's Spend the Night Together" and "Have You Seen Your Mother, Baby, Standing in the Shadow?" is indicative of both a shortage of original songs and a desire to just have a fun studio jam. Real Life Ain't This Way is long out of print. ~Review by Bret Adams~
Jay Ferguson - Real Life Ain't This Way (1979) [2003, Remastered Reissue]

Jay Ferguson - Real Life Ain't This Way (1979) [2003, Remastered Reissue]


Release of the album: 1979 [LP Asylum Records, Cat.# 6E-158, USA]
Release of this CD: 2003, May, 15 [CD Collectors' Choice Music (USA), Cat.# CCM-362-2 / UPC: 617742036220]
© 2003 Collectors' Choice Music, ℗ 2003 All selections produced under license from Elektra Entertainment Group.
Manufactured by Rhino Entertainment Company

Art Direction – Johnny Lee, Ron Coro
Backing Vocals – Bill Szymczyk (tracks: 1), Bob Webb, Jay Ferguson, Tony Battaglia
Bass – Scott Chambers
Drums – Curly Smith (tracks: 1, 7, 9), Joe Vitale (tracks: 2, 3, 8), Stan Kipper (tracks: 4, 5, 10)
Engineer, Mixed By – Ed Mashal
Engineer, Mixed By [Assistant] – David Crowther, Terry Nelson
Executive-Producer – Gordon Anderson
Guitar – Bob Webb, Tony Battaglia
Keyboards – Jay Ferguson (tracks: 5, 7, 8, 9)
Lead Guitar – Bob Webb (tracks: 2, 4, 5), Tony Battaglia (tracks: 1, 6)
Mastered By – Bob Fisher
Piano – Jay Ferguson (tracks: 1, 2, 3, 10)
Producer – Ed "Radar" Mashal, Jay Ferguson
Slide Guitar – Tony Battaglia (tracks: 6, 9, 10)
Synthesizer – Jay Ferguson (tracks: 1, 2)


Tracklist:

01. Shakedown Cruise (04:12)
(Jay Ferguson)
02. No Secrets (03:41)
(Jay Ferguson, Robert Webb)
03. Real Life Ain't That Way (04:04)
(Jay Ferguson)
04. Davey (03:37)
(Jay Ferguson)
05. Turn Yourself In (03:35)
(Jay Ferguson)
06. Do It Again (04:14)
(Jay Ferguson)
07. Paying Time (04:04)
(Jay Ferguson)
08. Too Late To Save Your Heart (03:55)
(Jay Ferguson)
09. Let's Spend The Night Together: Have You Seen Your Mother, Baby, Standing In The Shadow? (03:32)
(Mick Jagger / Keith Richards)
10. City Of Angels (03:48)
(Jay Ferguson)

Exact Audio Copy V1.1 from 23. June 2015

Отчёт EAC об извлечении, выполненном 19. февраля 2016, 18:32

Jay Ferguson / Real Life Ain't This Way

Дисковод: ASUS DRW-24B3ST Adapter: 0 ID: 0

Режим чтения : Достоверность
Использование точного потока : Да
Отключение кэша аудио : Да
Использование указателей C2 : Нет

Коррекция смещения при чтении : 6
Способность читать области Lead-in и Lead-out : Нет
Заполнение пропущенных сэмплов тишиной : Да
Удаление блоков с тишиной в начале и конце : Нет
При вычислениях CRC использовались нулевые сэмплы : Да
Интерфейс : Установленный внешний ASPI-интерфейс

Выходной формат : Пользовательский кодировщик
Выбранный битрейт : 1024 kBit/s
Качество : Высокий
Добавление ID3-тега : Нет
Утилита сжатия : C:\Program Files (x86)\Exact Audio Copy\FLAC\FLAC.EXE
Дополнительные параметры : -6 -V -T "ARTIST=%artist%" -T "TITLE=%title%" -T "ALBUM=%albumtitle%" -T "DATE=%year%" -T "TRACKNUMBER=%tracknr%" -T "GENRE=%genre%" -T "COMMENT=%comment%" -T "BAND=%albuminterpret%" -T "ALBUMARTIST=%albuminterpret%" -T "COMPOSER=%composer%" %haslyrics%–tag-from-file=LYRICS="%lyricsfile%"%haslyrics% -T "DISCNUMBER=%cdnumber%" -T "TOTALDISCS=%totalcds%" -T "TOTALTRACKS=%numtracks%" %hascover%–picture="%coverfile%"%hascover% %source% -o %dest%


TOC извлечённого CD

Трек | Старт | Длительность | Начальный сектор | Конечный сектор
––––––––––––––––––––––––––––––––––-
1 | 0:00.00 | 4:12.33 | 0 | 18932
2 | 4:12.33 | 3:40.47 | 18933 | 35479
3 | 7:53.05 | 4:04.04 | 35480 | 53783
4 | 11:57.09 | 3:36.72 | 53784 | 70055
5 | 15:34.06 | 3:34.74 | 70056 | 86179
6 | 19:09.05 | 4:14.33 | 86180 | 105262
7 | 23:23.38 | 4:03.63 | 105263 | 123550
8 | 27:27.26 | 3:55.36 | 123551 | 141211
9 | 31:22.62 | 3:32.11 | 141212 | 157122
10 | 34:54.73 | 3:47.42 | 157123 | 174189


Характеристики диапазона извлечения и сообщения об ошибках

Выбранный диапазон

Имя файла E:\Torrents\Jay Ferguson ‎– 1979 - Real Life Ain't This Way\Jay Ferguson - Real Life Ain't This Way.wav

Пиковый уровень 100.0 %
Скорость извлечения 8.1 X
Качество диапазона 100.0 %
CRC теста FBA5517E
CRC копии FBA5517E
Копирование… OK

Ошибок не произошло

Конец отчёта

==== Контрольная сумма отчёта 83E82C7E55A3D3479B93B133F9B994AF49F0CA1D5B8098BBCA960F854C801E7C ====

foobar2000 1.3.9 / Dynamic Range Meter 1.1.1
log date: 2016-03-05 21:17:37

––––––––––––––––––––––––––––––––––––––––
Analyzed: Jay Ferguson / Real Life Ain't This Way
––––––––––––––––––––––––––––––––––––––––

DR Peak RMS Duration Track
––––––––––––––––––––––––––––––––––––––––
DR17 0.00 dB -19.96 dB 4:12 01-Shakedown Cruise
DR13 0.00 dB -15.34 dB 3:41 02-No Secrets
DR15 0.00 dB -18.20 dB 4:04 03-Real Life Ain't This Way
DR14 0.00 dB -17.29 dB 3:37 04-Davey
DR14 0.00 dB -16.24 dB 3:35 05-Turn Yourself In
DR14 0.00 dB -17.38 dB 4:14 06-Do It Again
DR17 0.00 dB -19.51 dB 4:04 07-Paying Time
DR15 0.00 dB -18.59 dB 3:55 08-Too Late To Save Your Heart
DR13 0.00 dB -16.54 dB 3:32 09-Let's Spend the Night Together / Have You Seen Your Mother, Baby, Standing In…
DR15 0.00 dB -19.83 dB 3:48 10-City of Angels
––––––––––––––––––––––––––––––––––––––––

Number of tracks: 10
Official DR value: DR15

Samplerate: 44100 Hz
Channels: 2
Bits per sample: 16
Bitrate: 901 kbps
Codec: FLAC
================================================================================

All thanks to Копысов
Nitroflare
password: BlondStyle