Subcategories

Jazz Crusaders - Louisiana Hot Sauce (1996) {Sin-Drome HDCD}

Posted By: tiburon
Jazz Crusaders - Louisiana Hot Sauce (1996) {Sin-Drome HDCD}

Jazz Crusaders - Louisiana Hot Sauce (1996) {Sin-Drome HDCD}
EAC 1.0b3 | FLAC Image | Cue+Log | Full Scans 300dpi | 499MB + 5% Recovery
MP3 CBR 320 Kbps | 162MB + 5% Recovery
Genre: Jazz-Funk, Funk, Soul
Jazz Crusaders - Louisiana Hot Sauce (1996) {Sin-Drome HDCD}

A cleverly-themed album marked by rootsy Bayou accents, the Jazz Crusaders' Louisiana Hot Sauce (Music for all Kitchens) can be a rollicking good time. Swirling concoctions like the dobro and slide guitar-spiced "Red Beans and Rice" are edgier than normal Crusaders' fare, tapping gleefully into the duo's roots. Trombonist Wayne Henderson in particular benefits from sweaty workouts on tracks like the zydeco-tinged "File Mystique," and wailing "Crawdaddy." Henderson's soulful trombone also serves as the album connector to concept-stretchers like "Sweet Praline (When You're So Far Away)," which is a pretty, typically Crusader-ish mid-tempo ballad (sung by Dionne Warwick), simply re-titled to fit the album's culinary New Orleans theme. Other tracks appear similarly out of context (though one could argue that the throaty soul vocals of Bobby Womack are enough of a tie-in for "Cool Brew Koffee (No Way Out of Loving You)"), but well-developed theme tracks like the outrageous, percussive stomp, "Catfish Mardi Gras," with its rolling drum and prickly guitar, are truly inspired. Henderson and partner Winton Felder would do well to continue exploring these well-matched swamp textures in subsequent releases.
Track List
01. Mumbo Gumbo 4:33
02. Red Beans and Rice 6:25
03. Peachy Pie 5:52
04. Sweet Praline (When You're So Far Away) 4:37
05. Crawdaddy 5:20
06. Jam-Balaya (Nitelife) 3:49
07. Caramel Supreme 5:17
08. Honey & Spice Broule 6:51
09. File Mystique 5:49
10. Cool Brew Koffee (No Way Out of Loving You) 5:13
11. Soul Etouffe 4:25
12. Down and Dirty (Ya Ya) 6:18
13. Catfish Mardi Gras 5:42

musicians
Wayne Henderson - Trombone, Vocals
Wilton Felder - Saxophone (Alto), Saxophone (Soprano), Saxophone (Tenor)
Bobby Lyle - Keyboards, Piano
Willie Green - Drums
Dwight Sills - Guitar
Leon Askew - Keyboards, Programming
Noel Clossen - Drums, Programming
Larry Carlton - Guitar
Patryce Banks - Vocals (Background)
Cynthia Bass - Vocals (Background)
Jon Cleary - Keyboards, Piano
Craig T. Cooper - Guitar
Domino - vocals
Anthony Dopsie - Accordion
Larry Graham - Bass
Monica Jackson - vocals
Keb' Mo' - Double Bass, Slide Guitar
Freddy Koella - Violin
Greg Moore - Guitar
Dionne Warwick - Vocals
Bobby Womack - Guitar (Acoustic)

Produced by Wayne Henderson


Exact Audio Copy V1.0 beta 3 from 29. August 2011

EAC extraction logfile from 19. May 2012, 2:18

Jazz Crusaders / Louisiana Hot Sauce

Used drive : Memorex 52MAXX 3252AJ1 Adapter: 1 ID: 0

Read mode : Secure
Utilize accurate stream : Yes
Defeat audio cache : Yes
Make use of C2 pointers : No

Read offset correction : 6
Overread into Lead-In and Lead-Out : No
Fill up missing offset samples with silence : Yes
Delete leading and trailing silent blocks : No
Null samples used in CRC calculations : Yes
Used interface : Native Win32 interface for Win NT & 2000

Used output format : User Defined Encoder
Selected bitrate : 1024 kBit/s
Quality : High
Add ID3 tag : No
Command line compressor : C:\Program Files (x86)\Exact Audio Copy\wavpack.exe
Additional command line options : -w "Artist=%artist%" -w "Title=%title%" -w "Album=%albumtitle%" -w "Year=%year%" -w "Track=%tracknr%" -w "Genre=%genre%" -h %source% %dest%


TOC of the extracted CD

Track | Start | Length | Start sector | End sector
––––––––––––––––––––––––––––-
1 | 0:00.00 | 4:40.22 | 0 | 21021
2 | 4:40.22 | 6:16.25 | 21022 | 49246
3 | 10:56.47 | 5:53.10 | 49247 | 75731
4 | 16:49.57 | 4:38.18 | 75732 | 96599
5 | 21:28.00 | 5:20.17 | 96600 | 120616
6 | 26:48.17 | 3:48.58 | 120617 | 137774
7 | 30:37.00 | 5:28.15 | 137775 | 162389
8 | 36:05.15 | 7:07.40 | 162390 | 194454
9 | 43:12.55 | 6:02.52 | 194455 | 221656
10 | 49:15.32 | 4:05.03 | 221657 | 240034
11 | 53:20.35 | 4:27.65 | 240035 | 260124
12 | 57:48.25 | 6:18.32 | 260125 | 288506
13 | 64:06.57 | 6:55.53 | 288507 | 319684


Range status and errors

Selected range

Filename C:\Users\M@ce\Music\Archives\Rips\Jazz Crusaders - Louisiana Hot Sauce.wav

Peak level 99.0 %
Extraction speed 9.5 X
Range quality 100.0 %
Test CRC 58142D59
Copy CRC 58142D59
Copy OK

No errors occurred


AccurateRip summary

Track 1 accurately ripped (confidence 2) [3D1F6739] (AR v1)
Track 2 accurately ripped (confidence 2) [CB6987FB] (AR v1)
Track 3 accurately ripped (confidence 2) [4E2D4CF1] (AR v1)
Track 4 accurately ripped (confidence 2) [E51A2BF1] (AR v1)
Track 5 accurately ripped (confidence 2) [00F8F7A8] (AR v1)
Track 6 accurately ripped (confidence 2) [3F222A67] (AR v1)
Track 7 accurately ripped (confidence 2) [EF1280EC] (AR v1)
Track 8 accurately ripped (confidence 2) [A5CB2819] (AR v1)
Track 9 accurately ripped (confidence 2) [76ED503F] (AR v1)
Track 10 accurately ripped (confidence 2) [51DA882F] (AR v1)
Track 11 accurately ripped (confidence 2) [0162EDB6] (AR v1)
Track 12 accurately ripped (confidence 2) [761CCC40] (AR v1)
Track 13 accurately ripped (confidence 2) [FE3ACF14] (AR v1)

All tracks accurately ripped

End of status report

–– CUETools DB Plugin V2.1.4

[CTDB TOCID: ea5AjVB1p4ydAXEWqmvzvt8RqLc-] found
Submit result: already submitted
Track | CTDB Status
1 | (2/2) Accurately ripped
2 | (2/2) Accurately ripped
3 | (2/2) Accurately ripped
4 | (2/2) Accurately ripped
5 | (2/2) Accurately ripped
6 | (2/2) Accurately ripped
7 | (2/2) Accurately ripped
8 | (2/2) Accurately ripped
9 | (2/2) Accurately ripped
10 | (2/2) Accurately ripped
11 | (2/2) Accurately ripped
12 | (2/2) Accurately ripped
13 | (2/2) Accurately ripped


==== Log checksum B9DB4BBC77F5E383D27AD8C6047D3CE9AB3CFC52309C2CB154B52C9B969CB4A9 ====

Jazz Crusaders - Louisiana Hot Sauce (1996) {Sin-Drome HDCD}
Jazz Crusaders - Louisiana Hot Sauce (1996) {Sin-Drome HDCD}


Thanks to the original ripper