Subcategories

Jean-Jacques Kantorow, Tapiola Sinfonietta - Weber: Overtures (2011)

Posted By: tirexiss
Jean-Jacques Kantorow, Tapiola Sinfonietta - Weber: Overtures (2011)

Jean-Jacques Kantorow, Tapiola Sinfonietta - Weber: Overtures (2011)
EAC | FLAC (image+.cue, log) | Covers Included | 67:35 | 299 MB
Genre: Classical | Label: BIS | Catalog: BID-SACD-1760

The overtures of early Romantic composer Carl Maria von Weber are among his most appealing works, and their colorful orchestration, vivid scene-painting, and abundant tunefulness have made them favorite concert openers, long after most of their associated operas dropped out of the repertoire. This generous bybrid SACD by the Tapiola Sinfonietta, conducted by Jean-Jacques Kantorow, presents the most popular overtures Oberon, Euryanthe, and Der Freischütz with seven less famous but equally engaging pieces that fill out the program. Kantorow strives for a highly theatrical quality in his interpretations, so the music always has an air of expectancy and the orchestra's dynamic playing really conjures up the exciting feeling of an operatic performance.The DSD and multichannel sound is a real plus for this music, giving the orchestral parts definition and presence, and the finer points of articulation and expression come across with great clarity. Highly recommended. – Blair Sanderson

Jean-Jacques Kantorow, Tapiola Sinfonietta - Weber: Overtures (2011)

Track List:

Carl Maria von Weber (1786–1826)

01. Der Beherrscher der Geister
02. Turandot, Prinzessin von China
03. Abu Hassan
04. Der Freischütz
05. Oberon
06. Euryanthe
07. Peter Schmoll und seine Nachbarn
08. Preciosa
09. Silvana
10. Jubel-Ouvertüre

Performers:
Tapiola Sinfonietta
Jean-Jacques Kantorow, conductor

Exact Audio Copy V1.3 from 2. September 2016

EAC extraction logfile from 17. November 2017, 21:40

Tapiola Sinfonietta, Jean-Jacques Kantorow / Weber - Overtures

Used drive : PLDS DVD-RW DU8A6SH Adapter: 1 ID: 0

Read mode : Secure
Utilize accurate stream : Yes
Defeat audio cache : Yes
Make use of C2 pointers : No

Read offset correction : 6
Overread into Lead-In and Lead-Out : No
Fill up missing offset samples with silence : Yes
Delete leading and trailing silent blocks : No
Null samples used in CRC calculations : Yes
Used interface : Native Win32 interface for Win NT & 2000

Used output format : User Defined Encoder
Selected bitrate : 128 kBit/s
Quality : High
Add ID3 tag : No
Command line compressor : C:\Program Files (x86)\Exact Audio Copy\Flac\flac.exe
Additional command line options : -V -8 -T "Date=%year%" -T "Genre=%genre%" %source%


TOC of the extracted CD

Track | Start | Length | Start sector | End sector
––––––––––––––––––––––––––––-
1 | 0:00.00 | 4:58.24 | 0 | 22373
2 | 4:58.24 | 4:19.47 | 22374 | 41845
3 | 9:17.71 | 3:35.12 | 41846 | 57982
4 | 12:53.08 | 8:38.16 | 57983 | 96848
5 | 21:31.24 | 8:46.13 | 96849 | 136311
6 | 30:17.37 | 7:53.51 | 136312 | 171837
7 | 38:11.13 | 8:33.35 | 171838 | 210347
8 | 46:44.48 | 7:40.57 | 210348 | 244904
9 | 54:25.30 | 5:43.11 | 244905 | 270640
10 | 60:08.41 | 7:34.46 | 270641 | 304736


Range status and errors

Selected range

Filename C:\temp\BIS-SACD-1760 - Weber - Overtures\Weber - Overtures.wav

Peak level 99.8 %
Extraction speed 4.0 X
Range quality 99.9 %
Test CRC D8F9BEB2
Copy CRC D8F9BEB2
Copy OK

No errors occurred


AccurateRip summary

Track 1 accurately ripped (confidence 6) [75803016] (AR v2)
Track 2 accurately ripped (confidence 6) [5D148439] (AR v2)
Track 3 accurately ripped (confidence 6) [0A4B1B48] (AR v2)
Track 4 accurately ripped (confidence 6) [CA4DE54D] (AR v2)
Track 5 accurately ripped (confidence 6) [CFD38564] (AR v2)
Track 6 accurately ripped (confidence 6) [44BD2E87] (AR v2)
Track 7 accurately ripped (confidence 6) [BB7CED7E] (AR v2)
Track 8 accurately ripped (confidence 6) [E6BBCDEB] (AR v2)
Track 9 accurately ripped (confidence 6) [DD85EA41] (AR v2)
Track 10 accurately ripped (confidence 6) [3C631517] (AR v2)

All tracks accurately ripped

End of status report

==== Log checksum C0B42270D0688D68F183EAB7A547916D6EB4671CCE72940690FF1DD85BE71581 ====

[CUETools log; Date: 24.11.2017 9:47:58; Version: 2.1.5]
[CTDB TOCID: gVZTNxk77FYP.9PbO3SV_vR8SXA-] found.
Track | CTDB Status
1 | (6/6) Accurately ripped
2 | (6/6) Accurately ripped
3 | (6/6) Accurately ripped
4 | (6/6) Accurately ripped
5 | (6/6) Accurately ripped
6 | (6/6) Accurately ripped
7 | (6/6) Accurately ripped
8 | (6/6) Accurately ripped
9 | (6/6) Accurately ripped
10 | (6/6) Accurately ripped
[AccurateRip ID: 0017c549-00c41da8-890fdf0a] found.
Track [ CRC | V2 ] Status
01 [d95a216d|75803016] (0+6/6) Accurately ripped
02 [7b82a8ac|5d148439] (0+6/6) Accurately ripped
03 [acbebfe4|0a4b1b48] (0+6/6) Accurately ripped
04 [97a725b7|ca4de54d] (0+6/6) Accurately ripped
05 [ff65de25|cfd38564] (0+6/6) Accurately ripped
06 [63e4e1a8|44bd2e87] (0+6/6) Accurately ripped
07 [d5469cbb|bb7ced7e] (0+6/6) Accurately ripped
08 [4cb35823|e6bbcdeb] (0+6/6) Accurately ripped
09 [9a89861e|dd85ea41] (0+6/6) Accurately ripped
10 [63c20e62|3c631517] (0+6/6) Accurately ripped

Track Peak [ CRC32 ] [W/O NULL] [ LOG ]
– 99,8 [D8F9BEB2] [0FC87076] CRC32
01 99,8 [15E83EE3] [D2916488]
02 75,6 [386D8711] [7EE8467E]
03 89,1 [13C6AE21] [E851108D]
04 67,1 [C345D6DF] [F1B87771]
05 99,8 [D7F63143] [F72A260F]
06 73,5 [18F25F97] [35C16113]
07 70,2 [EEC11C5C] [4D52FF96]
08 54,6 [2694D7C0] [7BE336DB]
09 68,9 [94A3022F] [97D3CFB4]
10 99,8 [A64737F8] [81ADB64C]

Thanks to the Original ripper A-Z!

Download: