Tags
Language
Tags

Jean Michel Jarre - Oxygene (1976) {2014, Remastered} Re-Up

Posted By: popsakov
Jean Michel Jarre - Oxygene (1976) {2014, Remastered} Re-Up

Jean Michel Jarre - Oxygene (1976) {2014, Remastered}
EAC Rip | FLAC (Img) + Cue + Log ~ 277 Mb | MP3 CBR320 ~ 96 Mb
Full Scans ~ 129 Mb | RAR 5% Recovery
Disques Dreyfus / BMG / Sony Music / Warner Music Russia #88843089342
Electronic / Ambient

Digitally remastered edition of this 1976 album from the French composer, performer and music producer. Jean Michel, the son of acclaimed film composer Maurice Jarre, is a pioneer in the Electronic, Ambient and New Age genres. Apart from his recorded output, Jean Michel Jarre is also fondly known as an organizer of outdoor spectacles of his music featuring lights, laser displays, and fireworks. Jean Michel has gone on to sell well over 80 million albums in the course of 40 years.

***************

Jean Michel Jarre - Oxygene (1976) {2014, Remastered} Re-Up

Track List:

01. Oxygene, Pt. 1 [0:07:40.48]
02. Oxygene, Pt. 2 [0:07:46.23]
03. Oxygene, Pt. 3 [0:03:16.55]
04. Oxygene, Pt. 4 [0:04:06.67]
05. Oxygene, Pt. 5 [0:10:15.13]
06. Oxygene, Pt. 6 [0:06:36.27]

Exact Audio Copy V1.0 beta 3 from 29. August 2011

EAC extraction logfile from 14. November 2015, 21:43

Jean Michel Jarre / Oxygene

Used drive : PLEXTOR DVDR PX-L890SA Adapter: 3 ID: 1

Read mode : Secure
Utilize accurate stream : Yes
Defeat audio cache : Yes
Make use of C2 pointers : No

Read offset correction : 6
Overread into Lead-In and Lead-Out : No
Fill up missing offset samples with silence : Yes
Delete leading and trailing silent blocks : No
Null samples used in CRC calculations : Yes
Used interface : Native Win32 interface for Win NT & 2000

Used output format : User Defined Encoder
Selected bitrate : 768 kBit/s
Quality : High
Add ID3 tag : No
Command line compressor : C:\Program Files (x86)\Exact Audio Copy\Flac\flac.exe
Additional command line options : -V -8 -T "Date=%year%" -T "Genre=%genre%" %source%


TOC of the extracted CD

Track | Start | Length | Start sector | End sector
––––––––––––––––––––––––––––-
1 | 0:00.00 | 7:40.48 | 0 | 34547
2 | 7:40.48 | 7:46.23 | 34548 | 69520
3 | 15:26.71 | 3:16.55 | 69521 | 84275
4 | 18:43.51 | 4:06.67 | 84276 | 102792
5 | 22:50.43 | 10:15.13 | 102793 | 148930
6 | 33:05.56 | 6:36.27 | 148931 | 178657


Range status and errors

Selected range

Filename H:\MUSIC\1976. Jean Michel Jarre - Oxygene (Sony-BMG 88843089342, Russia)\Jean Michel Jarre - Oxygene.wav

Peak level 98.9 %
Extraction speed 8.2 X
Range quality 99.9 %
Test CRC EFD3F6FD
Copy CRC EFD3F6FD
Copy OK

No errors occurred


AccurateRip summary

Track 1 accurately ripped (confidence 77) [6020F585] (AR v2)
Track 2 accurately ripped (confidence 77) [AC96B247] (AR v2)
Track 3 accurately ripped (confidence 76) [F4513953] (AR v2)
Track 4 accurately ripped (confidence 77) [B82FEBD9] (AR v2)
Track 5 accurately ripped (confidence 76) [77710A87] (AR v2)
Track 6 accurately ripped (confidence 75) [9197F33D] (AR v2)

All tracks accurately ripped

End of status report

==== Log checksum FE2067B7A59E585BBEB06EDA3E694ECDA8A1960A511A39E5A25FED066E1653F5 ====

foobar2000 1.2.6 / Dynamic Range Meter 1.1.1
log date: 2015-12-05 17:32:39

––––––––––––––––––––––––––––––––––––––––
Analyzed: Jean Michel Jarre / Oxygene
––––––––––––––––––––––––––––––––––––––––

DR Peak RMS Duration Track
––––––––––––––––––––––––––––––––––––––––
DR8 -0.22 dB -11.63 dB 7:41 01-Oxygene, Pt. 1
DR7 -0.11 dB -8.30 dB 7:46 02-Oxygene, Pt. 2
DR8 -0.20 dB -10.24 dB 3:17 03-Oxygene, Pt. 3
DR7 -0.09 dB -8.03 dB 4:07 04-Oxygene, Pt. 4
DR7 -0.13 dB -10.59 dB 10:15 05-Oxygene, Pt. 5
DR6 -0.10 dB -9.44 dB 6:36 06-Oxygene, Pt. 6
––––––––––––––––––––––––––––––––––––––––

Number of tracks: 6
Official DR value: DR7

Samplerate: 44100 Hz
Channels: 2
Bits per sample: 16
Bitrate: 926 kbps
Codec: FLAC
================================================================================

[CUETools log; Date: 05.12.2015 17:31:55; Version: 2.1.5]
[CTDB TOCID: MtLA06dwD8rKoUBPWnqFHjJ.5Q4-] found.
Track | CTDB Status
1 | (246/247) Accurately ripped
2 | (246/247) Accurately ripped
3 | (246/247) Accurately ripped
4 | (246/247) Accurately ripped
5 | (244/247) Accurately ripped
6 | (247/247) Accurately ripped
[AccurateRip ID: 000970e7-0031f0d9-50094e06] found.
Track [ CRC | V2 ] Status
01 [738baed0|6020f585] (05+87/95) Accurately ripped
02 [c2bf6dc3|ac96b247] (05+87/95) Accurately ripped
03 [86811509|f4513953] (05+86/94) Accurately ripped
04 [e5e432c1|b82febd9] (05+87/95) Accurately ripped
05 [7a591eed|77710a87] (05+86/94) Accurately ripped
06 [ebf84e1c|9197f33d] (05+85/93) Accurately ripped
Offsetted by -646:
01 [332d6a66] (00/95) No match (V2 was not tested)
02 [f1469fe9] (00/95) No match (V2 was not tested)
03 [e11aa913] (00/94) No match (V2 was not tested)
04 [e7b4c323] (00/95) No match (V2 was not tested)
05 [e7f61b86] (00/94) No match (V2 was not tested)
06 [4490d55f] (00/93) No match (V2 was not tested)

Track Peak [ CRC32 ] [W/O NULL] [ LOG ]
– 98,9 [EFD3F6FD] [F30C4E5D] CRC32
01 97,5 [67F45CB2] [6B8E06D0]
02 98,7 [04FA7D9C] [26219C29]
03 97,7 [A506BA21] [37D6540C]
04 98,9 [CE939616] [C6A74FF3]
05 98,5 [10A82460] [32FDA2BD]
06 98,9 [87332315] [B5B861B0]

Jean Michel Jarre - Oxygene (1976) {2014, Remastered} Re-Up

All thanks go to snakesharmer

>>> Jean Michel Jarre in my Blog <<<

Download from icerbox.com: