Subcategories
Tags
Language
Tags

Jean-Michel Jarre - Rendez-Vouz (1986) {2015, Remastered} Re-Up

Posted By: popsakov
Jean-Michel Jarre - Rendez-Vouz (1986) {2015, Remastered} Re-Up

Jean-Michel Jarre - Rendez-Vouz (1986) {2015, Remastered}
EAC Rip | FLAC (Img) + Cue + Log ~ 246 Mb | MP3 CBR320 ~ 85 Mb
Full Scans ~ 121 Mb | 00:35:21 | RAR 5% Recovery
Electronic, Ambient | Sony Music / Warner Music Russia #88875129512

Digitally remastered edition of this 1986 album from the French composer, performer and music producer. Jean Michel, the son of acclaimed film composer Maurice Jarre, is a pioneer in the Electronic, Ambient and New Age genres. Apart from his recorded output, Jean Michel Jarre is also fondly known as an organizer of outdoor spectacles of his music featuring lights, laser displays, and fireworks. Jean Michel has gone on to sell well over 80 million albums in the course of 40 years.

***************

Jean-Michel Jarre - Rendez-Vouz (1986) {2015, Remastered} Re-Up

Track List:

01. First Rendez Vous [0:02:55.35]
02. Second Rendez Vous [0:10:59.70]
03. Third Rendez Vous [0:03:31.39]
04. Fourth Rendez Vous [0:04:02.31]
05. Fifth Rendez Vous [0:07:47.15]
06. Last Rendez Vous [0:06:04.35]

Exact Audio Copy V1.0 beta 3 from 29. August 2011

EAC extraction logfile from 29. November 2015, 11:59

Jean-Michel Jarre / Rendez Vous

Used drive : PLEXTOR DVDR PX-L890SA Adapter: 3 ID: 1

Read mode : Secure
Utilize accurate stream : Yes
Defeat audio cache : Yes
Make use of C2 pointers : No

Read offset correction : 6
Overread into Lead-In and Lead-Out : No
Fill up missing offset samples with silence : Yes
Delete leading and trailing silent blocks : No
Null samples used in CRC calculations : Yes
Used interface : Native Win32 interface for Win NT & 2000

Used output format : User Defined Encoder
Selected bitrate : 768 kBit/s
Quality : High
Add ID3 tag : No
Command line compressor : C:\Program Files (x86)\Exact Audio Copy\Flac\flac.exe
Additional command line options : -V -8 -T "Date=%year%" -T "Genre=%genre%" %source%


TOC of the extracted CD

Track | Start | Length | Start sector | End sector
––––––––––––––––––––––––––––-
1 | 0:00.00 | 2:55.35 | 0 | 13159
2 | 2:55.35 | 10:59.70 | 13160 | 62654
3 | 13:55.30 | 3:31.39 | 62655 | 78518
4 | 17:26.69 | 4:02.31 | 78519 | 96699
5 | 21:29.25 | 7:47.15 | 96700 | 131739
6 | 29:16.40 | 6:04.35 | 131740 | 159074


Range status and errors

Selected range

Filename H:\MUSIC\1986. Jean Michel Jarre - Rendez Vouz (Sony 88875129512, Russia)\Jean-Michel Jarre - Rendez Vous.wav

Peak level 99.3 %
Extraction speed 8.1 X
Range quality 100.0 %
Test CRC 8ABC360E
Copy CRC 8ABC360E
Copy OK

No errors occurred


AccurateRip summary

Track 1 cannot be verified as accurate (confidence 3) [C594FD01], AccurateRip returned [42DAC1D5] (AR v2)
Track 2 cannot be verified as accurate (confidence 3) [8C97EA03], AccurateRip returned [1C2F0003] (AR v2)
Track 3 cannot be verified as accurate (confidence 3) [2F8D09C4], AccurateRip returned [D4516BA2] (AR v2)
Track 4 cannot be verified as accurate (confidence 3) [C892573A], AccurateRip returned [DBEF76A3] (AR v2)
Track 5 cannot be verified as accurate (confidence 3) [996F5B10], AccurateRip returned [DD748B5C] (AR v2)
Track 6 cannot be verified as accurate (confidence 3) [BCE60DE3], AccurateRip returned [C0743CAF] (AR v2)

No tracks could be verified as accurate
You may have a different pressing from the one(s) in the database

End of status report

==== Log checksum 94B609368D0998B4E8A089C79B68BC3427F23D4BE953D479E127203F8CDAD2CD ====

foobar2000 1.2.6 / Dynamic Range Meter 1.1.1
log date: 2015-12-21 17:15:56

––––––––––––––––––––––––––––––––––––––––
Analyzed: Jean-Michel Jarre / Rendez Vous
––––––––––––––––––––––––––––––––––––––––

DR Peak RMS Duration Track
––––––––––––––––––––––––––––––––––––––––
DR8 -0.06 dB -9.97 dB 2:55 01-First Rendez Vous
DR7 -0.06 dB -8.69 dB 11:00 02-Second Rendez Vous
DR8 -0.06 dB -9.25 dB 3:32 03-Third Rendez Vous
DR6 -0.06 dB -7.17 dB 4:02 04-Fourth Rendez Vous
DR6 -0.06 dB -8.87 dB 7:47 05-Fifth Rendez Vous
DR7 -0.06 dB -8.77 dB 6:04 06-Last Rendez Vous
––––––––––––––––––––––––––––––––––––––––

Number of tracks: 6
Official DR value: DR7

Samplerate: 44100 Hz
Channels: 2
Bits per sample: 16
Bitrate: 922 kbps
Codec: FLAC
================================================================================

[CUETools log; Date: 21.12.2015 17:16:22; Version: 2.1.5]
[CTDB TOCID: gL5kicki057BCYe6KKCSrSrkzCY-] found.
Track | CTDB Status
1 | (18/18) Accurately ripped
2 | (18/18) Accurately ripped
3 | (18/18) Accurately ripped
4 | (18/18) Accurately ripped
5 | (18/18) Accurately ripped
6 | (18/18) Accurately ripped
[AccurateRip ID: 00084499-002c7df3-52084906] found.
Track [ CRC | V2 ] Status
01 [63490be3|c594fd01] (0+0/4) No match
02 [d098081e|8c97ea03] (0+0/4) No match
03 [b3c2cc41|2f8d09c4] (0+0/4) No match
04 [be02004e|c892573a] (0+0/4) No match
05 [3fc48901|996f5b10] (0+0/4) No match
06 [285f6daf|bce60de3] (0+0/4) No match
Offsetted by -6:
01 [e1eac1f8] (0/4) No match (V2 was not tested)
02 [5afca372] (0/4) No match (V2 was not tested)
03 [56df3742] (0/4) No match (V2 was not tested)
04 [cf7a0fa7] (0/4) No match (V2 was not tested)
05 [801caebc] (0/4) No match (V2 was not tested)
06 [29121125] (0/4) No match (V2 was not tested)

Track Peak [ CRC32 ] [W/O NULL] [ LOG ]
– 99,3 [8ABC360E] [0C77A720] CRC32
01 99,3 [8AE4C573] [F1D7E27D]
02 99,3 [0729B7A0] [F2319E08]
03 99,3 [387F8868] [6E47761A]
04 99,2 [863866BB] [8618F64B]
05 99,3 [2CCA516D] [893C7A04]
06 99,3 [B1578692] [A141611A]

Jean-Michel Jarre - Rendez-Vouz (1986) {2015, Remastered} Re-Up


All thanks go to snakesharmer

>>> Jean-Michel Jarre in my Blog <<<

DOWNLOAD: