Subcategories

Jean F. Cochois - Gold In The Attic (2009) (Repost)

Posted By: gribovar
Jean F. Cochois - Gold In The Attic (2009) (Repost)

Jean F. Cochois - Gold In The Attic (2009)
EAC Rip | FLAC (image+.cue+log) - 463 MB | MP3 CBR 320 kbps (LAME 3.93) - 204 MB | Covers included
Genre: Downtempo, Ambient | RAR 3% Rec. | Label: Mole Listening Pearls (mole093-2)

Gold In The Attic is the fourth electronic longplayer under the name Jean F. Cochois (on the first two albums just as JFC) and created a unique niche suited in the wide field of the genre Ambient/Electronic for his selection. His former releases - remixes for Enigma or Ex-Kraftwerk producer Wolfgang Flür (Yamo) amongst others - stand for new devised cliches and love for the music that lives in the details. 15 songs of an artist who walks his own ways with emotional denseness and expertly flair as regards sound and rhythm.
Tracklist:
01. Gold In The Attic
02. Traces Of An Unforgettable Memory
03. Like A Poison Snake
04. Fernbahnhof
05. Poseidon
06. Sunfire
07. Stereotype
08. Times Between
09. Borsig Allee
10. Great Days Of Loneliness
11. Ruckblick
12. Stadtlichter
13. Weitblick
14. Alpenbalkon
15. Werther's Return

Total time: 01:12:36

Exact Audio Copy V0.99 prebeta 5 from 4. May 2009

EAC extraction logfile from 9. August 2010, 22:54

Jean F. Cochois / Gold In The Attic

Used drive : PIONEER DVD-RW DVR-111 Adapter: 2 ID: 0

Read mode : Secure
Utilize accurate stream : Yes
Defeat audio cache : Yes
Make use of C2 pointers : No

Read offset correction : 48
Overread into Lead-In and Lead-Out : No
Fill up missing offset samples with silence : Yes
Delete leading and trailing silent blocks : No
Null samples used in CRC calculations : Yes
Used interface : Installed external ASPI interface

Used output format : User Defined Encoder
Selected bitrate : 1024 kBit/s
Quality : High
Add ID3 tag : No
Command line compressor : C:\Program Files\Exact Audio Copy\FLAC\FLAC.EXE
Additional command line options : -8 -V -T "ARTIST=%a" -T "ALBUM=%g" -T "DATE=%y" -T "GENRE=%m" %s -o %d


TOC of the extracted CD

Track | Start | Length | Start sector | End sector
––––––––––––––––––––––––––––-
1 | 0:00.00 | 5:14.69 | 0 | 23618
2 | 5:14.69 | 5:27.65 | 23619 | 48208
3 | 10:42.59 | 4:30.13 | 48209 | 68471
4 | 15:12.72 | 4:44.09 | 68472 | 89780
5 | 19:57.06 | 2:17.00 | 89781 | 100055
6 | 22:14.06 | 5:35.71 | 100056 | 125251
7 | 27:50.02 | 3:19.62 | 125252 | 140238
8 | 31:09.64 | 7:01.27 | 140239 | 171840
9 | 38:11.16 | 5:31.06 | 171841 | 196671
10 | 43:42.22 | 5:58.70 | 196672 | 223591
11 | 49:41.17 | 1:44.09 | 223592 | 231400
12 | 51:25.26 | 5:45.05 | 231401 | 257280
13 | 57:10.31 | 4:39.57 | 257281 | 278262
14 | 61:50.13 | 6:00.21 | 278263 | 305283
15 | 67:50.34 | 4:45.12 | 305284 | 326670


Range status and errors

Selected range

Filename J:\temp\nnm\Jean F Cochois - Gold In The Attic.wav

Peak level 100.0 %
Range quality 100.0 %
Test CRC FFE7749B
Copy CRC FFE7749B
Copy OK

No errors occurred


AccurateRip summary

Track 1 accurately ripped (confidence 2) [3F100255]
Track 2 accurately ripped (confidence 2) [754ED7D4]
Track 3 accurately ripped (confidence 2) [0088002E]
Track 4 accurately ripped (confidence 2) [71088B02]
Track 5 accurately ripped (confidence 2) [C0E4B721]
Track 6 accurately ripped (confidence 2) [59FC83EA]
Track 7 accurately ripped (confidence 2) [9E1FFA0C]
Track 8 accurately ripped (confidence 2) [F8CCEA66]
Track 9 accurately ripped (confidence 2) [D9B2BBB4]
Track 10 accurately ripped (confidence 2) [9C86B95B]
Track 11 accurately ripped (confidence 2) [ACC1C2AA]
Track 12 accurately ripped (confidence 2) [97AF4C04]
Track 13 accurately ripped (confidence 2) [EB3A9AB8]
Track 14 accurately ripped (confidence 2) [0130E09D]
Track 15 accurately ripped (confidence 2) [B7C6B6AB]

All tracks accurately ripped

End of status report

Thanks to _ok
LOSSLESS:

Filepost.com

Rapidgator.net
________________

MP3 320 kbps:

Filepost.com

Rapidgator.net