Tags
Language
Tags

Jean-Michel Jarre - AERO [CD+DVD] (2004)

Posted By: gribovar
Jean-Michel Jarre - AERO [CD+DVD] (2004)

Jean-Michel Jarre - AERO [CD+DVD] (2004)
EAC Rip | FLAC (tracks+.cue+log) - 504 MB | MP3 CBR 320 kbps (LAME 3.93) - 173 MB | Covers - 74 MB
DVD9 | Video: MPEG 2, 720x576 (2.40:1), 25.000 fps | Audio: AC-3/DTS, 48.0 KHz, 6 ch, 448 Kbps/1510 Kbps, 6,11 GB
Genre: Traditional Electronic | RAR 3% Rec. | Label: Warner Music France (0825646185122)

AERO is Jean Michel Jarre's first experiment in surround sound as well as being the most respectable "best of" album in 13 years. The album features reworked versions of his golden oldies and three new pieces. The result of the new orchestration is a modern-sounding remix album, rather than a definitive greatest hits.
The album was designed and recorded in multi channel surround-sound and is therefore presented on both a CD and DVD in the same package (including Dolby Digital and DTS tracks allowing playback on a standard DVD video player in 5.1 surround sound). Sound quality is top notch as you'd expect although sometimes the transitional pieces between tracks overdo the surround effects for the sake of demonstrating the technology.
The music itself, as a collection of greatest hits tracks, is a surprising choice, presumably designed for the best 5.1 surround sound. There's no "Revolutions", "Chronologie 4", "Ethnicolor", "Calypso", "Oxygene 8" or "Hey Gagarin", for instance. We are treated to fresh, excellent reworkings of classics: "Oxygene 2", "Equinoxe 3" and "Last Rendez-vous". Aging tracks such as "Oxygene 4", "Chronologie 6", and "Rendez-vous 4" have all been brought up to date. The three new tracks recall Robert Miles and Orbital. They're good but there's a feeling they were left over from previous projects. There are too many synth presets sounding too clinical and lacklustre compared to the high standard of sounds used in Jarre's other studio albums. Moreover, there are finer unreleased tracks that could have been included.
Also included on the DVD is a visual track. A close-up of the actress Anne Parillaud's (Nikita) eyes while she listens to the music for the full 73 minutes in one take is typical of Jarre's subtle, minimalist and "non-MTV" visual style. AERO will appeal to those wanting to test their home cinema equipment and those seeking some of the greatest hits of France's electronica wizard.

CD Tracklist:
01. Aero Opening
02. Oxygene 2
03. Aero
04. Equinoxe 8
05. Oxygene 4
06. Souvenir Of China
07. Aerology
08. Equinoxe 3
09. Equinoxe 4
10. Last Rendez-Vous
11. Zoolookology
12. Aerozone
13. Magnetic Fields 1
14. Chronology 6
15. Rendez-Vous 4 (Live Version, Bonus track)

Total time: 01:12:41

Exact Audio Copy V1.3 from 2. September 2016

EAC extraction logfile from 23. January 2019, 22:04

Jean-Michel Jarre / AERO

Used drive : PIONEER DVD-RW DVR-215 Adapter: 1 ID: 2

Read mode : Secure
Utilize accurate stream : Yes
Defeat audio cache : Yes
Make use of C2 pointers : No

Read offset correction : 48
Overread into Lead-In and Lead-Out : No
Fill up missing offset samples with silence : Yes
Delete leading and trailing silent blocks : No
Null samples used in CRC calculations : Yes
Used interface : Native Win32 interface for Win NT & 2000
Gap handling : Appended to previous track

Used output format : User Defined Encoder
Selected bitrate : 1024 kBit/s
Quality : High
Add ID3 tag : No
Command line compressor : C:\Program Files (x86)\Exact Audio Copy\FLAC\FLAC.EXE
Additional command line options : -6 -V -T "COMMENT=Ripped by RRC" -T "ARTIST=%artist%" -T "TITLE=%title%" -T "ALBUM=%albumtitle%" -T "DATE=%year%" -T "TRACKNUMBER=%tracknr%" -T "GENRE=%genre%" -T "BAND=%albuminterpret%" -T "ALBUMARTIST=%albuminterpret%" -T "COMPOSER=%composer%" %haslyrics%–tag-from-file=LYRICS="%lyricsfile%"%haslyrics% -T "DISCNUMBER=%cdnumber%" -T "TOTALDISCS=%totalcds%" -T "TOTALTRACKS=%numtracks%" %hascover%–picture="%coverfile%"%hascover% %source%


TOC of the extracted CD

Track | Start | Length | Start sector | End sector
––––––––––––––––––––––––––––-
1 | 0:00.00 | 0:50.39 | 0 | 3788
2 | 0:50.39 | 7:41.44 | 3789 | 38407
3 | 8:32.08 | 3:09.69 | 38408 | 52651
4 | 11:42.02 | 1:24.30 | 52652 | 58981
5 | 13:06.32 | 5:05.31 | 58982 | 81887
6 | 18:11.63 | 4:46.19 | 81888 | 103356
7 | 22:58.07 | 3:40.00 | 103357 | 119856
8 | 26:38.07 | 6:33.44 | 119857 | 149375
9 | 33:11.51 | 6:46.52 | 149376 | 179877
10 | 39:58.28 | 5:08.26 | 179878 | 203003
11 | 45:06.54 | 3:54.46 | 203004 | 220599
12 | 49:01.25 | 4:56.34 | 220600 | 242833
13 | 53:57.59 | 5:59.06 | 242834 | 269764
14 | 59:56.65 | 6:10.22 | 269765 | 297536
15 | 66:07.12 | 7:34.11 | 297537 | 331597


Track 1

Filename E:\RRCLtd Rip\01-Aero Opening.wav

Pre-gap length 0:00:02.00

Peak level 100.0 %
Extraction speed 3.0 X
Track quality 100.0 %
Test CRC 493E909F
Copy CRC 493E909F
Accurately ripped (confidence 200) [CC745EA8] (AR v2)
Copy OK

Track 2

Filename E:\RRCLtd Rip\02-Oxygène 2.wav

Peak level 100.0 %
Extraction speed 5.4 X
Track quality 100.0 %
Test CRC 3B25141A
Copy CRC 3B25141A
Accurately ripped (confidence 200) [A0296D70] (AR v2)
Copy OK

Track 3

Filename E:\RRCLtd Rip\03-Aero.wav

Peak level 100.0 %
Extraction speed 4.7 X
Track quality 99.9 %
Test CRC 874C85F7
Copy CRC 874C85F7
Accurately ripped (confidence 200) [73A95357] (AR v2)
Copy OK

Track 4

Filename E:\RRCLtd Rip\04-Équinoxe 8.wav

Peak level 100.0 %
Extraction speed 4.7 X
Track quality 100.0 %
Test CRC 307A64DA
Copy CRC 307A64DA
Accurately ripped (confidence 200) [9102CD02] (AR v2)
Copy OK

Track 5

Filename E:\RRCLtd Rip\05-Oxygène 4.wav

Peak level 100.0 %
Extraction speed 5.8 X
Track quality 99.9 %
Test CRC 68781F41
Copy CRC 68781F41
Accurately ripped (confidence 200) [F9A12F49] (AR v2)
Copy OK

Track 6

Filename E:\RRCLtd Rip\06-Souvenir of China.wav

Peak level 100.0 %
Extraction speed 6.6 X
Track quality 100.0 %
Test CRC 1937AC9F
Copy CRC 1937AC9F
Accurately ripped (confidence 200) [1A077E7D] (AR v2)
Copy OK

Track 7

Filename E:\RRCLtd Rip\07-Aerology.wav

Peak level 100.0 %
Extraction speed 6.7 X
Track quality 100.0 %
Test CRC 13C0375F
Copy CRC 13C0375F
Accurately ripped (confidence 200) [075CC5B2] (AR v2)
Copy OK

Track 8

Filename E:\RRCLtd Rip\08-Équinoxe 3.wav

Peak level 100.0 %
Extraction speed 7.7 X
Track quality 100.0 %
Test CRC 533C6405
Copy CRC 533C6405
Accurately ripped (confidence 200) [FD091920] (AR v2)
Copy OK

Track 9

Filename E:\RRCLtd Rip\09-Équinoxe 4.wav

Peak level 100.0 %
Extraction speed 7.4 X
Track quality 99.9 %
Test CRC CFA9A31D
Copy CRC CFA9A31D
Accurately ripped (confidence 200) [E4C3CD82] (AR v2)
Copy OK

Track 10

Filename E:\RRCLtd Rip\10-Last Rendez-Vous.wav

Peak level 100.0 %
Extraction speed 8.3 X
Track quality 100.0 %
Test CRC 8C9A6A32
Copy CRC 8C9A6A32
Accurately ripped (confidence 200) [2B0DD7BE] (AR v2)
Copy OK

Track 11

Filename E:\RRCLtd Rip\11-Zoolokologie.wav

Peak level 100.0 %
Extraction speed 8.1 X
Track quality 100.0 %
Test CRC 3B697EE4
Copy CRC 3B697EE4
Accurately ripped (confidence 200) [ECA5E37D] (AR v2)
Copy OK

Track 12

Filename E:\RRCLtd Rip\12-Aerozone.wav

Peak level 100.0 %
Extraction speed 7.9 X
Track quality 99.9 %
Test CRC D1D299C9
Copy CRC D1D299C9
Accurately ripped (confidence 200) [5CC036CD] (AR v2)
Copy OK

Track 13

Filename E:\RRCLtd Rip\13-Magnetic Fields 1.wav

Peak level 100.0 %
Extraction speed 9.1 X
Track quality 100.0 %
Test CRC 6687EF7D
Copy CRC 6687EF7D
Accurately ripped (confidence 200) [DC7E00EC] (AR v2)
Copy OK

Track 14

Filename E:\RRCLtd Rip\14-Chronologie 6.wav

Peak level 100.0 %
Extraction speed 9.5 X
Track quality 100.0 %
Test CRC 969DE819
Copy CRC 969DE819
Accurately ripped (confidence 200) [9E31220E] (AR v2)
Copy OK

Track 15

Filename E:\RRCLtd Rip\15-Fourth Rendez-Vous (live version).wav

Pre-gap length 0:01:14.69

Peak level 100.0 %
Extraction speed 9.4 X
Track quality 99.9 %
Test CRC B703EF33
Copy CRC B703EF33
Accurately ripped (confidence 200) [82E4C3AC] (AR v2)
Copy OK


All tracks accurately ripped

No errors occurred

End of status report

–– CUETools DB Plugin V2.1.6

[CTDB TOCID: AyxLE9J5mx3RKdhPU1Df2ERWkqI-] found
Submit result: AyxLE9J5mx3RKdhPU1Df2ERWkqI- has been confirmed
Track | CTDB Status
1 | (623/662) Accurately ripped
2 | (641/662) Accurately ripped
3 | (644/662) Accurately ripped
4 | (643/662) Accurately ripped
5 | (636/662) Accurately ripped
6 | (636/662) Accurately ripped
7 | (642/662) Accurately ripped
8 | (637/662) Accurately ripped
9 | (636/662) Accurately ripped
10 | (643/662) Accurately ripped
11 | (642/662) Accurately ripped
12 | (643/662) Accurately ripped
13 | (642/662) Accurately ripped
14 | (629/662) Accurately ripped
15 | (610/662) Accurately ripped, or (6/662) differs in 951 samples @07:33:64-07:33:67


==== Log checksum 32E69EDD1AB2658C61B48594290B2A4805E6D494A8BA3660A2B7DEAF558C6603 ====

[CUETools log; Date: 11.02.2019 21:47:23; Version: 2.1.4]
[CTDB TOCID: AyxLE9J5mx3RKdhPU1Df2ERWkqI-] found.
Track | CTDB Status
1 | (634/675) Accurately ripped
2 | (653/675) Accurately ripped
3 | (656/675) Accurately ripped
4 | (655/675) Accurately ripped
5 | (648/675) Accurately ripped
6 | (648/675) Accurately ripped
7 | (654/675) Accurately ripped
8 | (649/675) Accurately ripped
9 | (648/675) Accurately ripped
10 | (655/675) Accurately ripped
11 | (654/675) Accurately ripped
12 | (655/675) Accurately ripped
13 | (654/675) Accurately ripped
14 | (641/675) Accurately ripped
15 | (621/675) Accurately ripped, or (6/675) differs in 951 samples @07:33:64-07:33:67
[AccurateRip ID: 0023e975-01a409a3-d911450f] found.
Track [ CRC | V2 ] Status
01 [13269f6c|cc745ea8] (200+200/430) Accurately ripped
02 [e9b9d616|a0296d70] (200+200/428) Accurately ripped
03 [9035eaca|73a95357] (200+200/428) Accurately ripped
04 [a5add43a|9102cd02] (200+200/428) Accurately ripped
05 [07c497ff|f9a12f49] (200+200/428) Accurately ripped
06 [58fe0749|1a077e7d] (200+200/428) Accurately ripped
07 [df42e29c|075cc5b2] (200+200/430) Accurately ripped
08 [6d95cc46|fd091920] (200+200/428) Accurately ripped
09 [d4ed6842|e4c3cd82] (200+200/428) Accurately ripped
10 [aa8c6b90|2b0dd7be] (200+200/430) Accurately ripped
11 [068f94ec|eca5e37d] (200+200/428) Accurately ripped
12 [9c373157|5cc036cd] (200+200/429) Accurately ripped
13 [815690dc|dc7e00ec] (200+200/428) Accurately ripped
14 [c913ce27|9e31220e] (200+200/430) Accurately ripped
15 [e1be49a9|82e4c3ac] (200+200/429) Accurately ripped
Offsetted by -1328:
01 [d28b83a6] (000/430) No match (V2 was not tested)
02 [cdd075e7] (000/428) No match (V2 was not tested)
03 [683d02aa] (000/428) No match (V2 was not tested)
04 [b6f087ef] (000/428) No match (V2 was not tested)
05 [0b2b686e] (000/428) No match (V2 was not tested)
06 [9e5fa76a] (000/428) No match (V2 was not tested)
07 [23084cbe] (000/430) No match (V2 was not tested)
08 [08baaaf8] (000/428) No match (V2 was not tested)
09 [637f478b] (000/428) No match (V2 was not tested)
10 [65200840] (000/430) No match (V2 was not tested)
11 [0610ec3b] (000/428) No match (V2 was not tested)
12 [198ad74b] (000/429) No match (V2 was not tested)
13 [47cc8fc6] (000/428) No match (V2 was not tested)
14 [5c36a1d5] (000/430) No match (V2 was not tested)
15 [1c81645e] (000/429) No match (V2 was not tested)
Offsetted by -858:
01 [223595fc] (000/430) No match (V2 was not tested)
02 [6008e110] (000/428) No match (V2 was not tested)
03 [3d80ff62] (000/428) No match (V2 was not tested)
04 [a3271479] (000/428) No match (V2 was not tested)
05 [3c440d9e] (000/428) No match (V2 was not tested)
06 [28b81654] (000/428) No match (V2 was not tested)
07 [b05b1e27] (000/430) No match (V2 was not tested)
08 [ea7faa33] (000/428) No match (V2 was not tested)
09 [d357c902] (000/428) No match (V2 was not tested)
10 [ca00346a] (000/430) No match (V2 was not tested)
11 [6b8fe0dd] (000/428) No match (V2 was not tested)
12 [c9cf7fbc] (000/429) No match (V2 was not tested)
13 [ed8461e1] (000/428) No match (V2 was not tested)
14 [02955bc8] (000/430) No match (V2 was not tested)
15 [ce610af9] (000/429) No match (V2 was not tested)
Offsetted by -744:
01 [32a7ece3] (000/430) No match (V2 was not tested)
02 [80084160] (000/428) No match (V2 was not tested)
03 [0aa1df48] (000/428) No match (V2 was not tested)
04 [f5055d89] (000/428) No match (V2 was not tested)
05 [78eef92a] (000/428) No match (V2 was not tested)
06 [b9817744] (000/428) No match (V2 was not tested)
07 [c0f1d461] (000/430) No match (V2 was not tested)
08 [9d4eb25b] (000/428) No match (V2 was not tested)
09 [7c00174e] (000/428) No match (V2 was not tested)
10 [2928185c] (000/430) No match (V2 was not tested)
11 [54d990c4] (000/428) No match (V2 was not tested)
12 [91fdff5d] (000/429) No match (V2 was not tested)
13 [d5b566cb] (000/428) No match (V2 was not tested)
14 [1814fcff] (000/430) No match (V2 was not tested)
15 [0e42bbcd] (000/429) No match (V2 was not tested)
Offsetted by -681:
01 [9f15fcb4] (000/430) No match
02 [6e50b74c] (000/428) No match
03 [be0e5d23] (000/428) No match
04 [4be1676d] (000/428) No match
05 [eec3f4df] (000/428) No match
06 [71f42bc2] (000/428) No match
07 [59c346d8] (002/430) Accurately ripped
08 [425818ce] (000/428) No match
09 [80efe181] (000/428) No match
10 [cb1ead07] (000/430) No match
11 [20cad00c] (000/428) No match
12 [5c749fa8] (002/429) Accurately ripped
13 [b001fb50] (000/428) No match
14 [5ec8ff3e] (000/430) No match
15 [f5920a7d] (002/429) Accurately ripped
Offsetted by -669:
01 [51c7e29b] (000/430) No match (V2 was not tested)
02 [f4724a07] (000/428) No match (V2 was not tested)
03 [5c0971c5] (000/428) No match (V2 was not tested)
04 [9be78496] (000/428) No match (V2 was not tested)
05 [baad6a8b] (000/428) No match (V2 was not tested)
06 [3cb8ef91] (000/428) No match (V2 was not tested)
07 [2d408a40] (000/430) No match (V2 was not tested)
08 [b0cc1f5d] (000/428) No match (V2 was not tested)
09 [93726ea6] (000/428) No match (V2 was not tested)
10 [6af17f58] (000/430) No match (V2 was not tested)
11 [8f5b1da1] (000/428) No match (V2 was not tested)
12 [d0aca1df] (000/429) No match (V2 was not tested)
13 [5b4083ee] (000/428) No match (V2 was not tested)
14 [7eddd677] (000/430) No match (V2 was not tested)
15 [86bb4643] (000/429) No match (V2 was not tested)
Offsetted by -664:
01 [4ccef55e] (000/430) No match (V2 was not tested)
02 [9e2990c5] (000/428) No match (V2 was not tested)
03 [d5f77790] (000/428) No match (V2 was not tested)
04 [e2d97129] (000/428) No match (V2 was not tested)
05 [01b16410] (000/428) No match (V2 was not tested)
06 [bdfce624] (000/428) No match (V2 was not tested)
07 [3a035d11] (000/430) No match (V2 was not tested)
08 [5756125e] (000/428) No match (V2 was not tested)
09 [bc6a3193] (000/428) No match (V2 was not tested)
10 [c5382b9a] (000/430) No match (V2 was not tested)
11 [ff9025ca] (000/428) No match (V2 was not tested)
12 [e437638b] (000/429) No match (V2 was not tested)
13 [00ab3adb] (000/428) No match (V2 was not tested)
14 [b74a8a4a] (000/430) No match (V2 was not tested)
15 [836e1a8d] (000/429) No match (V2 was not tested)
Offsetted by -168:
01 [c1a1f9d3] (000/430) No match (V2 was not tested)
02 [503de4cd] (000/428) No match (V2 was not tested)
03 [0a3a254d] (000/428) No match (V2 was not tested)
04 [f4944a38] (000/428) No match (V2 was not tested)
05 [0c49efcb] (000/428) No match (V2 was not tested)
06 [c79beae9] (000/428) No match (V2 was not tested)
07 [c81052f0] (000/430) No match (V2 was not tested)
08 [a99faacf] (000/428) No match (V2 was not tested)
09 [bee17610] (000/428) No match (V2 was not tested)
10 [69ca488a] (000/430) No match (V2 was not tested)
11 [defafd09] (000/428) No match (V2 was not tested)
12 [6324ee49] (000/429) No match (V2 was not tested)
13 [ac9a79bb] (000/428) No match (V2 was not tested)
14 [944934ed] (000/430) No match (V2 was not tested)
15 [a34854b5] (000/429) No match (V2 was not tested)
Offsetted by -66:
01 [50070dbd] (000/430) No match (V2 was not tested)
02 [4b53c9ea] (000/428) No match (V2 was not tested)
03 [41b81844] (000/428) No match (V2 was not tested)
04 [311ac8af] (000/428) No match (V2 was not tested)
05 [eb443b39] (000/428) No match (V2 was not tested)
06 [9ffbb8e7] (000/428) No match (V2 was not tested)
07 [6699fd3d] (000/430) No match (V2 was not tested)
08 [4bc88c64] (000/428) No match (V2 was not tested)
09 [f5f0f8a0] (000/428) No match (V2 was not tested)
10 [eda341cc] (000/430) No match (V2 was not tested)
11 [fe4c7d03] (000/428) No match (V2 was not tested)
12 [3532cad4] (000/429) No match (V2 was not tested)
13 [0a430b22] (000/428) No match (V2 was not tested)
14 [0dbd5584] (000/430) No match (V2 was not tested)
15 [c88ce552] (000/429) No match (V2 was not tested)
Offsetted by -30:
01 [b7a5a366] (000/430) No match (V2 was not tested)
02 [fdcc88c6] (000/428) No match (V2 was not tested)
03 [6bd90c7f] (000/428) No match (V2 was not tested)
04 [92e55989] (000/428) No match (V2 was not tested)
05 [28e33b17] (000/428) No match (V2 was not tested)
06 [7b64d4dc] (000/428) No match (V2 was not tested)
07 [a35387c3] (000/430) No match (V2 was not tested)
08 [0b3347dc] (000/428) No match (V2 was not tested)
09 [b4b08600] (000/428) No match (V2 was not tested)
10 [0844a399] (000/430) No match (V2 was not tested)
11 [106e7e72] (000/428) No match (V2 was not tested)
12 [9f1834d0] (000/429) No match (V2 was not tested)
13 [0adb4ee3] (000/428) No match (V2 was not tested)
14 [ce8f413b] (000/430) No match (V2 was not tested)
15 [3c2c90fc] (000/429) No match (V2 was not tested)
Offsetted by -6:
01 [1f827283] (000/430) No match (V2 was not tested)
02 [dc5b181d] (000/428) No match (V2 was not tested)
03 [0147bbd8] (000/428) No match (V2 was not tested)
04 [7400baba] (000/428) No match (V2 was not tested)
05 [e2d00acb] (000/428) No match (V2 was not tested)
06 [26a46bcc] (000/428) No match (V2 was not tested)
07 [263700e0] (000/430) No match (V2 was not tested)
08 [d9771066] (000/428) No match (V2 was not tested)
09 [c69e4c67] (000/428) No match (V2 was not tested)
10 [b0f8574f] (000/430) No match (V2 was not tested)
11 [971cad7d] (000/428) No match (V2 was not tested)
12 [a8c06907] (000/429) No match (V2 was not tested)
13 [c7e6ec5d] (000/428) No match (V2 was not tested)
14 [8d2cb467] (000/430) No match (V2 was not tested)
15 [502602ce] (000/429) No match (V2 was not tested)
Offsetted by 6:
01 [bb5b8d54] (002/430) Accurately ripped
02 [00c4627a] (002/428) Accurately ripped
03 [5d0868d3] (002/428) Accurately ripped
04 [c3f62c8a] (002/428) Accurately ripped
05 [b0f40b52] (002/428) Accurately ripped
06 [ad237e82] (002/428) Accurately ripped
07 [6076d672] (002/430) Accurately ripped
08 [52c50f93] (002/428) Accurately ripped
09 [2aa6cf29] (002/428) Accurately ripped
10 [d568518d] (002/430) Accurately ripped
11 [e2cbf5e7] (002/428) Accurately ripped
12 [693dad09] (002/429) Accurately ripped
13 [7d65b1a3] (002/428) Accurately ripped
14 [7e4e62cb] (002/430) Accurately ripped
15 [ca92ad49] (000/429) No match (V2 was not tested)

Track Peak [ CRC32 ] [W/O NULL] [ LOG ]
– 100,0 [58F8DFCA] [6383ACE9]
01 100,0 [493E909F] [3548B558] CRC32
02 100,0 [3B25141A] [78AF16B6] CRC32
03 100,0 [874C85F7] [FACA005A] CRC32
04 100,0 [307A64DA] [02D42D14] CRC32
05 100,0 [68781F41] [4593A065] CRC32
06 100,0 [1937AC9F] [EE025B53] CRC32
07 100,0 [13C0375F] [1A5621C5] CRC32
08 100,0 [533C6405] [42A63470] CRC32
09 100,0 [CFA9A31D] [5877C8FB] CRC32
10 100,0 [8C9A6A32] [AAF10FDD] CRC32
11 100,0 [3B697EE4] [67165843] CRC32
12 100,0 [D1D299C9] [699D112A] CRC32
13 100,0 [6687EF7D] [3301160A] CRC32
14 100,0 [969DE819] [5170C82D] CRC32
15 100,0 [B703EF33] [D997101E] CRC32

DVD:
01. Aero Opening
02. Scene 1
03. Oxygene 2
04. Scene 2
05. Aero
06. Equinoxe 8
07. Oxygene 4
08. Scene 3
09. Souvenir Of China
10. Scene 4
11. Aerology
12. Scene 5
13. Equinoxe 3
14. Scene 6
15. Equinoxe 4
16. Scene 7
17. Last Rendez-Vous
18. Scene 8
19. Zoolookology
20. Scene 9
21. Aerozone
22. Scene 10
23. Magnetic Fields 1
24. Scene 11
25. Chronology 6
26. Rendez-Vous 4 (Live Version, Bonus track)
Jean-Michel Jarre - AERO [CD+DVD] (2004)

Jean-Michel Jarre - AERO [CD+DVD] (2004)

Jean-Michel Jarre - AERO [CD+DVD] (2004)

Jean-Michel Jarre - AERO [CD+DVD] (2004)

Thanks to RRC

See also:
Jean-Michel Jarre - Original A...976-2000) [5CD Box Set] (2018)
Jean-Michel Jarre - Rendez-Vous (1986) [Reissue 1997]
Jean-Michel Jarre - Geometry of Love (2003) [Remastered 2018]