Tags
Language
Tags

Jean-Michel Jarre - Destination Docklands (The London Concert) (1989) [Reissue 1997] (Repost)

Posted By: gribovar
Jean-Michel Jarre - Destination Docklands (The London Concert) (1989) [Reissue 1997] (Repost)

Jean-Michel Jarre - Destination Docklands (The London Concert) (1989) [Reissue 1997]
EAC Rip | FLAC (tracks+.cue+log) - 393 MB | MP3 CBR 320 kbps (LAME 3.93) - 129 MB | Covers - 52 MB
Genre: Traditional Electronic | RAR 3% Rec. | Label: Disques Dreyfus/Epic (488143 2)

Destination Docklands was an event consisting of two concerts by musician Jean Michel Jarre on the Royal Victoria Docks, Docklands, London on Saturday 8th and Sunday 9 October 1988, to coincide with the release of Jarre's new album Revolutions. The concerts were attended by 100,000 people on each night. Accompanied by fireworks and a light show, the concert also featured The Shadows guitarist Hank Marvin who joined Jarre on the tracks "London Kid" and "Fourth Rendez-Vous". The Saturday performance was broadcast on BBC Radio One. The Sunday show, during which it rained heavily, was recorded for a live album and VHS released in 1989. The Sunday show was also recorded for TV and shown on C4 some weeks or months later.
Tracklist:
01. Revolutions
02. Industrial Revolution: Overture
03. Industrial Revolution Part 1-2-3
04. Magnetic Fields 2
05. Oxygene IV
06. Computer Week-End
07. Revolutions
08. London Kid
09. Fourth Rendez-Vous
10. Second Rendez-Vous
11. September
12. The Emigrant

Total time: 53:43

Exact Audio Copy V1.0 beta 6 from 9. April 2015

EAC extraction logfile from 14. December 2016, 20:56

Jean-Michel Jarre / Destination Docklands

Used drive : PIONEER DVD-RW DVR-215 Adapter: 1 ID: 2

Read mode : Secure
Utilize accurate stream : Yes
Defeat audio cache : Yes
Make use of C2 pointers : No

Read offset correction : 48
Overread into Lead-In and Lead-Out : No
Fill up missing offset samples with silence : Yes
Delete leading and trailing silent blocks : No
Null samples used in CRC calculations : Yes
Used interface : Native Win32 interface for Win NT & 2000
Gap handling : Appended to previous track

Used output format : User Defined Encoder
Selected bitrate : 1024 kBit/s
Quality : High
Add ID3 tag : No
Command line compressor : C:\Program Files (x86)\Exact Audio Copy\FLAC\FLAC.EXE
Additional command line options : -6 -V -T "COMMENT=Ripped by RRC (NEW-TEAM org)" -T "ARTIST=%artist%" -T "TITLE=%title%" -T "ALBUM=%albumtitle%" -T "DATE=%year%" -T "TRACKNUMBER=%tracknr%" -T "GENRE=%genre%" -T "COMMENT=%comment%" -T "BAND=%albuminterpret%" -T "ALBUMARTIST=%albuminterpret%" -T "COMPOSER=%composer%" %haslyrics%–tag-from-file=LYRICS="%lyricsfile%"%haslyrics% -T "DISCNUMBER=%cdnumber%" -T "TOTALDISCS=%totalcds%" -T "TOTALTRACKS=%numtracks%" %hascover%–picture="%coverfile%"%hascover% %source% -o %dest%


TOC of the extracted CD

Track | Start | Length | Start sector | End sector
––––––––––––––––––––––––––––-
1 | 0:00.00 | 1:03.45 | 0 | 4769
2 | 1:03.45 | 2:59.00 | 4770 | 18194
3 | 4:02.45 | 5:46.25 | 18195 | 44169
4 | 9:48.70 | 4:08.67 | 44170 | 62836
5 | 13:57.62 | 3:50.53 | 62837 | 80139
6 | 17:48.40 | 5:13.12 | 80140 | 103626
7 | 23:01.52 | 3:53.30 | 103627 | 121131
8 | 26:55.07 | 4:57.25 | 121132 | 143431
9 | 31:52.32 | 4:18.63 | 143432 | 162844
10 | 36:11.20 | 8:58.52 | 162845 | 203246
11 | 45:09.72 | 4:43.65 | 203247 | 224536
12 | 49:53.62 | 3:48.48 | 224537 | 241684


Track 1

Filename G:\RRC's Rip\01-Revolutions.wav

Pre-gap length 0:00:02.00

Peak level 100.0 %
Extraction speed 3.0 X
Track quality 100.0 %
Test CRC E0D8721E
Copy CRC E0D8721E
Accurately ripped (confidence 14) [0BDA9BA2] (AR v2)
Copy OK

Track 2

Filename G:\RRC's Rip\02-Industrial Revolution - Overture.wav

Peak level 100.0 %
Extraction speed 4.3 X
Track quality 100.0 %
Test CRC 46605D33
Copy CRC 46605D33
Accurately ripped (confidence 14) [CF082ED2] (AR v2)
Copy OK

Track 3

Filename G:\RRC's Rip\03-Industrial Revolution Part 1-2-3.wav

Peak level 100.0 %
Extraction speed 5.1 X
Track quality 100.0 %
Test CRC F29E0C0B
Copy CRC F29E0C0B
Accurately ripped (confidence 14) [5356B973] (AR v2)
Copy OK

Track 4

Filename G:\RRC's Rip\04-Magnetic Fields 2.wav

Peak level 100.0 %
Extraction speed 5.4 X
Track quality 100.0 %
Test CRC 75357D93
Copy CRC 75357D93
Accurately ripped (confidence 14) [58193FF6] (AR v2)
Copy OK

Track 5

Filename G:\RRC's Rip\05-Oxygène IV.wav

Peak level 100.0 %
Extraction speed 5.1 X
Track quality 99.9 %
Test CRC 3CA4B164
Copy CRC 3CA4B164
Accurately ripped (confidence 14) [FC2E444F] (AR v2)
Copy OK

Track 6

Filename G:\RRC's Rip\06-Computer Week-End.wav

Peak level 100.0 %
Extraction speed 6.3 X
Track quality 100.0 %
Test CRC 7083ACAB
Copy CRC 7083ACAB
Accurately ripped (confidence 14) [F8D94C98] (AR v2)
Copy OK

Track 7

Filename G:\RRC's Rip\07-Revolutions.wav

Peak level 100.0 %
Extraction speed 5.7 X
Track quality 99.9 %
Test CRC 814966B5
Copy CRC 814966B5
Accurately ripped (confidence 14) [B078DA1C] (AR v2)
Copy OK

Track 8

Filename G:\RRC's Rip\08-London Kid.wav

Peak level 100.0 %
Extraction speed 6.9 X
Track quality 100.0 %
Test CRC 83245C52
Copy CRC 83245C52
Accurately ripped (confidence 14) [D7EAE7B0] (AR v2)
Copy OK

Track 9

Filename G:\RRC's Rip\09-Fourth Rendez-vous.wav

Peak level 99.9 %
Extraction speed 7.1 X
Track quality 100.0 %
Test CRC 338C3532
Copy CRC 338C3532
Accurately ripped (confidence 14) [CCC5212B] (AR v2)
Copy OK

Track 10

Filename G:\RRC's Rip\10-Second Rendez-vous.wav

Peak level 96.6 %
Extraction speed 8.1 X
Track quality 100.0 %
Test CRC 4017C31C
Copy CRC 4017C31C
Accurately ripped (confidence 14) [BF8CA4FE] (AR v2)
Copy OK

Track 11

Filename G:\RRC's Rip\11-September.wav

Peak level 97.4 %
Extraction speed 7.2 X
Track quality 99.9 %
Test CRC D0CF53E5
Copy CRC D0CF53E5
Accurately ripped (confidence 14) [66C7302C] (AR v2)
Copy OK

Track 12

Filename G:\RRC's Rip\12-The Emigrant.wav

Peak level 96.6 %
Extraction speed 7.9 X
Track quality 100.0 %
Test CRC 3FC5CB0F
Copy CRC 3FC5CB0F
Accurately ripped (confidence 14) [3D37096C] (AR v2)
Copy OK


All tracks accurately ripped

No errors occurred

End of status report

–– CUETools DB Plugin V2.1.6

[CTDB TOCID: DX86bGulkdpP5LkJInGBVca4Gjs-] found
Submit result: DX86bGulkdpP5LkJInGBVca4Gjs- has been confirmed
Track | CTDB Status
1 | (57/57) Accurately ripped
2 | (57/57) Accurately ripped
3 | (57/57) Accurately ripped
4 | (57/57) Accurately ripped
5 | (56/57) Accurately ripped
6 | (56/57) Accurately ripped
7 | (56/57) Accurately ripped
8 | (56/57) Accurately ripped
9 | (56/57) Accurately ripped
10 | (56/57) Accurately ripped
11 | (56/57) Accurately ripped
12 | (56/57) Accurately ripped


==== Log checksum 2E2CD8EEC2B18B3513D44B58B2CEFCF6237399FECEAAE55D17C6AE9A206777B7 ====

[CUETools log; Date: 01.09.2019 13:00:33; Version: 2.1.4]
[CTDB TOCID: DX86bGulkdpP5LkJInGBVca4Gjs-] found.
Track | CTDB Status
1 | (121/121) Accurately ripped
2 | (121/121) Accurately ripped
3 | (121/121) Accurately ripped
4 | (121/121) Accurately ripped
5 | (120/121) Accurately ripped
6 | (120/121) Accurately ripped
7 | (120/121) Accurately ripped
8 | (120/121) Accurately ripped
9 | (120/121) Accurately ripped
10 | (120/121) Accurately ripped
11 | (119/121) Accurately ripped
12 | (119/121) Accurately ripped
[AccurateRip ID: 00158639-00d16050-9f0c960c] found.
Track [ CRC | V2 ] Status
01 [c9e7ec6e|0bda9ba2] (24+21/99) Accurately ripped
02 [c87cdc07|cf082ed2] (24+21/99) Accurately ripped
03 [20451537|5356b973] (24+21/97) Accurately ripped
04 [5de44d53|58193ff6] (23+21/98) Accurately ripped
05 [54d61b58|fc2e444f] (23+21/98) Accurately ripped
06 [b17aaf20|f8d94c98] (23+21/98) Accurately ripped
07 [71cdea0c|b078da1c] (24+20/98) Accurately ripped
08 [8e54e7d5|d7eae7b0] (24+21/98) Accurately ripped
09 [7875696d|ccc5212b] (23+21/98) Accurately ripped
10 [509839b9|bf8ca4fe] (22+20/95) Accurately ripped
11 [332eff88|66c7302c] (23+21/98) Accurately ripped
12 [629db64c|3d37096c] (23+20/96) Accurately ripped
Offsetted by -1389:
01 [74385c7d] (03/99) Accurately ripped
02 [0bf9308c] (03/99) Accurately ripped
03 [be5e263d] (03/97) Accurately ripped
04 [f9aca56c] (03/98) Accurately ripped
05 [eeafb450] (03/98) Accurately ripped
06 [75bfcdbb] (03/98) Accurately ripped
07 [735522ad] (03/98) Accurately ripped
08 [08d1590c] (03/98) Accurately ripped
09 [c236a5ca] (03/98) Accurately ripped
10 [2a670d4e] (03/95) Accurately ripped
11 [11540a52] (03/98) Accurately ripped
12 [f3dc53fb] (03/96) Accurately ripped
Offsetted by -29:
01 [812d662b] (13/99) Accurately ripped
02 [3df7296c] (13/99) Accurately ripped
03 [77b75837] (12/97) Accurately ripped
04 [051d52d4] (13/98) Accurately ripped
05 [cb5b4b08] (13/98) Accurately ripped
06 [5dc0789b] (13/98) Accurately ripped
07 [951cd0ea] (13/98) Accurately ripped
08 [2e11c54d] (13/98) Accurately ripped
09 [cf61350b] (13/98) Accurately ripped
10 [71d89498] (13/95) Accurately ripped
11 [cda4ca7e] (13/98) Accurately ripped
12 [7b2b3a5a] (13/96) Accurately ripped
Offsetted by 81:
01 [8b22bf35] (10/99) Accurately ripped
02 [7f77d017] (10/99) Accurately ripped
03 [215af1d6] (10/97) Accurately ripped
04 [ac835fa9] (10/98) Accurately ripped
05 [d9505e34] (10/98) Accurately ripped
06 [6ab31bbe] (10/98) Accurately ripped
07 [8d9e77d5] (10/98) Accurately ripped
08 [91c7c445] (10/98) Accurately ripped
09 [14801ef6] (10/98) Accurately ripped
10 [686543a7] (10/95) Accurately ripped
11 [d4e1adaa] (10/98) Accurately ripped
12 [8a0bf5cf] (10/96) Accurately ripped
Offsetted by 2141:
01 [09405341] (04/99) Accurately ripped
02 [36b99280] (04/99) Accurately ripped
03 [20cc904c] (04/97) Accurately ripped
04 [a08bcacf] (04/98) Accurately ripped
05 [f45424aa] (04/98) Accurately ripped
06 [d4586fe7] (04/98) Accurately ripped
07 [ba560e2f] (04/98) Accurately ripped
08 [86366def] (04/98) Accurately ripped
09 [d4b2ff94] (04/98) Accurately ripped
10 [25345dd4] (04/95) Accurately ripped
11 [95193ff5] (04/98) Accurately ripped
12 [74d7fae9] (04/96) Accurately ripped

Track Peak [ CRC32 ] [W/O NULL] [ LOG ]
– 99,9 [F3A91D3D] [2915B70F]
01 99,9 [E0D8721E] [40718890] CRC32
02 99,9 [46605D33] [D8FA89EB] CRC32
03 99,9 [F29E0C0B] [7DBE22F3] CRC32
04 99,9 [75357D93] [D9ED77E1] CRC32
05 99,9 [3CA4B164] [DF5E9150] CRC32
06 99,9 [7083ACAB] [D4D2B3B5] CRC32
07 99,9 [814966B5] [21E98422] CRC32
08 99,9 [83245C52] [D5E357EE] CRC32
09 99,9 [338C3532] [1A2ECC99] CRC32
10 96,6 [4017C31C] [51DBB284] CRC32
11 97,4 [D0CF53E5] [85989F29] CRC32
12 96,6 [3FC5CB0F] [4EB51CDA] CRC32

Thanks to RRC