Tags
Language
Tags

Jean-Michel Jarre - En Concert: Houston-Lyon (1987) (Repost)

Posted By: gribovar
Jean-Michel Jarre - En Concert: Houston-Lyon (1987) (Repost)

Jean-Michel Jarre - En Concert: Houston-Lyon (1987)
EAC Rip | FLAC (tracks+.cue+log) - 314 MB | MP3 CBR 320 kbps (LAME 3.93) - 118 MB | Covers - 75 MB
Genre: Traditional Electronic | RAR 3% Rec. | Label: Disques Dreyfus (833126-2)

En Concert is an energetic live album with half the tracks played in front of Houston, TX, and the other half played to a crowd in Lyon, France. Jarre ignites the crowd in both cities, letting loose on a multitude of synthesizers and sequencers while playing his classics like "Oxygene V," "Magnetic Fields I," and "Equinoxe V." His sonic display in front of the French crowd is the more spirited of the two, since Europe is where his fan base is the largest. Jarre kept many of his slower mood pieces off of this album, which is rightly so. His quicker, more robust pieces seem to gain momentum as he dazzles the audience with his electronic sweeps and sharp stabs of brilliant synth. The lasers and lights can almost be heard piercing the night sky on "Rendez-Vous II" as Jarre ceases to limit himself to only a few instruments. Both performances are outside, so there are no walls restricting the music, which, believe it or not, can be felt throughout the album. The sounds that radiate from Jarre's keyboards sound large and expansive, capturing the live atmosphere and dynamically unleashing it onto disc.

Tracklist:
01. Oxygène V
02. Ethnicolor Part 1
03. Ethnicolor Part 2
04. Ethnicolor Part 3
05. Ethnicolor Part 4
06. Magnetic Fields I
07. Souvenir Of China
08. Equinoxe V
09. Blessing
10. Rendez-vous III (Laser Harp)
11. Rendez-vous II Part 1
12. Rendez-vous II Part 2
13. Rendez-vous II Part 3
14. Rendez-vous II Part 4
15. Ron's Piece
16. Rendez-vous IV

Total time: 48:11

Exact Audio Copy V1.0 beta 6 from 9. April 2015

EAC extraction logfile from 14. December 2016, 19:53

Jean-Michel Jarre / Jean Michel Jarre en Concert - Houston-Lyon

Used drive : PIONEER DVD-RW DVR-215 Adapter: 1 ID: 2

Read mode : Secure
Utilize accurate stream : Yes
Defeat audio cache : Yes
Make use of C2 pointers : No

Read offset correction : 48
Overread into Lead-In and Lead-Out : No
Fill up missing offset samples with silence : Yes
Delete leading and trailing silent blocks : No
Null samples used in CRC calculations : Yes
Used interface : Native Win32 interface for Win NT & 2000
Gap handling : Appended to previous track

Used output format : User Defined Encoder
Selected bitrate : 1024 kBit/s
Quality : High
Add ID3 tag : No
Command line compressor : C:\Program Files (x86)\Exact Audio Copy\FLAC\FLAC.EXE
Additional command line options : -6 -V -T "COMMENT=Ripped by RRC (NEW-TEAM org)" -T "ARTIST=%artist%" -T "TITLE=%title%" -T "ALBUM=%albumtitle%" -T "DATE=%year%" -T "TRACKNUMBER=%tracknr%" -T "GENRE=%genre%" -T "COMMENT=%comment%" -T "BAND=%albuminterpret%" -T "ALBUMARTIST=%albuminterpret%" -T "COMPOSER=%composer%" %haslyrics%–tag-from-file=LYRICS="%lyricsfile%"%haslyrics% -T "DISCNUMBER=%cdnumber%" -T "TOTALDISCS=%totalcds%" -T "TOTALTRACKS=%numtracks%" %hascover%–picture="%coverfile%"%hascover% %source% -o %dest%


TOC of the extracted CD

Track | Start | Length | Start sector | End sector
––––––––––––––––––––––––––––-
1 | 0:00.32 | 1:17.20 | 32 | 5826
2 | 1:17.52 | 2:34.45 | 5827 | 17421
3 | 3:52.22 | 1:30.63 | 17422 | 24234
4 | 5:23.10 | 1:24.67 | 24235 | 30601
5 | 6:48.02 | 4:08.60 | 30602 | 49261
6 | 10:56.62 | 4:35.00 | 49262 | 69886
7 | 15:31.62 | 3:32.35 | 69887 | 85821
8 | 19:04.22 | 3:58.48 | 85822 | 103719
9 | 23:02.70 | 0:33.20 | 103720 | 106214
10 | 23:36.15 | 3:54.32 | 106215 | 123796
11 | 27:30.47 | 2:42.43 | 123797 | 135989
12 | 30:13.15 | 2:54.15 | 135990 | 149054
13 | 33:07.30 | 3:06.27 | 149055 | 163031
14 | 36:13.57 | 2:27.38 | 163032 | 174094
15 | 38:41.20 | 4:36.60 | 174095 | 194854
16 | 43:18.05 | 4:52.70 | 194855 | 216824


Track 1

Filename G:\RRC's Rip\01-Oxygene V.wav

Pre-gap length 0:00:02.32

Peak level 74.9 %
Extraction speed 3.2 X
Track quality 100.0 %
Test CRC 640FD0F6
Copy CRC 640FD0F6
Accurately ripped (confidence 7) [B7D1A312] (AR v1)
Copy OK

Track 2

Filename G:\RRC's Rip\02-Ethnicolor Part 1.wav

Pre-gap length 0:00:00.02

Peak level 82.3 %
Extraction speed 4.1 X
Track quality 100.0 %
Test CRC D2B78F5A
Copy CRC D2B78F5A
Accurately ripped (confidence 7) [6FB2AB3C] (AR v1)
Copy OK

Track 3

Filename G:\RRC's Rip\03-Ethnicolor Part 2.wav

Pre-gap length 0:00:00.02

Peak level 83.6 %
Extraction speed 3.8 X
Track quality 100.0 %
Test CRC 37E16B46
Copy CRC 37E16B46
Accurately ripped (confidence 7) [BBAAED4D] (AR v1)
Copy OK

Track 4

Filename G:\RRC's Rip\04-Ethnicolor Part 3.wav

Pre-gap length 0:00:00.03

Peak level 46.5 %
Extraction speed 3.8 X
Track quality 100.0 %
Test CRC 4A405E77
Copy CRC 4A405E77
Accurately ripped (confidence 7) [C9B207D4] (AR v1)
Copy OK

Track 5

Filename G:\RRC's Rip\05-Ethnicolor Part 4.wav

Pre-gap length 0:00:00.02

Peak level 100.0 %
Extraction speed 5.1 X
Track quality 100.0 %
Test CRC 9C97B465
Copy CRC 9C97B465
Accurately ripped (confidence 7) [734CC2E6] (AR v1)
Copy OK

Track 6

Filename G:\RRC's Rip\06-Chants Magnetiques I.wav

Pre-gap length 0:00:00.02

Peak level 100.0 %
Extraction speed 5.6 X
Track quality 100.0 %
Test CRC 8B532798
Copy CRC 8B532798
Accurately ripped (confidence 6) [D55A6754] (AR v1)
Copy OK

Track 7

Filename G:\RRC's Rip\07-Souvenir de Chine.wav

Pre-gap length 0:00:00.02

Peak level 84.1 %
Extraction speed 5.0 X
Track quality 99.9 %
Test CRC D0E7D9C2
Copy CRC D0E7D9C2
Accurately ripped (confidence 6) [FF894180] (AR v1)
Copy OK

Track 8

Filename G:\RRC's Rip\08-Equinoxe V.wav

Pre-gap length 0:00:00.02

Peak level 100.0 %
Extraction speed 6.2 X
Track quality 100.0 %
Test CRC 7D4952B0
Copy CRC 7D4952B0
Accurately ripped (confidence 6) [46D0452B] (AR v1)
Copy OK

Track 9

Filename G:\RRC's Rip\09-Blessing.wav

Pre-gap length 0:00:02.10

Peak level 37.6 %
Extraction speed 3.4 X
Track quality 100.0 %
Test CRC 50C17C07
Copy CRC 50C17C07
Accurately ripped (confidence 6) [04444120] (AR v1)
Copy OK

Track 10

Filename G:\RRC's Rip\10-Rendez-Vous III (Harpe Laser).wav

Pre-gap length 0:00:00.03

Peak level 75.5 %
Extraction speed 6.4 X
Track quality 100.0 %
Test CRC 529EC282
Copy CRC 529EC282
Accurately ripped (confidence 6) [B909B8E2] (AR v1)
Copy OK

Track 11

Filename G:\RRC's Rip\11-Rendez-Vous II Part 1.wav

Pre-gap length 0:00:00.02

Peak level 69.6 %
Extraction speed 6.3 X
Track quality 100.0 %
Test CRC 8975E165
Copy CRC 8975E165
Accurately ripped (confidence 6) [C7B9E531] (AR v1)
Copy OK

Track 12

Filename G:\RRC's Rip\12-Rendez-Vous II Part 2.wav

Pre-gap length 0:00:00.03

Peak level 74.9 %
Extraction speed 6.5 X
Track quality 100.0 %
Test CRC 3022F140
Copy CRC 3022F140
Accurately ripped (confidence 6) [72AF44D4] (AR v1)
Copy OK

Track 13

Filename G:\RRC's Rip\13-Rendez-Vous II Part 3.wav

Pre-gap length 0:00:00.03

Peak level 86.2 %
Extraction speed 6.8 X
Track quality 100.0 %
Test CRC E04B9FB3
Copy CRC E04B9FB3
Accurately ripped (confidence 6) [13566394] (AR v1)
Copy OK

Track 14

Filename G:\RRC's Rip\14-Rendez-Vous II Part 4.wav

Pre-gap length 0:00:00.02

Peak level 96.4 %
Extraction speed 6.6 X
Track quality 100.0 %
Test CRC DEB69CAC
Copy CRC DEB69CAC
Accurately ripped (confidence 6) [F7A56279] (AR v1)
Copy OK

Track 15

Filename G:\RRC's Rip\15-Ron's Piece.wav

Pre-gap length 0:00:00.03

Peak level 69.4 %
Extraction speed 7.5 X
Track quality 100.0 %
Test CRC E88AE28E
Copy CRC E88AE28E
Accurately ripped (confidence 6) [FB0EFD96] (AR v1)
Copy OK

Track 16

Filename G:\RRC's Rip\16-Rendez-Vous IV.wav

Pre-gap length 0:00:00.03

Peak level 94.4 %
Extraction speed 7.8 X
Track quality 100.0 %
Test CRC 4E882609
Copy CRC 4E882609
Accurately ripped (confidence 6) [106F38A1] (AR v1)
Copy OK


All tracks accurately ripped

No errors occurred

End of status report

–– CUETools DB Plugin V2.1.6

[CTDB TOCID: fZa9zslCaDscoxvWPdKvGAAyPew-] found
Submit result: fZa9zslCaDscoxvWPdKvGAAyPew- has been confirmed
Track | CTDB Status
1 | (93/96) Accurately ripped
2 | (92/96) Accurately ripped
3 | (93/96) Accurately ripped
4 | (93/96) Accurately ripped
5 | (92/96) Accurately ripped
6 | (93/96) Accurately ripped
7 | (93/96) Accurately ripped
8 | (92/96) Accurately ripped
9 | (93/96) Accurately ripped
10 | (90/96) Accurately ripped
11 | (92/96) Accurately ripped
12 | (91/96) Accurately ripped
13 | (93/96) Accurately ripped
14 | (90/96) Accurately ripped
15 | (91/96) Accurately ripped
16 | (86/96) Accurately ripped


==== Log checksum B999C7A5F79FCBCB1FF4671DB42D7B0B9756D85D82BBD2C050ABCE6097924D3C ====

[CUETools log; Date: 31.08.2019 13:57:50; Version: 2.1.4]
Pregap length 00:00:32.
[CTDB TOCID: fZa9zslCaDscoxvWPdKvGAAyPew-] found.
Track | CTDB Status
1 | (191/198) Accurately ripped
2 | (191/198) Accurately ripped
3 | (193/198) Accurately ripped
4 | (194/198) Accurately ripped
5 | (192/198) Accurately ripped
6 | (192/198) Accurately ripped
7 | (193/198) Accurately ripped
8 | (189/198) Accurately ripped, or (2/198) differs in 2 samples @01:50:61
9 | (193/198) Accurately ripped
10 | (190/198) Accurately ripped
11 | (192/198) Accurately ripped
12 | (190/198) Accurately ripped
13 | (193/198) Accurately ripped
14 | (188/198) Accurately ripped
15 | (188/198) Accurately ripped
16 | (181/198) Accurately ripped
[AccurateRip ID: 00192ff1-01376de5-cf0b4b10] found.
Track [ CRC | V2 ] Status
01 [b7d1a312|d26c0d15] (07+02/51) Accurately ripped
02 [6fb2ab3c|b1dc2980] (07+02/51) Accurately ripped
03 [bbaaed4d|071dcde0] (07+02/51) Accurately ripped
04 [c9b207d4|789b9361] (07+02/51) Accurately ripped
05 [734cc2e6|9bfbdfdb] (07+02/51) Accurately ripped
06 [d55a6754|b8437507] (06+02/50) Accurately ripped
07 [ff894180|e52c143c] (06+02/50) Accurately ripped
08 [46d0452b|0b9fd27a] (06+02/50) Accurately ripped
09 [04444120|b8953d42] (06+02/50) Accurately ripped
10 [b909b8e2|7df9e3d7] (06+02/50) Accurately ripped
11 [c7b9e531|ffb9e565] (06+02/50) Accurately ripped
12 [72af44d4|8f2ebf07] (06+02/50) Accurately ripped
13 [13566394|28fc6c72] (06+02/50) Accurately ripped
14 [f7a56279|1baf8771] (06+02/50) Accurately ripped
15 [fb0efd96|23034592] (06+02/50) Accurately ripped
16 [106f38a1|dba5c5c9] (06+02/51) Accurately ripped
Offsetted by -882:
01 [8a8dbeae] (09/51) Accurately ripped
02 [e643ceb1] (09/51) Accurately ripped
03 [91c16395] (09/51) Accurately ripped
04 [625ee689] (09/51) Accurately ripped
05 [8938b622] (09/51) Accurately ripped
06 [2dc4554a] (09/50) Accurately ripped
07 [cbcfe011] (09/50) Accurately ripped
08 [5f9b73ce] (09/50) Accurately ripped
09 [dc31140a] (09/50) Accurately ripped
10 [65ec21d2] (09/50) Accurately ripped
11 [ba1e0f9d] (09/50) Accurately ripped
12 [6694bb1a] (09/50) Accurately ripped
13 [55ca21bf] (09/50) Accurately ripped
14 [98fee465] (09/50) Accurately ripped
15 [f8007f62] (09/50) Accurately ripped
16 [6b0b14f1] (09/51) Accurately ripped
Offsetted by 1094:
01 [72bfcc3e] (02/51) Accurately ripped
02 [0c4fd4cf] (02/51) Accurately ripped
03 [748276b2] (02/51) Accurately ripped
04 [c9082088] (02/51) Accurately ripped
05 [aa3731ef] (02/51) Accurately ripped
06 [c174b0b6] (02/50) Accurately ripped
07 [e09e33d1] (02/50) Accurately ripped
08 [24bf4647] (02/50) Accurately ripped
09 [98f0f5f2] (02/50) Accurately ripped
10 [0309b8be] (02/50) Accurately ripped
11 [218dc3a3] (02/50) Accurately ripped
12 [a2aa21cb] (02/50) Accurately ripped
13 [c8136262] (02/50) Accurately ripped
14 [a5c5ec7d] (02/50) Accurately ripped
15 [714462df] (02/50) Accurately ripped
16 [245c779b] (02/51) Accurately ripped
Offsetted by 1693:
01 [45441896] (09/51) Accurately ripped
02 [9604034a] (09/51) Accurately ripped
03 [a4b40fa6] (09/51) Accurately ripped
04 [0498f078] (09/51) Accurately ripped
05 [94184c9d] (09/51) Accurately ripped
06 [8bb864f1] (09/50) Accurately ripped
07 [51253f20] (09/50) Accurately ripped
08 [a39e7240] (09/50) Accurately ripped
09 [0b80d5d8] (09/50) Accurately ripped
10 [e06edc48] (09/50) Accurately ripped
11 [7a54916a] (09/50) Accurately ripped
12 [5b29bf72] (09/50) Accurately ripped
13 [6185e712] (09/50) Accurately ripped
14 [4413ae48] (09/50) Accurately ripped
15 [16c9f4c9] (09/50) Accurately ripped
16 [2caef9aa] (10/51) Accurately ripped
Offsetted by -1546:
01 [e393ffe7] (00/51) No match (V2 was not tested)
02 [c97f3ff0] (00/51) No match (V2 was not tested)
03 [0c698387] (00/51) No match (V2 was not tested)
04 [aff36059] (00/51) No match (V2 was not tested)
05 [b6dd95a4] (00/51) No match (V2 was not tested)
06 [67ba9c5f] (00/50) No match (V2 was not tested)
07 [447e46a2] (00/50) No match (V2 was not tested)
08 [1751396c] (00/50) No match (V2 was not tested)
09 [d52ab32f] (00/50) No match (V2 was not tested)
10 [542cb0c8] (00/50) No match (V2 was not tested)
11 [3961d65e] (00/50) No match (V2 was not tested)
12 [044114d1] (00/50) No match (V2 was not tested)
13 [119e745a] (00/50) No match (V2 was not tested)
14 [63e1e559] (00/50) No match (V2 was not tested)
15 [46a81a75] (00/50) No match (V2 was not tested)
16 [408e6cde] (00/51) No match (V2 was not tested)

Track Peak [ CRC32 ] [W/O NULL] [ LOG ]
– 100,0 [5F260585] [D7FC382A]
01 74,9 [640FD0F6] [30A2588C] CRC32
02 82,3 [D2B78F5A] [410FD7FF] CRC32
03 83,6 [37E16B46] [E7F4451C] CRC32
04 46,5 [4A405E77] [9A542EA8] CRC32
05 100,0 [9C97B465] [E563D1DC] CRC32
06 100,0 [8B532798] [F6FFA186] CRC32
07 84,1 [D0E7D9C2] [A049A426] CRC32
08 100,0 [7D4952B0] [70200057] CRC32
09 37,6 [50C17C07] [4BE567C6] CRC32
10 75,5 [529EC282] [8B36E779] CRC32
11 69,6 [8975E165] [4DB8E66D] CRC32
12 74,9 [3022F140] [AB49D7C6] CRC32
13 86,2 [E04B9FB3] [27B8E012] CRC32
14 96,4 [DEB69CAC] [D23DFC67] CRC32
15 69,4 [E88AE28E] [7C51A3EF] CRC32
16 94,4 [4E882609] [34B91C2D] CRC32

Thanks to RRC