Tags
Language
Tags

Jean-Michel Jarre - Rendez-Vous (1986) [Reissue 1997]

Posted By: gribovar
Jean-Michel Jarre - Rendez-Vous (1986) [Reissue 1997]

Jean-Michel Jarre - Rendez-Vous (1986) [Reissue 1997]
EAC Rip | FLAC (tracks+.cue+log) - 244 MB | MP3 CBR 320 kbps (LAME 3.93) - 84 MB | Covers - 75 MB
Genre: Traditional Electronic | RAR 3% Rec. | Label: Epic (EPC 488141 2), Remastered

Just after his live performance in Houston to celebrate NASA's anniversary, Jean-Michel Jarre released Rendez-Vous, an appropriately cosmic-sounding album of glittering synth pop. It consists of the same music heard at the Houston concert and shows Jarre moving closer to conventional rock territory, though still with his distinct blueprint. The final track, "Last Rendez-Vous: Ron's Piece," was composed by Jarre for astronaut Ron McNair and was intended to be the first musical piece played and recorded in space. McNair's historic duty was cut short, however, by the Challenger shuttle disaster of January 1986.

Tracklist:
01. First Rendez-Vous
02. Second Rendez-Vous
03. Third Rendez-Vous
04. Fourth Rendez-Vous
05. Fifth Rendez-Vous
06. Last Rendez-Vous (Ron's Piece)

Total time: 35:03

Exact Audio Copy V1.0 beta 6 from 9. April 2015

EAC extraction logfile from 14. December 2016, 19:34

Jean-Michel Jarre / Rendez-Vous

Used drive : PIONEER DVD-RW DVR-215 Adapter: 1 ID: 2

Read mode : Secure
Utilize accurate stream : Yes
Defeat audio cache : Yes
Make use of C2 pointers : No

Read offset correction : 48
Overread into Lead-In and Lead-Out : No
Fill up missing offset samples with silence : Yes
Delete leading and trailing silent blocks : No
Null samples used in CRC calculations : Yes
Used interface : Native Win32 interface for Win NT & 2000
Gap handling : Appended to previous track

Used output format : User Defined Encoder
Selected bitrate : 1024 kBit/s
Quality : High
Add ID3 tag : No
Command line compressor : C:\Program Files (x86)\Exact Audio Copy\FLAC\FLAC.EXE
Additional command line options : -6 -V -T "COMMENT=Ripped by RRC (NEW-TEAM org)" -T "ARTIST=%artist%" -T "TITLE=%title%" -T "ALBUM=%albumtitle%" -T "DATE=%year%" -T "TRACKNUMBER=%tracknr%" -T "GENRE=%genre%" -T "COMMENT=%comment%" -T "BAND=%albuminterpret%" -T "ALBUMARTIST=%albuminterpret%" -T "COMPOSER=%composer%" %haslyrics%–tag-from-file=LYRICS="%lyricsfile%"%haslyrics% -T "DISCNUMBER=%cdnumber%" -T "TOTALDISCS=%totalcds%" -T "TOTALTRACKS=%numtracks%" %hascover%–picture="%coverfile%"%hascover% %source% -o %dest%


TOC of the extracted CD

Track | Start | Length | Start sector | End sector
––––––––––––––––––––––––––––-
1 | 0:00.00 | 2:54.17 | 0 | 13066
2 | 2:54.17 | 10:55.03 | 13067 | 62194
3 | 13:49.20 | 3:31.22 | 62195 | 78041
4 | 17:20.42 | 3:57.00 | 78042 | 95816
5 | 21:17.42 | 7:41.30 | 95817 | 130421
6 | 28:58.72 | 6:04.38 | 130422 | 157759


Track 1

Filename G:\RRC's Rip\01-First Rendez-Vous (Premier Rendez-Vous).wav

Pre-gap length 0:00:02.00

Peak level 99.9 %
Extraction speed 4.1 X
Track quality 100.0 %
Test CRC 249BF4A7
Copy CRC 249BF4A7
Accurately ripped (confidence 90) [1ABE9BCD] (AR v2)
Copy OK

Track 2

Filename G:\RRC's Rip\02-Second Rendez-Vous (Second Rendez-Vous).wav

Peak level 100.0 %
Extraction speed 5.3 X
Track quality 99.9 %
Test CRC 6283B4EF
Copy CRC 6283B4EF
Accurately ripped (confidence 89) [4C4B4457] (AR v2)
Copy OK

Track 3

Filename G:\RRC's Rip\03-Third Rendez-Vous (Troisième Rendez-Vous).wav

Peak level 100.0 %
Extraction speed 5.7 X
Track quality 100.0 %
Test CRC CEADEEB5
Copy CRC CEADEEB5
Accurately ripped (confidence 91) [E708B68C] (AR v2)
Copy OK

Track 4

Filename G:\RRC's Rip\04-Fourth Rendez-Vous (Quatrième Rendez-Vous).wav

Peak level 100.0 %
Extraction speed 6.0 X
Track quality 100.0 %
Test CRC 43D606E0
Copy CRC 43D606E0
Accurately ripped (confidence 92) [45097671] (AR v2)
Copy OK

Track 5

Filename G:\RRC's Rip\05-Fifth Rendez-Vous (Cinquième Rendez-Vous).wav

Peak level 100.0 %
Extraction speed 6.9 X
Track quality 100.0 %
Test CRC 974C4259
Copy CRC 974C4259
Accurately ripped (confidence 91) [9392F68A] (AR v2)
Copy OK

Track 6

Filename G:\RRC's Rip\06-Last Rendez-Vous (Dernier Rendez-Vous).wav

Peak level 100.0 %
Extraction speed 7.3 X
Track quality 100.0 %
Test CRC DAA8425A
Copy CRC DAA8425A
Accurately ripped (confidence 90) [6C23764E] (AR v2)
Copy OK


All tracks accurately ripped

No errors occurred

End of status report

–– CUETools DB Plugin V2.1.6

[CTDB TOCID: 2vazzvPtaQkcSxrsJrhCT5rEBVc-] found
Submit result: 2vazzvPtaQkcSxrsJrhCT5rEBVc- has been confirmed
Track | CTDB Status
1 | (121/157) Accurately ripped
2 | (119/157) Accurately ripped, or (2/157) differs in 432 samples @03:10:69-03:10:70,03:17:00-03:17:01,03:27:74,03:31:28-03:31:29,03:31:49-03:31:50
3 | (121/157) Accurately ripped
4 | (121/157) Accurately ripped
5 | (120/157) Accurately ripped
6 | (119/157) Accurately ripped


==== Log checksum F51DF82BFB678A1E91A3BC82F83B9EE694C33139AEE517C1D604A0D03D5AF489 ====

[CUETools log; Date: 08.02.2019 15:45:44; Version: 2.1.4]
[CTDB TOCID: 2vazzvPtaQkcSxrsJrhCT5rEBVc-] found.
Track | CTDB Status
1 | (198/265) Accurately ripped
2 | (191/265) Accurately ripped, or (6/265) differs in 432 samples @03:10:69-03:10:70,03:17:00-03:17:01,03:27:74,03:31:28-03:31:29,03:31:49-03:31:50
3 | (198/265) Accurately ripped
4 | (198/265) Accurately ripped
5 | (197/265) Accurately ripped
6 | (195/265) Accurately ripped
[AccurateRip ID: 000832d7-002c1c49-42083706] found.
Track [ CRC | V2 ] Status
01 [72029e52|1abe9bcd] (105+107/280) Accurately ripped
02 [fc31592c|4c4b4457] (107+106/281) Accurately ripped
03 [1ab2a735|e708b68c] (104+108/281) Accurately ripped
04 [7fe52d01|45097671] (104+109/282) Accurately ripped
05 [309b13f9|9392f68a] (104+108/281) Accurately ripped
06 [6c3e1fb0|6c23764e] (104+107/280) Accurately ripped
Offsetted by -676:
01 [a68bab0b] (002/280) Accurately ripped
02 [8ae03516] (002/281) Accurately ripped
03 [b6dbb1c2] (002/281) Accurately ripped
04 [968646ed] (002/282) Accurately ripped
05 [ddd0340b] (002/281) Accurately ripped
06 [b2996596] (002/280) Accurately ripped
Offsetted by -268:
01 [37be4851] (000/280) No match (V2 was not tested)
02 [d2eb3b4e] (000/281) No match (V2 was not tested)
03 [d359f818] (000/281) No match (V2 was not tested)
04 [18dc6302] (000/282) No match (V2 was not tested)
05 [c606dbf3] (000/281) No match (V2 was not tested)
06 [95010f31] (000/280) No match (V2 was not tested)

Track Peak [ CRC32 ] [W/O NULL] [ LOG ]
– 99,9 [0E34F0FB] [62746436]
01 99,9 [249BF4A7] [37B5B317] CRC32
02 99,9 [6283B4EF] [77F02FF7] CRC32
03 99,9 [CEADEEB5] [A14BA602] CRC32
04 99,9 [43D606E0] [7C0B7EF1] CRC32
05 99,9 [974C4259] [B223D94B] CRC32
06 99,9 [DAA8425A] [6F1B1965] CRC32

Thanks to RRC

See also:
Jean-Michel Jarre - Original A...976-2000) [5CD Box Set] (2018)
Jean-Michel Jarre - Geometry of Love (2003) [Remastered 2018]
Glenn Main - Tribute to Jean Michel Jarre (2016)