Subcategories
Tags
Language
Tags

Jean-Michel Jarre - Revolutions (1988) [Non-remastered]

Posted By: gribovar
Jean-Michel Jarre - Revolutions (1988) [Non-remastered]

Jean-Michel Jarre - Revolutions (1988) [Non-remastered]
EAC Rip | FLAC (tracks+.cue+log) - 286 MB | MP3 CBR 320 kbps (LAME 3.93) - 108 MB | Covers included
Genre: Traditional Electronic, Progressive Electronic | RAR 3% Rec. | Label: Disques Dreyfus/Polydor (837 098-2)

While it can be easy to dislike and dismiss some cookie-cutter electronic music, the challenge lies in finding reasons to listen to it again. Such is the case with Revolutions by Jean Michel Jarre. One reviewer wrote, simply, "(This) is not revolutionary." That is true; Jarre breaks no new ground with the release of this album. He does, however, continue to create original music in his own style. He is often imitated and that is the sincerest form of flattery. This album features ten short pieces (five minutes and 22 seconds is the longest) of pop influenced e-music. This disc neither challenges nor offends the listener. It has its moments but it neither soars nor plunges. Of course, die-hard Jarre fans will love this disc. Fans of Synergy, Char-El, Klaus Schulze, and Ashra will like it.

Tracklist:
01. Industrial Revolution: Overture
02. Industrial Revolution: Part 1
03. Industrial Revolution: Part 2
04. Industrial Revolution: Part 3
05. London Kid
06. Revolution, Revolutions
07. Tokyo Kid
08. Computer Weekend
09. September
10. The Emigrant

Total time: 44:30

Exact Audio Copy V1.0 beta 2 from 29. April 2011

EAC extraction logfile from 30. May 2011, 13:42

Jean Michel Jarre / Revolutions (Disques Dreyfus/Polydor CD 837 098-2)

Used drive : TSSTcorpCDDVDW SH-S223C Adapter: 3 ID: 0

Read mode : Secure
Utilize accurate stream : Yes
Defeat audio cache : Yes
Make use of C2 pointers : No

Read offset correction : 697
Overread into Lead-In and Lead-Out : No
Fill up missing offset samples with silence : Yes
Delete leading and trailing silent blocks : No
Null samples used in CRC calculations : Yes
Used interface : Installed external ASPI interface
Gap handling : Appended to previous track

Used output format : User Defined Encoder
Selected bitrate : 1024 kBit/s
Quality : High
Add ID3 tag : Yes
Command line compressor : C:\Program Files\Exact Audio Copy\flac.exe
Additional command line options : -6 -V -T "artist=%artist%" -T "title=%title%" -T "album=%albumtitle%" -T "date=%year%" -T "tracknumber=%tracknr%" -T "genre=%genre%" %source%


TOC of the extracted CD

Track | Start | Length | Start sector | End sector
––––––––––––––––––––––––––––-
1 | 0:00.33 | 5:11.10 | 33 | 23367
2 | 5:11.43 | 5:10.55 | 23368 | 46672
3 | 10:22.23 | 2:19.67 | 46673 | 57164
4 | 12:42.15 | 4:11.35 | 57165 | 76024
5 | 16:53.50 | 4:28.30 | 76025 | 96154
6 | 21:22.05 | 4:59.15 | 96155 | 118594
7 | 26:21.20 | 5:23.45 | 118595 | 142864
8 | 31:44.65 | 4:43.10 | 142865 | 164099
9 | 36:28.00 | 4:05.70 | 164100 | 182544
10 | 40:33.70 | 3:57.08 | 182545 | 200327


Track 1

Filename D:\Jean Michel Jarre\1988 - Revolutions (Disques Dreyfus,Polydor CD 837 098-2)\01 - Industrial Revolution - Overture.wav

Pre-gap length 0:00:02.33

Peak level 97.3 %
Extraction speed 2.1 X
Track quality 100.0 %
Test CRC BCCABEA6
Copy CRC BCCABEA6
Accurately ripped (confidence 2) [1B3F2E12] (AR v2)
Copy OK

Track 2

Filename D:\Jean Michel Jarre\1988 - Revolutions (Disques Dreyfus,Polydor CD 837 098-2)\02 - Industrial Revolution - Part 1.wav

Peak level 98.5 %
Extraction speed 2.1 X
Track quality 99.9 %
Test CRC 9D71616C
Copy CRC 9D71616C
Accurately ripped (confidence 2) [44C328AE] (AR v2)
Copy OK

Track 3

Filename D:\Jean Michel Jarre\1988 - Revolutions (Disques Dreyfus,Polydor CD 837 098-2)\03 - Industrial Revolution - Part 2.wav

Peak level 98.4 %
Extraction speed 2.2 X
Track quality 100.0 %
Test CRC 6CCFC67E
Copy CRC 6CCFC67E
Accurately ripped (confidence 2) [4152A71E] (AR v2)
Copy OK

Track 4

Filename D:\Jean Michel Jarre\1988 - Revolutions (Disques Dreyfus,Polydor CD 837 098-2)\04 - Industrial Revolution - Part 3.wav

Peak level 95.1 %
Extraction speed 2.6 X
Track quality 100.0 %
Test CRC 4AC0A83D
Copy CRC 4AC0A83D
Accurately ripped (confidence 2) [6B8E716E] (AR v2)
Copy OK

Track 5

Filename D:\Jean Michel Jarre\1988 - Revolutions (Disques Dreyfus,Polydor CD 837 098-2)\05 - London Kid.wav

Peak level 98.0 %
Extraction speed 2.7 X
Track quality 100.0 %
Test CRC D27C78B2
Copy CRC D27C78B2
Accurately ripped (confidence 2) [0931909C] (AR v2)
Copy OK

Track 6

Filename D:\Jean Michel Jarre\1988 - Revolutions (Disques Dreyfus,Polydor CD 837 098-2)\06 - Revolution, Revulotions.wav

Pre-gap length 0:00:01.10

Peak level 98.0 %
Extraction speed 2.9 X
Track quality 100.0 %
Test CRC E40232E8
Copy CRC E40232E8
Accurately ripped (confidence 2) [E5F4BB00] (AR v2)
Copy OK

Track 7

Filename D:\Jean Michel Jarre\1988 - Revolutions (Disques Dreyfus,Polydor CD 837 098-2)\07 - Tokyo Kid.wav

Peak level 94.3 %
Extraction speed 3.1 X
Track quality 100.0 %
Test CRC A707EA5A
Copy CRC A707EA5A
Accurately ripped (confidence 2) [BEEDB7F0] (AR v2)
Copy OK

Track 8

Filename D:\Jean Michel Jarre\1988 - Revolutions (Disques Dreyfus,Polydor CD 837 098-2)\08 - Computer Weekend.wav

Peak level 96.4 %
Extraction speed 3.2 X
Track quality 100.0 %
Test CRC 0D28D27F
Copy CRC 0D28D27F
Accurately ripped (confidence 2) [CD3660C7] (AR v2)
Copy OK

Track 9

Filename D:\Jean Michel Jarre\1988 - Revolutions (Disques Dreyfus,Polydor CD 837 098-2)\09 - September.wav

Peak level 98.6 %
Extraction speed 3.3 X
Track quality 100.0 %
Test CRC 8BCE0920
Copy CRC 8BCE0920
Accurately ripped (confidence 2) [0E7E6B24] (AR v2)
Copy OK

Track 10

Filename D:\Jean Michel Jarre\1988 - Revolutions (Disques Dreyfus,Polydor CD 837 098-2)\10 - The Emigrant.wav

Peak level 95.1 %
Extraction speed 3.4 X
Track quality 100.0 %
Test CRC 4E7D3CF5
Copy CRC 4E7D3CF5
Accurately ripped (confidence 2) [3CAC19C6] (AR v2)
Copy OK


All tracks accurately ripped

No errors occurred

End of status report

==== Log checksum 406EF49A09FB2BA6DF7ACCB9FD9D66E36D5964B3A96D53855DB1D10D8F1C5F0E ====

[CUETools log; Date: 04.06.2021 11:52:29; Version: 2.1.4]
Pregap length 00:00:33.
[CTDB TOCID: 8G_HVaw99BIBALabQ8eF7_7z08c-] found.
Track | CTDB Status
1 | (256/260) Accurately ripped
2 | (258/260) Accurately ripped
3 | (259/260) Accurately ripped
4 | (259/260) Accurately ripped
5 | (257/260) Accurately ripped
6 | (259/260) Accurately ripped
7 | (251/260) Accurately ripped
8 | (254/260) Accurately ripped
9 | (257/260) Accurately ripped
10 | (256/260) Accurately ripped
[AccurateRip ID: 0010e78c-0087105a-770a6f0a] found.
Track [ CRC | V2 ] Status
01 [475869e7|1b3f2e12] (066+108/176) Accurately ripped
02 [d6842a7b|44c328ae] (065+109/176) Accurately ripped
03 [377ea012|4152a71e] (066+108/176) Accurately ripped
04 [f6e5ae70|6b8e716e] (066+108/176) Accurately ripped
05 [988b4d57|0931909c] (066+107/175) Accurately ripped
06 [aff1d200|e5f4bb00] (067+111/180) Accurately ripped
07 [9e66be48|beedb7f0] (067+108/177) Accurately ripped
08 [e32c8e58|cd3660c7] (067+106/175) Accurately ripped
09 [44a1b94d|0e7e6b24] (066+108/176) Accurately ripped
10 [197f58c0|3cac19c6] (066+108/176) Accurately ripped
Offsetted by -1084:
01 [51a333c5] (000/176) No match (V2 was not tested)
02 [493db703] (000/176) No match (V2 was not tested)
03 [03678f27] (000/176) No match (V2 was not tested)
04 [38010132] (000/176) No match (V2 was not tested)
05 [ed8ac662] (000/175) No match (V2 was not tested)
06 [7dd49d20] (000/180) No match (V2 was not tested)
07 [a748774f] (000/177) No match (V2 was not tested)
08 [5a3a55a8] (000/175) No match (V2 was not tested)
09 [6f7bc665] (000/176) No match (V2 was not tested)
10 [aea128ed] (000/176) No match (V2 was not tested)

Track Peak [ CRC32 ] [W/O NULL] [ LOG ]
– 98,6 [CFCC1E4E] [C9E5DF86]
01 97,3 [BCCABEA6] [80026B04] CRC32
02 98,5 [9D71616C] [B814FD0F] CRC32
03 98,4 [6CCFC67E] [BA787774] CRC32
04 95,1 [4AC0A83D] [E78BDCB2] CRC32
05 98,0 [D27C78B2] [D919B628] CRC32
06 98,0 [E40232E8] [3378C7BF] CRC32
07 94,3 [A707EA5A] [85057C5C] CRC32
08 96,4 [0D28D27F] [CB574F02] CRC32
09 98,6 [8BCE0920] [E0F8530F] CRC32
10 95,1 [4E7D3CF5] [E688EA60] CRC32

Thanks to fozzie

See also: